osu file format v5

[General]
AudioFilename: Seiryu-Time to Air.mp3
AudioLeadIn: 3000
PreviewTime: -1
Countdown: 0
SampleSet: Soft
StackLeniency: 0.7
Mode: 0
LetterboxInBreaks: 1

[Metadata]
Title:Time to Air
Artist:Seiryu
Creator:Alace
Version:Another
Source:beatmania IIDX 15
Tags:

[Difficulty]
HPDrainRate:7
CircleSize:5
OverallDifficulty:7
SliderMultiplier:1.6
SliderTickRate:2

[Events]
//Background and Video events
0,0,"Time to Air2.png"
//Break Periods
2,60499,64740
//Storyboard Layer 0 (Background)
//Storyboard Layer 1 (Failing)
//Storyboard Layer 2 (Passing)
//Storyboard Layer 3 (Foreground)
//Storyboard Sound Samples
//Background Colour Transformations
3,100,0,0,0

[TimingPoints]
300,314.13612565445,4,1,0,100,1
1006,314.13612565445,4,2,0,100,0
1478,314.13612565445,4,1,0,78,0
2263,314.13612565445,4,2,0,100,0
3991,314.13612565445,4,1,0,100,0
7289,314.13612565445,4,2,0,100,0
7996,157.068062827225,4,2,0,100,1
8153,314.13612565445,4,2,0,100,1
10194,314.13612565445,4,1,0,100,0
11529,314.13612565445,4,2,1,80,0
12785,314.13612565445,4,1,0,100,0
14042,314.13612565445,4,2,1,79,0
15298,314.13612565445,4,1,0,100,0
16477,314.13612565445,4,2,1,80,0
18990,314.13612565445,4,2,0,100,0
20325,314.13612565445,4,1,0,100,0
25193,314.13612565445,4,2,1,74,0
25585,314.13612565445,4,1,0,100,0
26451,314.13612565445,4,2,1,74,0
26765,314.13612565445,4,1,0,100,0
30378,314.13612565445,4,2,0,100,0
35325,314.13612565445,4,1,0,100,0
39095,314.13612565445,4,2,1,79,0
40351,314.13612565445,4,1,0,100,0
42472,314.13612565445,4,2,0,100,0
42943,314.13612565445,4,1,0,100,0
44906,314.13612565445,4,2,0,100,0
45456,314.13612565445,4,1,0,100,0
50168,314.13612565445,4,2,1,78,0
50639,314.13612565445,4,1,0,100,0
56137,314.13612565445,4,2,1,75,0
56922,314.13612565445,4,1,1,100,0
57393,314.13612565445,4,2,1,78,0
58257,314.13612565445,4,1,0,100,0
59200,314.13612565445,4,2,1,100,0
75613,314.13612565445,4,1,0,100,0
99488,314.13612565445,4,2,1,83,0
101922,314.13612565445,4,1,0,100,0
110875,157.068062827225,4,2,1,63,1
112132,314.13612565445,4,1,0,100,1
112760,314.13612565445,4,1,0,83,0
113545,314.13612565445,4,1,0,66,0
114330,314.13612565445,4,2,0,51,0
115273,314.13612565445,4,2,0,30,0
116215,314.13612565445,4,2,0,10,0

[Colours]
Combo1 : 192,163,254
Combo2 : 85,190,247
Combo3 : 177,235,169
Combo4 : 247,204,115

[HitObjects]
56,72,300,1,4
112,120,457,1,0
168,72,614,2,0,C|194:53|220:71|255:53|278:75|310:54,1,160
368,64,1085,2,2,C|368:21,2,40,2|0|2
368,136,1399,5,8
424,184,1556,2,0,C|466:212|472:247,1,80,4|0
400,264,1870,1,0
400,336,2027,1,0
336,304,2184,1,0
264,304,2341,2,0,C|218:304,6,40,0|0|0|0|0|0|8
296,240,2970,1,8
296,168,3127,1,8
232,200,3284,5,2
168,224,3441,2,2,C|144:265,2,40
168,152,3755,1,8
104,192,3912,1,8
72,128,4069,6,0,C|42:82|73:50|135:39,1,160,4|0
200,56,4540,5,0
264,88,4697,6,0,C|355:79|386:147,1,160,4|0
312,152,5169,1,0
312,224,5326,5,4
376,200,5483,1,0
424,256,5640,1,8
424,328,5797,1,8
360,288,5954,1,4
304,328,6111,1,0
232,328,6268,1,8
160,328,6425,5,0
88,328,6582,1,4
128,264,6739,1,0
200,264,6896,1,8
272,264,7053,1,8
240,200,7210,2,0,C|240:192|232:200|240:208|248:200,8,40,8|0|0|0|0|0|0|0|4
192,136,7996,6,0,C|356:136,1,160,0|2
424,136,8310,5,2
424,208,8467,2,0,C|467:241|459:266,1,80,2|8
384,264,8781,2,0,C|440:329,1,80,8|2
256,192,9095,12,0,10037
256,32,10351,5,4
16,192,10666,1,8
256,344,10980,1,4
496,192,11294,1,8
496,192,11451,1,8
424,192,11608,6,4,C|424:276,2,80
424,120,12079,5,8
352,120,12236,6,4,C|353:205,2,80
352,48,12707,1,8
288,88,12865,6,0,C|227:30,1,80,4|0
266,103,13179,2,0,C|186:95,1,80,8|0
254,136,13493,2,0,C|181:179,1,80,4|0
265,175,13807,2,0,C|222:246,1,80,8|8
184,304,14120,5,4
120,272,14278,1,4
184,232,14435,1,4
120,200,14591,5,4
184,160,14750,5,4
120,128,14906,1,4
184,88,15063,1,4
120,56,15220,1,4
120,56,15378,5,0
408,96,15692,1,0
120,128,16006,1,0
408,168,16320,1,0
256,192,16635,12,4,17577
256,192,17891,12,4,18834
115,119,19148,5,2
208,40,19305,1,2
328,40,19462,1,2
416,112,19619,1,2
424,232,19776,1,2
328,312,19933,1,2
208,312,20090,1,2
112,232,20247,1,2
112,232,20404,6,0,C|192:231,1,80,4|0
312,208,20718,2,0,C|230:210,1,80,8|0
312,120,21032,2,0,C|214:123,1,80,4|0
112,152,21346,2,0,C|203:150,1,80,8|8
112,152,21660,6,0,C|110:233,1,80,4|0
152,344,21974,2,0,C|154:257,1,80,8|0
240,344,22289,2,0,C|238:255|239:249|240:248,1,80,4|0
200,144,22603,2,0,C|199:237,1,80,8|8
200,144,22917,6,0,C|272:192,1,80,4|0
376,240,23231,2,0,C|304:184,1,80,8|0
432,176,23545,2,0,C|360:120,1,80,4|0
256,80,23859,2,0,C|328:128,1,80,8|8
322,124,24173,5,4
40,192,24488,1,0
320,264,24802,1,0
40,344,25116,1,0
40,344,25271,6,4,C|40:296,2,40,4|4|12
320,264,25744,1,0
40,192,26058,1,0
320,128,26372,1,0
321,128,26529,6,4,C|321:170,2,40,4|4|12
392,128,26844,1,0
440,184,27001,1,2
384,232,27158,1,0
384,304,27315,1,8
320,272,27472,1,0
248,272,27629,1,2
248,344,27786,1,2
184,312,27943,5,8
112,312,28100,1,0
152,248,28257,1,2
184,312,28414,1,0
248,272,28571,1,8
248,200,28728,2,2,C|265:151|245:106|249:106,2,80
320,200,29200,5,4
328,128,29357,2,0,C|370:107|421:136|420:138,1,80,0|8
472,112,29671,1,8
472,184,29828,2,0,C|500:226|429:305,1,160,4|8
360,304,30299,1,8
288,304,30456,5,4
216,304,30613,1,2
160,256,30770,1,2
112,200,30927,1,2
288,32,31242,5,2
360,32,31399,1,10
424,64,31556,1,2
488,96,31713,1,2
488,168,31870,1,10
424,208,32027,1,10
424,280,32184,1,0
128,280,32498,5,2
128,208,32655,1,2
64,176,32812,1,2
64,104,32969,1,2
128,64,33126,1,2
192,32,33283,1,2
264,32,33440,1,2
264,304,33755,5,2
264,232,33912,1,10
264,160,34069,1,2
264,88,34226,1,2
320,128,34383,1,10
320,200,34540,1,10
320,272,34697,1,0
376,232,34854,1,0
376,160,35011,1,2
432,200,35168,1,2
32,328,35482,5,4
88,48,35796,1,0
152,328,36111,1,0
208,48,36425,1,0
272,328,36739,1,4
328,48,37053,1,0
400,328,37367,1,0
24,192,37995,5,4
264,352,38310,1,8
496,184,38624,1,4
256,24,38938,1,8
256,192,39252,12,4,40195
264,192,40509,6,0,C|256:224,1,80,0|0
168,272,40823,1,0
96,272,40980,1,0
448,56,41294,5,0
456,128,41451,2,2,C|456:288,1,160
400,336,41922,1,0
344,288,42079,2,0,C|344:120,1,160,2|2
400,88,42550,5,2
400,160,42707,1,2
400,232,42865,1,2
328,232,43022,6,8,C|240:272|192:232,2,160,4|0|0
328,160,43807,5,0
288,96,43964,1,8
224,136,44121,1,0
168,88,44278,2,0,C|80:88,1,80,8|0
88,160,44592,1,8
160,160,44749,1,8
472,336,45063,5,2
472,264,45221,2,2,C|472:176,1,80,2|2
400,176,45535,1,8
400,248,45692,1,0
400,320,45849,1,8
336,288,46006,1,8
32,48,46320,5,0
72,104,46477,1,2
112,160,46634,1,0
160,216,46791,1,2
208,272,46948,1,0
256,328,47105,1,2
312,376,47262,1,2
456,48,47577,5,0
408,104,47734,1,8
360,160,47891,1,0
312,216,48048,1,8
264,272,48205,1,0
216,328,48362,1,8
160,376,48519,1,8
88,376,48676,5,4
32,328,48833,2,0,C|32:240,3,80,0|0|0|8
32,176,49461,1,8
104,176,49618,2,0,C|184:176|200:176|208:168,3,80,2|2|2|0
256,176,50247,6,4,C|256:224,4,40,4|4|4|4|12
256,104,50718,1,0
296,40,50875,1,8
328,104,51032,1,0
368,160,51190,5,4
440,176,51347,1,0
480,232,51503,1,8
432,288,51660,1,8
368,312,51818,5,4
368,240,51975,1,0
304,272,52132,1,8
232,272,52289,1,0
232,200,52446,5,4
304,200,52603,1,0
264,136,52760,1,8
264,64,52917,1,8
200,96,53074,5,4
200,168,53231,1,0
136,136,53389,1,8
136,208,53546,1,0
136,280,53703,5,4
136,352,53860,1,0
72,320,54017,1,8
72,248,54174,1,8
136,208,54331,5,4
200,168,54488,1,0
136,136,54645,1,8
200,96,54802,1,8
272,96,54959,6,0,C|352:96,2,80,4|0|8
272,168,55430,1,8
344,168,55587,6,8,C|344:256,1,80,4|8
416,248,55901,1,8
376,304,56058,1,8
304,304,56215,6,4,C|304:344,8,40,4|4|4|4|4|4|4|4|12
232,304,57001,5,8
176,256,57158,1,8
120,208,57315,1,8
64,160,57472,6,4,C|32:200,8,40,4|4|4|4|4|4|4|4|12
328,48,58414,5,4
448,312,58729,1,4
184,192,59043,1,4
256,192,59357,12,0,60299
48,56,65639,5,2
88,112,65796,1,0
136,56,65954,1,4
184,112,66111,1,0
240,160,66268,1,2
288,216,66425,1,0
336,160,66582,1,4
384,216,66739,1,0
336,272,66896,5,2
336,344,67053,1,0
264,344,67210,1,4
264,272,67367,1,0
200,304,67524,2,0,C|160:328,1,80,2|0
136,272,67838,2,4,C|120:232|144:200|144:192,1,80,4|0
208,168,68152,5,2
280,168,68310,1,0
248,104,68467,1,6
320,104,68624,1,4
392,104,68781,5,2
448,56,68938,1,0
480,120,69095,1,6
448,184,69252,1,4
384,224,69409,5,10
440,264,69566,1,4
392,320,69723,1,6
320,320,69880,1,4
248,320,70037,6,6,C|160:320,1,80
168,248,70351,2,6,C|248:248,1,80
256,192,70666,12,4,71608
256,192,71922,12,4,72865
96,56,73179,5,0
256,296,73493,1,2
408,56,73807,1,2
408,56,73885,1,0
408,56,73964,1,2
408,128,74121,5,2
408,200,74278,2,0,C|408:192|400:200|408:208|416:200,16,40,2|0|2|0|2|0|2|0|2|0|2|2|2|2|2|2|2
464,304,75692,6,2,C|64:304|32:304,1,480
56,200,76791,5,8
16,88,76948,6,2,C|48:48|72:88|120:48|160:88|200:48|240:88|288:48|320:88|360:48|400:88|440:56,1,640
456,312,78519,5,4
400,272,78676,1,0
400,344,78834,1,0
336,304,78991,1,0
264,264,79147,1,4
264,344,79305,1,0
184,344,79462,1,0
184,264,79619,1,0
104,304,79776,1,4
16,304,79933,1,0
16,216,80090,1,0
104,216,80247,1,0
64,128,80404,1,4
64,32,80561,1,0
160,32,80718,1,4
160,128,80875,1,0
272,88,81032,1,4
352,176,81189,1,4
432,264,81346,1,4
104,56,81974,6,0,C|40:104,1,80,4|0
112,88,82289,2,0,C|80:168,1,80,2|0
136,112,82603,2,0,C|144:200,1,80,4|0
168,120,82917,2,0,C|208:192|216:200|224:200,1,80,2|2
232,120,83231,5,4
280,64,83388,1,0
344,32,83545,1,2
408,64,83702,1,2
456,120,83859,1,4
464,192,84016,1,0
464,264,84173,1,8
416,320,84331,1,8
344,320,84488,5,4
272,304,84645,1,0
216,256,84802,1,2
216,184,84959,1,2
232,112,85116,5,4
288,64,85273,1,0
352,96,85430,1,2
384,160,85587,1,2
384,232,85744,5,4
328,280,85901,1,0
264,240,86058,1,2
224,176,86215,1,2
264,120,86372,5,4
328,152,86529,1,8
304,216,86687,1,8
240,184,86844,1,8
240,256,87001,6,0,C|240:344,1,80,4|0
200,272,87315,2,0,C|184:352,1,80,8|0
160,280,87629,2,0,C|112:352,1,80,4|0
128,272,87943,2,8,C|48:304,1,80
104,248,88257,6,0,C|24:248,1,80,4|0
96,224,88571,2,0,C|16:192,1,80,8|0
96,200,88885,2,0,C|48:136,1,80,4|0
112,176,89200,2,8,C|112:96,1,80
112,24,89514,5,4
232,24,89671,1,0
352,24,89828,1,4
472,32,89985,1,0
472,152,90142,5,4
472,272,90299,1,0
352,272,90457,1,4
232,272,90614,1,4
256,192,90771,12,0,91713
264,192,92027,5,4
16,48,92341,1,0
264,192,92655,1,4
24,344,92969,1,8
24,344,93126,1,8
24,344,93283,5,4
312,344,93598,1,0
312,56,93912,1,4
24,56,94226,1,8
80,96,94383,1,8
136,144,94540,5,2
192,184,94697,1,0
248,224,94854,1,2
304,264,95011,1,0
360,312,95168,5,2
432,312,95325,1,0
488,264,95482,1,2
488,192,95639,1,0
488,120,95796,5,2
440,64,95954,1,0
368,88,96111,1,2
320,144,96268,1,0
352,208,96425,5,2
416,232,96582,1,2
440,160,96739,1,2
368,144,96896,1,2
312,184,97053,5,4
24,216,97368,1,0
312,256,97682,1,4
24,304,97996,1,8
24,304,98152,1,8
24,304,98310,5,4
312,344,98624,1,0
312,56,98938,1,4
24,64,99252,1,4
96,64,99409,6,0,C|96:112|96:128|96:120,2,40,0|0|4
168,64,99723,5,4
216,112,99880,1,4
272,160,100037,1,4
320,208,100194,1,4
376,256,100351,1,4
432,304,100509,1,4
488,352,100666,1,4
256,192,100823,12,0,101765
264,184,102079,5,8
312,128,102236,1,0
368,168,102393,1,0
320,224,102550,1,0
392,240,102707,5,8
464,240,102865,1,0
464,312,103022,1,0
392,312,103179,1,0
312,312,103336,5,8
240,344,103493,1,0
168,304,103650,1,8
96,344,103807,1,0
32,296,103964,5,8
96,248,104121,1,0
32,200,104278,1,8
32,120,104435,1,0
32,32,104592,5,2
104,80,104749,1,0
176,32,104906,1,2
248,80,105063,1,0
312,136,105221,5,2
312,48,105378,1,0
400,48,105535,1,2
408,136,105692,1,0
408,232,105849,5,8
472,304,106006,1,0
408,376,106163,1,2
336,304,106320,1,0
248,256,106477,5,8
248,352,106634,1,0
152,352,106791,1,2
152,256,106948,1,0
48,256,107105,5,8
96,160,107262,1,0
160,80,107420,1,2
264,72,107577,1,0
368,72,107734,5,8
432,152,107891,1,0
488,240,108048,1,2
488,344,108205,1,2
376,344,108362,5,4
272,304,108519,1,0
168,344,108676,1,2
64,296,108833,1,2
168,248,108990,5,4
64,200,109147,1,2
168,160,109304,1,2
280,160,109461,1,2
280,40,109618,5,4
392,88,109776,1,0
392,208,109933,1,4
288,264,110090,1,0
168,264,110247,5,0
56,216,110404,1,4
56,96,110561,1,4
160,40,110718,1,4
232,152,110875,6,4,B|240:144|248:152|248:160|240:168|232:160,28,40
256,192,112132,12,0,116844
