osu file format v12

[General]
AudioFilename: Critical Crystal.mp3
AudioLeadIn: 2000
PreviewTime: 23104
Countdown: 1
SampleSet: Normal
StackLeniency: 0.7
Mode: 0
LetterboxInBreaks: 1
WidescreenStoryboard: 1

[Editor]
Bookmarks: 13052
DistanceSpacing: 1.2
BeatDivisor: 4
GridSize: 4
TimelineZoom: 1.5

[Metadata]
Title:Critical Crystal
TitleUnicode:Critical Crystal
Artist:Seiryu
ArtistUnicode:青龍
Creator:Vass_Bass
Version:Hyper
Source:beatmania IIDX 21 SPADA
Tags:BLUE DRAGON 青龍 EvilElvis Priti DANCE SPEED Ryu* BEMANI Konami
BeatmapID:399723
BeatmapSetID:141249

[Difficulty]
HPDrainRate:5
CircleSize:4
OverallDifficulty:6
ApproachRate:8
SliderMultiplier:1.6
SliderTickRate:1

[Events]
//Background and Video events
0,0,"bg.jpg",0,0
//Break Periods
//Storyboard Layer 0 (Background)
//Storyboard Layer 1 (Fail)
//Storyboard Layer 2 (Pass)
//Storyboard Layer 3 (Foreground)
//Storyboard Sound Samples
//Background Colour Transformations
3,100,163,162,255

[TimingPoints]
490,314.13612565445,4,1,0,80,1,0
2374,-76.9230769230769,4,1,0,80,0,0
2688,-76.9230769230769,4,1,0,80,0,1
3000,314.13612565445,4,1,0,100,1,0
3000,-100,4,1,0,100,0,0
12738,-76.9230769230769,4,1,0,100,0,1
13052,-100,4,1,0,100,0,0
23104,-83.3333333333333,4,1,0,100,0,1
23183,-83.3333333333333,4,1,0,100,0,0
28130,-83.3333333333333,4,1,0,100,0,1
28209,-83.3333333333333,4,1,0,100,0,0
32842,-76.9230769230769,4,1,0,100,0,1
33157,-100,4,1,0,100,0,0
43209,-200,4,2,0,100,0,1
43287,-200,4,2,0,40,0,0
57030,-76.9230769230769,4,1,0,80,0,1
57109,-76.9230769230769,4,1,0,80,0,0
57345,-100,4,1,0,80,0,0
79020,-200,4,1,0,80,0,0
79335,-76.9230769230769,4,1,0,100,0,1
79413,-76.9230769230769,4,1,0,100,0,0
79649,-83.3333333333333,4,1,0,100,0,1
88445,-83.3333333333333,4,1,0,100,0,0
89701,-76.9230769230769,4,1,0,80,0,1
89780,-76.9230769230769,4,1,0,80,0,0
94727,-76.9230769230769,4,1,0,80,0,1
94806,-76.9230769230769,4,1,0,80,0,0
99753,-200,4,1,0,80,0,1
99832,-200,4,2,0,40,0,0
109335,-200,4,2,0,30,0,0
109963,-200,4,2,0,25,0,0

[Colours]
Combo1 : 38,116,202
Combo2 : 46,89,129

[HitObjects]
28,148,490,5,0,0:0:0:0:
31,153,647,1,4,3:1:0:0:
109,200,804,2,0,P|129:189|152:183,3,40
103,197,1118,2,0,P|154:175|197:170,1,80,2|0,0:2|0:0,0:0:0:0:
229,323,1432,2,0,P|178:345|135:350,1,80,2|0,0:2|0:0,0:0:0:0:
39,286,1746,5,0,0:0:0:0:
35,309,1825,1,0,0:0:0:0:
30,332,1903,1,0,0:0:0:0:
17,204,2060,1,0,0:0:0:0:
15,179,2139,1,0,0:0:0:0:
11,155,2217,1,0,0:0:0:0:
7,131,2296,1,0,0:0:0:0:
2,107,2374,6,0,L|215:88,1,207.999990478516,0|2,0:0|0:0,0:0:0:0:
364,137,2846,1,2,0:0:0:0:
306,218,3003,6,0,P|283:189|274:146,1,80,4|0,0:0|0:0,0:0:0:0:
427,64,3314,2,0,P|450:93|459:136,1,80,4|0,2:0|0:0,0:0:0:0:
406,220,3628,1,0,0:0:0:0:
409,223,3785,1,0,0:0:0:0:
483,295,3942,1,4,2:0:0:0:
486,298,4099,1,0,0:0:0:0:
499,197,4256,5,0,0:0:0:0:
394,307,4413,1,0,0:0:0:0:
394,307,4492,1,0,0:0:0:0:
394,307,4570,2,0,L|301:298,1,80,4|4,2:0|3:0,0:0:0:0:
147,353,4884,1,4,3:0:0:0:
151,350,5041,1,4,2:0:0:0:
222,240,5198,6,0,P|220:221|219:191,3,40
212,253,5513,2,0,L|121:260,1,80,4|4,0:0|3:0,0:0:0:0:
58,197,5827,1,4,2:0:0:0:
16,93,5984,6,0,P|18:74|19:44,3,40
26,106,6299,2,0,L|117:113,1,80,4|4,3:0|2:0,0:0:0:0:
194,76,6612,1,4,3:0:0:0:
278,22,6769,6,0,P|286:44|282:104,1,80,4|0,0:0|0:0,0:0:0:0:
393,152,7083,2,0,P|385:130|389:70,1,80,4|0,0:0|0:0,0:0:0:0:
475,26,7397,1,4,0:0:0:0:
491,136,7554,1,2,2:0:0:0:
465,61,7712,1,2,2:0:0:0:
455,209,7869,1,2,2:0:0:0:
501,317,8026,6,0,B|401:289|445:347|324:309,1,160,4|4,0:0|2:0,0:0:0:0:
275,235,8497,1,0,0:0:0:0:
223,325,8654,2,0,P|230:338|233:351,1,20,4|0,3:0|2:0,0:0:0:0:
176,236,8811,2,0,P|186:247|194:265,1,20,4|0,3:0|2:0,0:0:0:0:
97,175,8968,2,0,P|113:182|124:190,1,20,2|0,0:0|2:0,0:0:0:0:
4,148,9125,2,0,P|22:150|35:154,1,20,2|0,0:0|2:0,0:0:0:0:
34,66,9282,6,0,B|200:55,1,160,6|4,0:0|2:0,0:0:0:0:
295,53,9753,1,0,0:0:0:0:
248,137,9910,2,0,B|209:129|209:129|170:140,1,80,4|4,2:0|3:0,0:0:0:0:
226,222,10225,2,0,P|244:218|274:205,3,40,2|0|2|0,0:0|0:0|0:0|0:0,0:0:0:0:
226,222,10539,6,0,L|396:233,1,160,6|12,0:0|2:0,0:0:0:0:
508,185,11010,2,0,L|481:188,2,26.6666666666667,8|0|0,2:0|0:0|0:0,0:0:0:0:
508,185,11167,2,0,P|499:157|513:98,1,80,12|4,2:0|3:0,0:0:0:0:
412,100,11481,2,0,P|421:61|412:22,1,80,2|0,0:0|0:0,0:0:0:0:
332,54,11795,5,4,0:0:0:0:
332,54,11874,1,0,0:0:0:0:
332,54,11952,1,0,0:0:0:0:
255,13,12109,1,0,0:0:0:0:
242,38,12188,1,0,0:0:0:0:
237,65,12267,1,0,0:0:0:0:
238,92,12345,1,0,0:0:0:0:
243,119,12424,2,0,L|106:135,1,120,4|0,2:0|2:0,0:0:0:0:
155,143,12738,6,0,L|-31:160,1,155.999992858887,2|0,0:0|2:0,0:0:0:0:
18,169,13052,6,0,B|9:212|9:212|20:252,1,80,0|0,0:0|2:0,0:0:0:0:
164,309,13366,2,0,B|170:271|170:271|162:226,1,80,0|0,0:0|2:0,0:0:0:0:
79,351,13680,2,0,P|127:342|253:354,1,160
326,355,14151,1,0,2:0:0:0:
418,371,14308,6,0,P|425:346|413:289,1,80,0|0,0:0|2:0,0:0:0:0:
505,206,14623,2,0,P|499:234|505:300,1,80,0|0,0:0|2:0,0:0:0:0:
417,215,14937,2,0,B|361:204|361:204|321:217|321:217|250:202,1,160
108,185,15408,5,0,2:0:0:0:
28,223,15565,2,0,P|18:190|34:140,1,80,0|0,0:0|2:0,0:0:0:0:
180,155,15879,2,0,P|191:192|181:231,1,80,0|0,0:0|2:0,0:0:0:0:
108,185,16193,2,0,B|79:113|128:104|98:16,1,160
190,46,16664,1,0,2:0:0:0:
276,65,16821,6,0,P|312:53|366:48,1,80,0|0,0:0|2:0,0:0:0:0:
508,77,17136,2,0,P|473:68|424:66,1,80,0|0,0:0|2:0,0:0:0:0:
271,153,17450,2,0,P|300:141|358:137,1,80,0|0,0:0|2:0,0:0:0:0:
501,187,17764,2,0,P|472:175|414:171,1,80,0|0,0:0|2:0,0:0:0:0:
222,284,18078,5,4,0:2:0:0:
309,251,18235,1,0,0:0:0:0:
381,311,18392,1,4,3:0:0:0:
291,347,18549,1,0,0:0:0:0:
159,340,18706,2,0,P|127:331|78:332,1,80
13,235,19020,2,0,L|111:247,1,80,4|0,3:0|0:0,0:0:0:0:
271,130,19335,5,0,0:0:0:0:
183,139,19492,1,0,0:0:0:0:
95,149,19649,2,0,P|86:116|92:72,1,80,4|0,3:0|0:0,0:0:0:0:
245,210,19963,2,0,P|254:243|248:287,1,80,4|0,3:0|0:0,0:0:0:0:
341,325,20277,2,0,L|486:318,1,120,0|0,0:0|2:0,0:0:0:0:
508,291,20591,6,0,L|409:275,1,80,4|0,3:0|0:0,0:0:0:0:
427,127,20905,2,0,L|526:111,1,80,4|0,3:0|0:0,0:0:0:0:
479,204,21219,1,4,3:0:0:0:
475,207,21376,1,4,3:0:0:0:
319,198,21534,1,4,2:0:0:0:
396,217,21691,1,2,0:0:0:0:
243,226,21848,6,0,P|203:218|154:217,1,80,2|0,0:0|0:0,0:0:0:0:
15,85,22162,2,0,P|54:83|94:75,1,80,4|2,0:0|0:0,0:0:0:0:
270,121,22476,1,2,0:0:0:0:
183,137,22633,1,2,2:0:0:0:
97,156,22790,1,2,2:0:0:0:
12,178,22947,1,2,2:0:0:0:
125,242,23104,6,2,B|135:287|135:287|128:337,1,95.9999970703126,6|0,0:0|0:0,0:0:0:0:
217,282,23418,1,2,0:0:0:0:
276,349,23575,2,0,B|386:328|348:368|471:338,1,191.999994140625,2|2,0:0|0:0,0:0:0:0:
383,269,24047,2,2,P|386:249|359:177,1,95.9999970703126,2|0,0:0|0:0,0:0:0:0:
483,211,24361,6,0,P|479:173|496:99,1,95.9999970703126,2|2,0:0|0:0,0:0:0:0:
346,103,24675,1,2,0:0:0:0:
470,107,24832,1,0,0:0:0:0:
368,110,24989,2,0,P|372:56|348:6,1,95.9999970703126,2|0,0:0|0:0,0:0:0:0:
188,34,25303,2,0,P|184:88|208:138,1,95.9999970703126,0|2,0:0|0:0,0:0:0:0:
269,211,25617,6,0,L|281:99,2,95.9999970703126,2|0|2,0:0|0:0|0:0,0:0:0:0:
208,284,26089,2,0,B|140:269|140:269|91:293|91:293|19:280,1,191.999994140625,2|2,0:0|0:0,0:0:0:0:
12,187,26560,2,0,B|57:198|57:198|114:186,1,95.9999970703126,2|2,0:0|0:0,0:0:0:0:
103,50,26874,6,0,B|58:39|58:39|1:51,1,95.9999970703126,4|2,1:2|0:0,0:0:0:0:
58,117,27188,1,4,0:2:0:0:
144,124,27345,1,2,0:0:0:0:
230,130,27502,1,4,0:2:0:0:
315,139,27659,1,2,0:0:0:0:
400,150,27816,1,2,0:0:0:0:
485,159,27973,1,4,2:0:0:0:
390,234,28130,6,0,P|377:267|398:337,1,95.9999970703126,6|2,0:0|0:0,0:0:0:0:
461,280,28445,1,2,0:0:0:0:
313,343,28602,2,0,B|271:327|271:327|116:358,1,191.999994140625,2|2,0:0|0:0,0:0:0:0:
10,275,29073,2,0,L|110:284,1,95.9999970703126,2|0,0:0|0:0,0:0:0:0:
235,206,29387,6,0,L|135:215,1,95.9999970703126,2|2,0:0|0:0,0:0:0:0:
20,112,29701,2,0,P|7:76|24:11,1,95.9999970703126,2|2,0:0|0:0,0:0:0:0:
162,32,30015,2,0,P|176:70|158:133,1,95.9999970703126,2|0,0:0|0:0,0:0:0:0:
88,165,30329,2,0,L|97:62,1,95.9999970703126,0|2,0:0|0:0,0:0:0:0:
274,36,30643,5,2,0:0:0:0:
367,157,30801,1,0,0:0:0:0:
237,173,30958,1,2,0:0:0:0:
291,112,31115,2,0,B|394:87|370:131|481:104,1,191.999994140625,2|2,0:0|0:0,0:0:0:0:
512,186,31586,2,0,P|499:235|501:298,1,95.9999970703126,2|2,0:0|0:0,0:0:0:0:
408,355,31900,6,0,P|419:312|401:255,1,95.9999970703126,4|2,0:2|0:0,0:0:0:0:
253,268,32214,2,0,P|242:311|260:368,1,95.9999970703126,4|2,0:2|0:0,0:0:0:0:
332,307,32528,1,4,0:2:0:0:
256,181,32685,1,2,0:0:0:0:
164,288,32842,2,0,B|115:278|115:278|66:291|66:291|5:282,1,155.999992858887,6|0,0:0|2:0,0:0:0:0:
9,254,33157,5,6,0:0:0:0:
9,254,33471,1,8,2:0:0:0:
9,254,33785,1,0,0:0:0:0:
75,198,33942,2,0,P|73:179|75:157,2,40,0|0|8,0:0|0:0|2:0,0:0:0:0:
0,75,34256,6,0,L|178:85,1,160,0|2,0:0|0:0,0:0:0:0:
255,34,34727,1,8,2:0:0:0:
318,120,34884,1,2,0:0:0:0:
318,120,34963,1,0,0:0:0:0:
318,120,35041,2,0,P|325:153|322:210,1,80,4|4,2:0|3:0,0:0:0:0:
434,264,35356,2,0,P|434:246|437:222,3,40,4|0|0|0,3:0|0:0|0:0|0:0,0:0:0:0:
420,281,35670,6,0,L|240:293,2,160,2|8|0,0:0|2:0|0:0,0:0:0:0:
510,326,36455,2,0,P|504:348|503:370,2,40,0|0|8,0:0|0:0|2:0,0:0:0:0:
496,231,36769,6,0,B|517:147|465:182|494:57,1,160,0|2,0:0|0:0,0:0:0:0:
385,22,37240,2,0,P|396:54|399:108,1,80,8|2,2:0|0:0,0:0:0:0:
236,131,37554,2,0,P|225:99|222:45,1,80,2|0,0:0|0:0,0:0:0:0:
321,94,37869,1,2,0:0:0:0:
320,133,37947,1,0,0:0:0:0:
318,173,38026,1,0,0:0:0:0:
316,212,38104,1,0,0:0:0:0:
309,251,38183,6,0,P|254:240|136:275,2,160,4|8|0,0:2|2:0|0:0,0:0:0:0:
259,318,38968,2,0,P|252:342|249:374,2,40,0|0|8,0:0|0:0|2:0,0:0:0:0:
157,343,39282,6,0,L|-14:333,1,160,2|2,0:0|0:0,0:0:0:0:
19,236,39753,2,0,P|24:206|9:153,1,80,8|2,2:0|0:0,0:0:0:0:
95,51,40068,2,0,P|83:89|88:128,1,80,4|0,0:2|0:0,0:0:0:0:
222,121,40382,2,0,P|223:106|218:75,3,40,4|0|0|0,0:2|0:0|0:0|0:0,0:0:0:0:
211,140,40696,6,0,B|275:138|275:138|300:147|300:147|386:143,2,160,6|8|4,0:0|2:0|3:0,0:0:0:0:
64,226,41638,1,8,2:0:0:0:
64,226,41795,5,4,3:0:0:0:
154,258,42109,1,2,0:0:0:0:
75,314,42424,1,4,3:0:0:0:
131,167,42738,1,2,0:0:0:0:
157,343,43052,1,4,3:0:0:0:
149,352,43209,6,0,B|294:313|248:379|392:348,1,240,4|0,0:0|0:0,0:0:0:0:
480,309,44308,2,0,P|512:253|465:134,1,200,4|0,0:3|0:0,0:0:0:0:
381,100,45251,1,0,0:0:0:0:
332,168,45408,2,0,P|317:192|316:215,1,40,4|0,3:0|0:0,0:0:0:0:
416,229,45722,2,0,L|198:246,1,200,4|0,3:0|0:0,0:0:0:0:
134,197,46664,1,4,3:0:0:0:
47,242,46821,2,0,P|31:204|45:151,2,80,4|2|2,3:0|0:0|0:0,0:0:0:0:
254,26,47764,5,0,0:0:0:0:
273,103,47921,1,0,0:0:0:0:
253,180,48078,1,0,0:0:0:0:
260,259,48235,2,0,L|472:268,1,200,4|0,3:0|0:0,0:0:0:0:
463,354,49178,2,0,L|176:339,1,280,4|0,3:0|0:0,0:0:0:0:
133,259,50434,2,0,P|114:281|105:303,1,40,4|0,3:0|0:0,0:0:0:0:
19,334,50748,2,0,B|66:218|-9:260|26:125,1,200,4|0,3:0|0:0,0:0:0:0:
43,49,51691,5,4,3:0:0:0:
105,119,51848,2,0,P|123:97|309:114,1,240,4|0,3:0|0:0,0:0:0:0:
383,160,52947,2,0,P|386:138|396:115,1,40
477,164,53261,2,0,L|463:256,1,80,4|2,0:0|0:0,0:0:0:0:
393,277,53732,1,0,0:0:0:0:
316,251,53890,1,0,0:0:0:0:
239,275,54047,1,0,0:0:0:0:
173,320,54204,1,2,0:0:0:0:
93,311,54361,5,2,0:0:0:0:
0,184,54675,1,2,0:0:0:0:
173,163,54989,1,2,0:0:0:0:
256,192,55068,12,0,56403,0:0:0:0:
32,191,57031,6,0,B|81:186|81:186|128:194|128:194|217:183,1,155.999992858887,6|0,0:0|2:0,0:0:0:0:
208,198,57345,2,0,P|217:160|183:105,1,80,2|0,0:0|0:0,0:0:0:0:
293,82,57659,2,0,P|290:62|294:35,2,40,2|0|2,0:0|0:0|0:0,0:0:0:0:
382,100,57973,2,0,L|473:112,1,80,2|0,0:0|0:0,0:0:0:0:
498,195,58287,6,0,L|350:208,1,120,6|0,0:0|2:0,0:0:0:0:
360,198,58602,2,0,P|371:236|361:279,1,80,2|2,0:0|0:0,0:0:0:0:
176,283,58916,2,0,P|165:245|175:202,1,80,2|2,0:0|0:0,0:0:0:0:
270,253,59230,1,2,0:0:0:0:
267,258,59387,1,0,0:0:0:0:
278,342,59544,6,0,P|333:333|420:350,1,120,6|0,0:0|2:0,0:0:0:0:
412,360,59858,2,0,L|414:274,1,80,2|0,0:0|0:0,0:0:0:0:
494,188,60172,2,0,L|492:237,2,40,2|0|2,0:0|0:0|0:0,0:0:0:0:
419,144,60486,2,0,P|438:117|482:100,1,80,2|0,0:0|0:0,0:0:0:0:
512,27,60801,6,0,L|390:22,1,120,6|0,0:0|2:0,0:0:0:0:
324,61,61115,2,0,L|201:55,1,120,2|0,0:0|2:0,0:0:0:0:
134,92,61429,2,0,L|25:86,1,80,2|2,0:0|0:0,0:0:0:0:
17,173,61743,1,0,0:0:0:0:
17,173,61821,1,2,0:0:0:0:
17,173,61900,1,0,0:0:0:0:
88,233,62057,6,0,P|87:286|90:358,1,120,4|0,0:2|2:0,0:0:0:0:
58,370,62371,2,0,P|57:335|54:291,1,80,2|0,0:0|0:0,0:0:0:0:
199,196,62685,2,0,P|196:235|203:280,1,80,2|2,0:0|0:0,0:0:0:0:
350,260,62999,2,0,P|351:222|344:180,1,80,2|0,0:0|0:0,0:0:0:0:
280,333,63314,6,0,P|328:331|419:338,1,120,6|0,0:0|2:0,0:0:0:0:
399,335,63628,2,0,L|486:332,1,80,2|2,0:0|0:0,0:0:0:0:
488,242,63942,2,0,P|487:218|488:197,2,40,2|0|2,0:0|0:0|0:0,0:0:0:0:
414,153,64256,2,0,P|416:122|405:55,1,80,2|0,0:0|0:0,0:0:0:0:
332,42,64570,6,0,B|237:61|237:61|200:48,1,120,6|0,0:0|2:0,0:0:0:0:
147,102,64884,2,0,P|183:117|217:153,1,80,2|0,0:0|0:0,0:0:0:0:
128,268,65198,1,2,0:0:0:0:
128,268,65277,1,0,0:0:0:0:
128,268,65356,2,0,P|92:253|58:217,1,80,2|2,0:0|0:0,0:0:0:0:
132,182,65670,1,0,0:0:0:0:
220,232,65827,6,0,L|235:365,1,120,6|0,0:0|2:0,0:0:0:0:
312,335,66141,2,0,B|298:298|298:298|305:248,1,80,2|0,1:0|0:0,0:0:0:0:
445,218,66455,2,0,B|478:268|478:268|464:338,2,120,2|2|2,0:0|0:0|0:0,0:0:0:0:
360,183,67083,5,0,3:0:0:0:
356,96,67240,1,0,3:0:0:0:
445,71,67397,1,4,3:0:0:0:
493,144,67554,1,0,3:0:0:0:
445,218,67712,2,0,P|435:191|429:165,4,40,2|0|2|0|2,0:0|0:0|0:0|0:0|0:0,0:0:0:0:
392,298,68183,1,0,3:0:0:0:
399,328,68261,1,0,3:0:0:0:
403,359,68340,6,0,L|310:377,1,80,0|0,3:0|3:0,0:0:0:0:
277,312,68654,2,0,L|184:330,1,80,4|0,3:0|3:0,0:0:0:0:
151,263,68968,2,0,L|19:283,2,120,2|2|2,0:0|0:0|0:0,0:0:0:0:
167,141,69596,5,0,3:0:0:0:
19,22,69753,1,0,3:0:0:0:
31,113,69910,1,4,3:0:0:0:
41,198,70068,1,0,3:0:0:0:
143,55,70225,2,0,P|137:36|121:8,4,40,2|0|2|0|2,0:0|0:0|0:0|0:0|0:0,0:0:0:0:
252,27,70696,1,0,0:0:0:0:
245,58,70774,1,0,0:0:0:0:
244,90,70853,1,2,0:0:0:0:
485,229,71167,6,0,P|488:191|469:140,1,80,2|0,0:0|3:0,0:0:0:0:
283,213,71481,2,0,L|409:219,2,120,2|0|2,0:0|3:0|0:0,0:0:0:0:
369,307,72109,6,0,P|353:300|287:305,1,80,4|0,0:2|0:0,0:0:0:0:
304,127,72424,2,0,P|320:134|386:129,1,80
446,52,72738,1,0,0:0:0:0:
446,52,72816,1,0,0:0:0:0:
446,52,72895,1,0,0:0:0:0:
328,24,73052,2,0,L|198:42,1,120,0|0,0:0|2:0,0:0:0:0:
224,54,73366,6,0,L|136:71,1,80,4|0,0:2|0:0,0:0:0:0:
0,143,73680,2,0,L|91:154,1,80
240,236,73994,2,0,L|90:256,2,120
173,328,74623,1,4,0:2:0:0:
256,192,74701,12,0,76821,0:0:0:0:
212,18,77136,6,0,P|220:43|225:102,1,80,4|4,3:0|3:0,0:0:0:0:
110,144,77450,2,0,P|103:122|99:95,3,40,8|0|8|0,2:0|0:0|2:0|0:0,0:0:0:0:
116,176,77764,2,0,L|26:172,1,80,4|0,3:0|0:0,0:0:0:0:
14,265,78078,1,4,3:0:0:0:
93,254,78235,1,4,2:0:0:0:
77,339,78392,1,2,0:0:0:0:
115,327,78471,1,0,0:0:0:0:
154,320,78549,1,4,2:0:0:0:
221,250,78706,1,2,0:0:0:0:
260,241,78785,1,0,0:0:0:0:
299,236,78863,1,4,2:0:0:0:
339,237,78942,1,0,0:0:0:0:
377,245,79020,6,0,L|449:238,1,60,0|0,0:0|2:0,0:0:0:0:
437,239,79335,6,0,L|443:78,1,155.999992858887,4|0,2:0|2:0,0:0:0:0:
351,39,79649,6,0,B|367:86|367:86|355:130,1,95.9999970703126,6|0,0:0|0:0,0:0:0:0:
163,132,79963,2,0,B|147:85|147:85|159:41,1,95.9999970703126,2|0,0:0|0:0,0:0:0:0:
258,101,80277,2,0,B|286:175|230:161|278:271,2,143.999995605469,2|2|2,0:0|0:0|0:0,0:0:0:0:
172,220,80905,6,0,P|190:260|190:315,1,95.9999970703126,4|2,0:0|0:0,0:0:0:0:
32,340,81219,2,0,P|14:300|14:245,1,95.9999970703126,2|0,0:0|0:0,0:0:0:0:
100,134,81534,2,0,L|95:291,2,143.999995605469,2|2|2,0:0|0:0|0:0,0:0:0:0:
197,116,82162,5,4,0:0:0:0:
287,143,82319,1,2,0:0:0:0:
288,110,82398,1,0,0:0:0:0:
277,78,82476,1,2,0:0:0:0:
197,116,82633,1,0,0:0:0:0:
360,191,82790,2,0,B|434:166|421:211|501:180,2,143.999995605469,2|2|2,0:0|0:0|0:0,0:0:0:0:
397,272,83418,6,0,L|237:265,1,143.999995605469,6|0,0:0|2:0,0:0:0:0:
298,280,83732,2,0,L|138:273,1,143.999995605469,4|0,0:2|2:0,0:0:0:0:
181,286,84047,2,0,L|21:279,2,143.999995605469,2|2|2,0:0|0:0|0:0,0:0:0:0:
47,178,84675,6,0,B|39:136|39:136|48:78,1,95.9999970703126,4|2,0:0|0:0,0:0:0:0:
227,114,84989,2,0,B|235:156|235:156|228:214,1,95.9999970703126,0|2,0:0|0:0,0:0:0:0:
144,41,85303,2,0,L|294:36,2,143.999995605469,2|2|2,0:0|0:0|0:0,0:0:0:0:
136,124,85931,5,6,0:0:0:0:
151,205,86089,1,0,0:0:0:0:
151,205,86167,1,0,0:0:0:0:
151,205,86246,2,0,L|143:306,1,95.9999970703126,2|2,0:0|0:0,0:0:0:0:
277,352,86560,2,0,L|288:200,2,143.999995605469,2|2|2,0:0|0:0|0:0,0:0:0:0:
364,297,87188,6,0,P|386:302|468:311,1,95.9999970703126,4|4,0:0|2:0,0:0:0:0:
192,335,87502,2,0,P|170:340|88:349,1,95.9999970703126,4|4,3:0|2:0,0:0:0:0:
0,236,87816,2,0,L|148:257,2,143.999995605469,2|2|2,0:0|0:0|0:0,0:0:0:0:
113,123,88445,5,4,3:0:0:0:
109,119,88602,1,0,3:0:0:0:
43,44,88759,1,2,0:0:0:0:
28,68,88837,1,0,0:0:0:0:
20,95,88916,1,2,0:0:0:0:
16,123,88994,1,0,0:0:0:0:
20,151,89073,1,4,3:0:0:0:
93,291,89230,1,0,3:0:0:0:
26,239,89387,2,0,P|64:218|116:210,1,95.9999970703126,14|8,2:0|2:0,0:0:0:0:
160,346,89701,6,0,P|122:367|70:375,1,95.9999970703126,6|0,0:0|0:0,0:0:0:0:
93,291,90015,1,2,0:0:0:0:
171,266,90172,2,0,L|369:283,1,191.999994140625,2|2,0:0|0:0,0:0:0:0:
419,352,90643,2,0,B|375:367|375:367|308:357,1,95.9999970703126,2|0,0:0|0:0,0:0:0:0:
317,203,90958,6,0,B|361:188|361:188|428:198,1,95.9999970703126,2|0,0:0|0:0,0:0:0:0:
458,270,91272,2,0,L|356:284,1,95.9999970703126,2|2,0:0|0:0,0:0:0:0:
277,292,91586,1,2,0:0:0:0:
191,302,91743,1,0,0:0:0:0:
105,312,91900,1,2,0:0:0:0:
19,323,92057,1,0,0:0:0:0:
50,223,92214,6,0,P|51:186|39:123,1,95.9999970703126,2|0,0:0|0:0,0:0:0:0:
95,48,92528,1,2,0:0:0:0:
160,133,92685,2,0,B|220:117|220:117|284:133|284:133|356:117,1,191.999994140625,2|2,0:0|0:0,0:0:0:0:
433,108,93157,2,0,P|420:139|428:208,1,95.9999970703126,0|2,0:0|0:0,0:0:0:0:
504,291,93471,2,0,L|509:191,1,95.9999970703126,0|2,0:0|0:0,0:0:0:0:
407,299,93785,5,4,2:0:0:0:
324,322,93942,1,2,1:0:0:0:
323,226,94099,5,4,2:0:0:0:
241,340,94256,1,2,0:0:0:0:
234,200,94413,5,4,2:0:0:0:
155,360,94570,1,2,0:0:0:0:
36,270,94727,6,0,L|148:289,1,95.9999970703126,4|0,0:0|0:0,0:0:0:0:
7,195,95041,1,2,0:0:0:0:
83,154,95198,2,0,P|101:104|9:13,1,191.999994140625,2|2,0:0|0:0,0:0:0:0:
23,102,95670,5,2,0:0:0:0:
164,28,95827,1,0,0:0:0:0:
182,158,95984,2,0,P|166:195|199:255,1,95.9999970703126,2|2,0:0|0:0,0:0:0:0:
334,241,96298,2,0,P|350:204|317:144,1,95.9999970703126,2|2,0:0|0:0,0:0:0:0:
260,199,96612,1,2,0:0:0:0:
417,264,96769,1,0,0:0:0:0:
422,174,96926,1,4,0:2:0:0:
262,291,97083,1,0,0:0:0:0:
483,328,97240,6,0,P|492:311|500:282,3,47.9999985351563,0|0|8|0,0:0|0:0|2:0|0:0,0:0:0:0:
454,346,97554,2,0,L|282:358,1,143.999995605469,4|0,3:0|2:0,0:0:0:0:
279,289,97869,6,0,P|288:272|296:243,3,47.9999985351563,12|0|8|0,2:0|0:0|2:0|0:0,0:0:0:0:
250,307,98183,2,0,L|78:319,1,143.999995605469,4|0,3:0|2:0,0:0:0:0:
73,293,98497,5,0,3:0:0:0:
78,206,98654,1,0,0:0:0:0:
84,119,98811,1,4,2:0:0:0:
91,32,98968,1,0,0:0:0:0:
166,86,99125,5,0,3:0:0:0:
161,89,99282,1,0,0:0:0:0:
7,153,99439,1,2,2:0:0:0:
12,156,99596,1,2,2:0:0:0:
162,182,99753,6,0,B|298:145|263:217|399:172,1,240,4|0,2:0|0:0,0:0:0:0:
457,261,100853,2,0,P|498:144|341:89,1,320,4|0,3:0|0:0,0:0:0:0:
397,175,102267,2,0,P|296:200|162:151,1,240,4|4,3:0|3:0,0:0:0:0:
97,192,103366,6,0,L|87:96,2,80,4|0|0,3:0|0:0|0:0,0:0:0:0:
16,328,104308,1,2,0:0:0:0:
87,301,104465,1,2,0:0:0:0:
158,329,104623,1,2,0:0:0:0:
238,350,104780,2,0,L|219:100,1,240,4|0,3:0|0:0,0:0:0:0:
306,49,105879,2,0,P|294:82|301:131,2,80,4|0|0,3:0|0:0|0:0,0:0:0:0:
496,188,106821,5,2,0:0:0:0:
496,188,106979,1,0,0:0:0:0:
496,188,107136,1,2,0:0:0:0:
425,211,107293,2,0,L|328:204,1,80,4|0,3:0|0:0,0:0:0:0:
257,230,107764,1,0,0:0:0:0:
317,284,107921,2,0,P|321:310|318:336,1,40
235,368,108235,1,2,0:0:0:0:
192,295,108392,6,0,P|165:285|112:287,2,80,4|0|0,3:0|0:0|0:0,0:0:0:0:
20,188,109335,5,4,3:0:0:0:
83,134,109492,2,0,P|85:118|81:82,1,40
163,91,109806,2,0,L|167:185,1,80,4|2,3:0|0:0,0:0:0:0:
229,240,110277,1,0,0:0:0:0:
251,157,110434,2,0,P|249:141|253:105,1,40,2|2,0:0|0:0,0:0:0:0:
317,53,110748,1,2,0:0:0:0:
393,130,110905,2,0,L|483:139,2,80,4|2|6,0:0|0:0|0:0,0:0:0:0:
