osu file format v12

[General]
AudioFilename: Critical Crystal.mp3
AudioLeadIn: 2000
PreviewTime: 23104
Countdown: 1
SampleSet: Soft
StackLeniency: 0.7
Mode: 0
LetterboxInBreaks: 1
WidescreenStoryboard: 0

[Editor]
Bookmarks: 13052
DistanceSpacing: 0.9
BeatDivisor: 4
GridSize: 4
TimelineZoom: 1

[Metadata]
Title:Critical Crystal
TitleUnicode:Critical Crystal
Artist:Seiryu
ArtistUnicode:青龍
Creator:Vass_Bass
Version:Another
Source:beatmania IIDX 21 SPADA
Tags:BLUE DRAGON 青龍 EvilElvis Priti DANCE SPEED Ryu* BEMANI Konami
BeatmapID:352395
BeatmapSetID:141249

[Difficulty]
HPDrainRate:7
CircleSize:4
OverallDifficulty:8
ApproachRate:9
SliderMultiplier:1.6
SliderTickRate:1

[Events]
//Background and Video events
0,0,"bg.jpg",0,0
//Break Periods
//Storyboard Layer 0 (Background)
//Storyboard Layer 1 (Fail)
//Storyboard Layer 2 (Pass)
//Storyboard Layer 3 (Foreground)
//Storyboard Sound Samples
//Background Colour Transformations
3,100,163,162,255

[TimingPoints]
490,314.13612565445,4,1,0,80,1,0
2374,-66.6666666666667,4,1,0,80,0,0
2531,-100,4,1,0,80,0,0
3000,314.13612565445,4,1,0,100,1,0
6141,-133.333333333333,4,1,0,100,0,0
6455,-100,4,1,0,100,0,0
6612,-100,4,1,0,80,0,0
8026,-100,4,1,0,100,0,0
12424,-66.6666666666667,4,1,0,100,0,0
13052,-133.333333333333,4,2,0,80,0,0
23104,-100,4,1,0,100,0,1
23261,-100,4,1,0,100,0,0
27188,-100,4,1,0,80,0,0
28130,-100,4,1,0,100,0,0
31900,-100,4,1,0,80,0,0
33157,-100,4,1,0,70,0,0
43523,-133.333333333333,4,2,0,30,0,0
55146,-200,4,2,0,15,0,0
56403,-200,4,2,0,10,0,0
57031,-100,4,2,0,50,0,0
67083,-100,4,1,0,70,0,0
77136,-100,4,1,0,60,0,0
79020,-200,4,1,0,60,0,0
79335,-76.9230769230769,4,1,0,70,0,0
79649,-100,4,1,0,100,0,1
88445,-100,4,1,0,70,0,1
89387,-66.6666666666667,4,1,0,70,0,1
89623,-100,4,1,0,100,0,0
89701,-100,4,1,0,100,0,1
90015,-100,4,1,0,100,0,0
94727,-100,4,1,0,80,0,0
98497,-100,4,1,0,70,0,0
99910,-133.333333333333,4,2,0,30,0,0
109806,-133.333333333333,4,2,0,20,0,0

[Colours]
Combo1 : 38,116,202
Combo2 : 46,89,129

[HitObjects]
120,148,490,5,4,0:0:0:0:
264,144,647,1,4,0:0:0:0:
384,200,804,1,0,0:0:0:0:
384,200,882,1,0,0:0:0:0:
384,200,961,1,0,0:0:0:0:
384,200,1039,1,0,0:0:0:0:
384,200,1118,2,0,P|428:200|464:196,1,80,8|0,0:0|0:0,0:0:0:0:
460,176,1353,1,0,0:0:0:0:
456,156,1432,2,0,P|452:112|460:76,1,80,8|0,0:0|0:0,0:0:0:0:
264,144,1746,6,0,L|216:140,3,40
204,148,2060,2,0,P|192:108|200:52,1,80
194,70,2296,1,0,0:0:0:0:
194,70,2374,2,0,L|60:64,1,120.000004577637
8,168,2688,5,2,0:0:0:0:
8,168,2846,1,2,0:0:0:0:
128,288,3003,6,0,L|224:280,1,80,4|0,0:0|0:0,0:0:0:0:
224,292,3235,1,0,0:0:0:0:
240,304,3314,2,0,P|284:296|328:296,1,80,8|0,0:0|0:0,0:0:0:0:
484,232,3628,2,0,P|492:184|492:148,1,80
480,136,3863,1,0,0:0:0:0:
464,124,3942,2,0,L|376:128,1,80,8|0,0:0|0:0,0:0:0:0:
248,184,4256,5,0,0:0:0:0:
160,80,4413,1,0,0:0:0:0:
140,72,4492,1,0,0:0:0:0:
120,68,4570,1,8,0:0:0:0:
100,64,4649,1,0,0:0:0:0:
80,64,4727,1,0,0:0:0:0:
24,216,4884,1,4,0:0:0:0:
248,184,5041,1,4,0:0:0:0:
128,188,5198,1,8,0:0:0:0:
124,208,5277,1,0,0:0:0:0:
124,228,5356,1,0,0:0:0:0:
128,248,5434,1,0,0:0:0:0:
132,268,5513,1,0,0:0:0:0:
280,316,5670,5,0,0:0:0:0:
408,240,5827,1,0,0:0:0:0:
408,240,5905,1,0,0:0:0:0:
408,240,5984,1,0,0:0:0:0:
408,240,6062,1,0,0:0:0:0:
408,240,6141,6,0,L|504:232,1,90.0000034332277,4|0,0:0|2:0,0:0:0:0:
512,244,6455,1,0,0:0:0:0:
424,120,6612,5,0,0:0:0:0:
424,120,6691,1,0,0:0:0:0:
424,120,6769,2,0,L|344:128,1,80
216,168,7083,1,0,0:0:0:0:
196,166,7162,1,0,0:0:0:0:
176,165,7240,1,2,2:0:0:0:
156,163,7319,1,0,0:0:0:0:
136,162,7397,1,0,0:0:0:0:
32,112,7554,1,2,2:0:0:0:
164,264,7712,1,0,0:0:0:0:
264,80,7869,1,2,2:0:0:0:
408,240,8026,5,4,0:0:0:0:
424,121,8183,1,0,0:0:0:0:
404,122,8261,1,0,0:0:0:0:
384,124,8340,1,8,0:0:0:0:
364,125,8418,1,0,0:0:0:0:
344,127,8497,1,0,0:0:0:0:
216,168,8654,5,0,0:0:0:0:
212,172,8811,1,0,0:0:0:0:
212,176,8968,1,8,0:0:0:0:
208,180,9125,1,0,0:0:0:0:
56,252,9282,2,0,P|44:212|48:168,1,80
60,160,9518,1,0,0:0:0:0:
72,144,9596,2,0,P|80:104|80:60,1,80,8|0,0:0|0:0,0:0:0:0:
212,32,9910,5,4,0:0:0:0:
216,36,10068,1,4,0:0:0:0:
336,80,10225,5,8,0:0:0:0:
356,80,10303,1,0,0:0:0:0:
376,80,10382,1,0,0:0:0:0:
396,80,10460,1,0,0:0:0:0:
416,80,10539,2,0,L|412:164,1,80,4|0,0:0|0:0,0:0:0:0:
420,180,10774,1,0,0:0:0:0:
428,196,10853,1,10,0:0:0:0:
232,264,11010,6,0,L|208:260,4,20
376,308,11324,1,0,0:0:0:0:
376,308,11403,1,2,2:0:0:0:
376,308,11481,1,0,0:0:0:0:
232,264,11638,1,0,0:0:0:0:
56,320,11795,5,0,0:0:0:0:
48,300,11874,1,0,0:0:0:0:
44,280,11952,1,2,2:0:0:0:
48,260,12031,1,0,0:0:0:0:
60,244,12109,1,0,0:0:0:0:
68,224,12188,1,0,0:0:0:0:
72,204,12267,1,2,2:0:0:0:
72,184,12345,1,0,0:0:0:0:
64,164,12424,6,0,P|116:156|176:124,1,120.000004577637
300,60,12738,1,2,0:0:0:0:
500,116,12895,1,2,0:0:0:0:
500,116,13052,6,0,L|496:176,1,60.0000022888184,4|2,0:0|0:0,0:0:0:0:
316,192,13366,2,0,L|320:252,1,60.0000022888184,0|2,1:0|0:0,0:0:0:0:
332,268,13602,1,0,0:0:0:0:
348,284,13680,2,0,P|304:280|264:284,1,60.0000022888184,0|2,1:0|0:0,0:0:0:0:
164,316,13994,2,0,P|134:316|104:313,1,60.0000022888184,0|2,1:0|0:0,0:0:0:0:
32,208,14308,5,0,1:0:0:0:
128,128,14465,1,2,0:0:0:0:
146,136,14544,1,0,0:0:0:0:
165,144,14623,1,0,1:0:0:0:
316,192,14780,1,2,0:0:0:0:
448,112,14937,2,0,L|456:52,1,60.0000022888184,0|2,1:0|0:0,0:0:0:0:
308,132,15251,2,0,L|316:196,1,60.0000022888184,0|2,1:0|0:0,0:0:0:0:
392,328,15565,5,0,1:0:0:0:
424,228,15722,1,2,0:0:0:0:
316,192,15879,1,0,1:0:0:0:
284,292,16036,1,2,0:0:0:0:
104,248,16193,5,0,1:0:0:0:
72,147,16350,1,2,0:0:0:0:
180,111,16507,1,0,1:0:0:0:
211,211,16664,1,2,0:0:0:0:
316,192,16821,6,0,P|360:184|380:176,1,60.0000022888184,0|2,1:0|0:0,0:0:0:0:
472,64,17136,2,0,P|447:96|436:126,1,60.0000022888184,0|2,1:0|0:0,0:0:0:0:
492,248,17450,2,0,P|479:212|462:190,1,60.0000022888184,0|4,1:0|0:0,0:0:0:0:
466,194,17685,1,0,0:0:0:0:
466,194,17764,1,0,1:0:0:0:
316,192,17921,1,2,0:0:0:0:
152,184,18078,6,0,L|92:180,1,60.0000022888184,4|2,0:0|0:0,0:0:0:0:
32,260,18392,1,0,1:0:0:0:
216,248,18549,2,0,P|236:192|224:132,1,120.000004577637,2|4,0:0|0:0,0:0:0:0:
308,72,19020,2,0,P|340:72|372:64,1,60.0000022888184,0|2,1:0|0:0,0:0:0:0:
388,60,19256,1,0,0:0:0:0:
408,56,19335,2,0,P|444:52|472:56,1,60.0000022888184,0|2,1:0|0:0,0:0:0:0:
512,184,19649,2,0,P|476:188|448:184,1,60.0000022888184,0|2,1:0|0:0,0:0:0:0:
376,152,19963,1,0,1:0:0:0:
288,152,20120,1,4,0:0:0:0:
208,188,20277,1,0,1:0:0:0:
176,268,20434,5,2,0:0:0:0:
176,268,20591,1,0,0:0:0:0:
68,204,20748,1,2,0:0:0:0:
68,204,20827,1,0,0:0:0:0:
68,204,20905,1,2,0:0:0:0:
68,204,20984,1,0,0:0:0:0:
68,204,21062,1,0,0:0:0:0:
68,204,21141,1,0,0:0:0:0:
68,204,21219,1,8,0:0:0:0:
136,88,21376,1,2,0:0:0:0:
248,148,21534,1,0,0:0:0:0:
248,148,21691,1,2,0:0:0:0:
408,324,21848,5,0,0:0:0:0:
416,304,21926,1,0,0:0:0:0:
420,284,22005,1,0,0:0:0:0:
420,264,22083,1,0,0:0:0:0:
416,244,22162,1,0,0:0:0:0:
408,224,22240,1,0,0:0:0:0:
408,204,22319,1,0,0:0:0:0:
412,184,22397,1,0,0:0:0:0:
416,164,22476,1,12,0:0:0:0:
296,148,22633,5,2,0:0:0:0:
168,136,22790,1,2,1:0:0:0:
52,124,22947,1,2,0:0:0:0:
52,124,23104,6,0,P|52:163|60:203,1,80,6|2,0:0|0:0,0:0:0:0:
224,292,23418,1,2,0:0:0:0:
288,220,23575,2,0,P|216:204|140:244,1,160,2|2,0:0|0:0,0:0:0:0:
412,276,24047,2,0,P|423:237|422:198,1,80,2|2,0:0|0:0,0:0:0:0:
420,180,24282,1,0,0:0:0:0:
416,160,24361,2,0,P|412:120|416:80,1,80,2|0,0:0|0:0,0:0:0:0:
280,80,24675,2,0,L|200:72,1,80,2|0,0:0|0:0,0:0:0:0:
180,288,24989,1,2,0:0:0:0:
288,220,25146,1,0,0:0:0:0:
168,172,25303,2,0,L|88:164,1,80,2|0,0:0|0:0,0:0:0:0:
72,152,25539,1,0,0:0:0:0:
60,136,25617,6,0,P|65:93|60:56,1,80,2|0,0:0|0:0,0:0:0:0:
12,240,25931,1,2,0:0:0:0:
12,240,26089,2,0,P|88:252|148:196,1,160,0|2,0:0|0:0,0:0:0:0:
232,76,26560,2,0,L|316:80,1,80,0|2,0:0|0:0,0:0:0:0:
412,176,26874,2,0,L|328:180,1,80,2|0,0:0|0:0,0:0:0:0:
160,224,27188,5,0,0:0:0:0:
164,228,27345,1,2,2:0:0:0:
168,232,27502,1,0,0:0:0:0:
172,236,27659,1,2,2:0:0:0:
272,232,27816,1,0,0:0:0:0:
364,272,27973,1,2,2:0:0:0:
400,360,28130,6,0,L|484:356,1,80,6|0,0:0|0:0,0:0:0:0:
488,172,28445,1,2,0:0:0:0:
488,172,28602,2,0,P|408:160|344:104,1,160,2|2,0:0|0:0,0:0:0:0:
228,64,29073,1,0,0:0:0:0:
112,84,29230,5,2,0:0:0:0:
108,104,29308,1,0,0:0:0:0:
104,124,29387,1,2,0:0:0:0:
116,292,29544,1,2,0:0:0:0:
192,200,29701,1,0,0:0:0:0:
24,212,29858,1,2,0:0:0:0:
192,200,30015,2,0,P|240:200|272:192,1,80,2|0,0:0|0:0,0:0:0:0:
292,192,30251,1,0,0:0:0:0:
312,188,30329,2,0,P|312:144|320:104,1,80,2|0,0:0|0:0,0:0:0:0:
464,192,30643,6,0,P|464:235|456:276,1,80,2|0,0:0|0:0,0:0:0:0:
220,276,30958,1,2,0:0:0:0:
220,276,31115,2,0,P|300:268|384:288,1,160,0|2,0:0|0:0,0:0:0:0:
464,192,31586,2,0,P|472:148|472:112,1,80,2|0,0:0|0:0,0:0:0:0:
456,100,31821,1,0,0:0:0:0:
440,88,31900,6,0,L|356:92,1,80,0|2,0:0|2:0,0:0:0:0:
224,128,32214,1,0,0:0:0:0:
204,124,32293,1,0,0:0:0:0:
184,120,32371,1,2,2:0:0:0:
168,112,32450,1,0,0:0:0:0:
152,100,32528,1,0,0:0:0:0:
228,24,32685,1,0,2:0:0:0:
308,176,32842,1,2,0:0:0:0:
264,320,32999,1,2,0:0:0:0:
184,196,33157,5,4,2:0:0:0:
184,196,33314,1,2,2:0:0:0:
184,196,33471,1,0,0:0:0:0:
184,196,33628,2,0,P|104:192|20:188,1,160,2|2,2:0|2:0,0:0:0:0:
12,48,34099,2,0,P|56:52|92:60,1,80,0|2,0:0|2:0,0:0:0:0:
208,84,34413,2,0,P|247:80|286:72,1,80,0|2,0:0|2:0,0:0:0:0:
400,44,34727,2,0,P|444:48|480:56,1,80,0|2,0:0|2:0,0:0:0:0:
500,192,35041,5,0,0:0:0:0:
500,192,35198,2,0,L|496:228,4,20
472,196,35434,1,0,0:0:0:0:
452,196,35513,1,2,2:0:0:0:
432,196,35591,1,0,0:0:0:0:
412,196,35670,6,0,P|368:192|328:192,1,80,0|2,0:0|2:0,0:0:0:0:
164,240,35984,1,0,0:0:0:0:
76,208,36141,2,0,P|89:290|151:329,1,160,2|2,2:0|2:0,0:0:0:0:
164,240,36612,1,0,0:0:0:0:
192,136,36769,1,2,2:0:0:0:
104,108,36926,1,0,0:0:0:0:
288,112,37083,5,2,2:0:0:0:
288,112,37240,2,0,L|368:104,1,80,0|2,0:0|2:0,0:0:0:0:
460,164,37554,2,0,L|492:160,4,20
468,184,37790,1,0,0:0:0:0:
472,204,37869,1,0,0:0:0:0:
476,224,37947,1,0,0:0:0:0:
476,244,38026,1,2,2:0:0:0:
472,264,38104,1,0,0:0:0:0:
468,284,38183,5,4,2:0:0:0:
348,280,38340,1,2,2:0:0:0:
348,280,38418,1,0,2:0:0:0:
348,280,38497,1,0,0:0:0:0:
224,296,38654,2,0,P|147:288|63:291,1,160,2|2,2:0|2:0,0:0:0:0:
4,192,39125,2,0,P|-4:148|0:112,1,80,0|2,0:0|2:0,0:0:0:0:
144,40,39439,2,0,P|147:79|139:118,1,80,4|2,2:0|2:0,0:0:0:0:
128,136,39675,1,0,2:0:0:0:
116,152,39753,2,0,L|196:156,1,80,0|2,0:0|2:0,0:0:0:0:
380,168,40068,5,0,0:0:0:0:
380,168,40225,2,0,L|384:132,4,20
376,188,40460,1,0,0:0:0:0:
376,208,40539,1,0,0:0:0:0:
380,228,40617,1,0,0:0:0:0:
384,248,40696,5,4,2:0:0:0:
272,292,40853,1,2,2:0:0:0:
272,292,40931,1,0,2:0:0:0:
272,292,41010,2,0,L|176:288,1,80,0|2,0:0|2:0,0:0:0:0:
72,336,41324,2,0,P|52:272|56:176,1,160,8|8,0:0|0:0,0:0:0:0:
176,132,41795,5,2,2:0:0:0:
184,136,42109,1,2,2:0:0:0:
192,140,42424,1,2,2:0:0:0:
200,144,42738,1,2,2:0:0:0:
208,148,43052,1,2,2:0:0:0:
328,128,43209,5,4,2:0:0:0:
328,128,43523,2,0,L|392:124,1,60.0000022888184,0|2,0:0|0:0,0:0:0:0:
508,248,43837,2,0,P|448:236|384:244,1,120.000004577637,2|0,0:0|0:0,0:0:0:0:
260,272,44308,2,0,P|200:276|140:264,2,120.000004577637,2|2|2,0:0|0:0|0:0,0:0:0:0:
264,276,45251,5,2,0:0:0:0:
276,192,45408,1,0,0:0:0:0:
284,108,45565,1,2,0:0:0:0:
292,24,45722,1,0,0:0:0:0:
288,28,46036,2,0,P|252:32|216:32,1,60.0000022888184,0|2,0:0|0:0,0:0:0:0:
60,80,46350,2,0,P|128:72|176:96,1,120.000004577637,0|2,0:0|0:0,0:0:0:0:
112,264,46821,2,0,P|96:212|112:144,2,120.000004577637,0|2|2,0:0|0:0|0:0,0:0:0:0:
116,268,47764,5,2,0:0:0:0:
204,264,47921,1,0,0:0:0:0:
292,260,48078,1,2,0:0:0:0:
380,256,48235,2,0,L|388:196|392:136,1,120.000004577637,0|2,0:0|0:0,0:0:0:0:
276,48,48706,1,0,0:0:0:0:
276,48,48863,2,0,P|280:80|284:108,2,60.0000022888184,0|2|0,0:0|0:0|0:0,0:0:0:0:
144,132,49335,1,2,0:0:0:0:
140,136,49649,1,2,0:0:0:0:
136,140,49963,1,2,0:0:0:0:
168,292,50277,5,2,0:0:0:0:
260,288,50434,1,0,0:0:0:0:
352,300,50591,1,2,0:0:0:0:
440,332,50748,1,0,0:0:0:0:
440,332,51062,2,0,P|448:284|448:248,1,60.0000022888184,0|2,0:0|0:0,0:0:0:0:
404,184,51376,2,0,P|392:128|400:64,1,120.000004577637,0|2,0:0|0:0,0:0:0:0:
264,64,51848,2,0,P|208:60|144:40,2,120.000004577637,0|2|2,0:0|0:0|0:0,0:0:0:0:
268,68,52790,5,2,0:0:0:0:
256,156,52947,1,0,0:0:0:0:
244,244,53104,1,2,0:0:0:0:
232,332,53261,1,0,0:0:0:0:
232,332,53575,5,2,0:0:0:0:
160,268,53732,1,0,0:0:0:0:
172,184,53890,1,0,0:0:0:0:
256,156,54047,1,2,0:0:0:0:
328,212,54204,1,0,0:0:0:0:
316,296,54361,1,2,0:0:0:0:
316,296,54675,1,2,0:0:0:0:
244,244,54989,5,2,0:0:0:0:
244,244,55146,2,0,P|200:180|4:244,1,320
316,144,57031,5,4,0:0:0:0:
420,200,57188,2,0,L|468:196,2,40
316,144,57502,1,0,0:0:0:0:
296,148,57581,1,0,0:0:0:0:
276,152,57659,1,0,0:0:0:0:
256,156,57738,1,0,0:0:0:0:
236,160,57816,2,0,L|240:104,4,40
92,204,58287,6,0,L|44:192,2,40
236,312,58602,2,0,L|284:300,2,40
112,304,58916,1,0,0:0:0:0:
92,308,58994,1,0,0:0:0:0:
72,312,59073,2,0,L|12:308,4,40
244,164,59544,6,0,L|240:116,2,40
400,200,59858,2,0,L|396:239,2,40,0|0|0,0:0|0:0|0:0,0:0:0:0:
352,100,60172,1,0,0:0:0:0:
360,80,60251,1,0,0:0:0:0:
368,60,60329,2,0,L|364:12,4,40
208,84,60801,5,0,0:0:0:0:
188,80,60879,1,0,0:0:0:0:
168,76,60958,1,0,0:0:0:0:
24,168,61115,1,0,0:0:0:0:
44,172,61194,1,0,0:0:0:0:
64,176,61272,1,0,0:0:0:0:
176,252,61429,1,0,0:0:0:0:
196,248,61507,1,0,0:0:0:0:
216,244,61586,1,0,0:0:0:0:
236,244,61664,1,0,0:0:0:0:
256,244,61743,1,0,0:0:0:0:
276,248,61821,1,0,0:0:0:0:
296,256,61900,1,0,0:0:0:0:
456,308,62057,5,4,0:0:0:0:
456,308,62136,1,0,0:0:0:0:
456,308,62214,1,0,0:0:0:0:
436,176,62371,2,0,P|444:132|448:84,1,80
324,64,62685,1,0,0:0:0:0:
304,68,62764,1,0,0:0:0:0:
284,72,62842,1,0,0:0:0:0:
264,76,62921,1,0,0:0:0:0:
244,76,62999,2,0,L|200:72,2,40
396,180,63314,6,0,L|440:176,2,40,0|0|0,0:0|0:0|0:0,0:0:0:0:
252,224,63628,2,0,L|260:268,2,40
116,192,63942,1,0,0:0:0:0:
96,188,64020,1,0,0:0:0:0:
76,184,64099,2,0,L|68:144,4,40
216,40,64570,6,0,L|212:84,2,40
336,128,64884,2,0,L|339:88,2,40
464,144,65198,1,0,0:0:0:0:
464,144,65277,1,0,0:0:0:0:
464,144,65356,2,0,L|460:183,4,40
336,128,65827,5,0,0:0:0:0:
316,132,65905,1,0,0:0:0:0:
296,136,65984,1,0,0:0:0:0:
136,208,66141,1,0,0:0:0:0:
156,212,66219,1,0,0:0:0:0:
176,216,66298,1,0,0:0:0:0:
360,292,66455,1,0,0:0:0:0:
340,284,66534,1,0,0:0:0:0:
320,280,66612,1,0,0:0:0:0:
300,276,66691,1,0,0:0:0:0:
280,276,66769,1,0,0:0:0:0:
260,284,66848,1,0,0:0:0:0:
240,292,66926,1,0,0:0:0:0:
224,304,67005,1,0,0:0:0:0:
208,316,67083,5,4,2:0:0:0:
56,288,67240,1,0,1:0:0:0:
200,308,67397,1,2,2:0:0:0:
48,280,67554,1,0,1:0:0:0:
80,140,67712,2,0,L|32:132,4,40,0|0|0|0|0,1:0|0:0|0:0|0:0|0:0,0:0:0:0:
224,156,68183,5,0,1:0:0:0:
224,156,68261,1,0,1:0:0:0:
224,156,68340,1,2,2:0:0:0:
376,152,68497,1,0,1:0:0:0:
228,164,68654,1,2,2:0:0:0:
380,160,68811,1,0,1:0:0:0:
472,256,68968,2,0,L|520:248,4,40,0|0|0|0|0,1:0|0:0|0:0|0:0|0:0,0:0:0:0:
356,308,69439,5,0,0:0:0:0:
336,304,69518,1,0,0:0:0:0:
316,300,69596,1,2,2:0:0:0:
144,312,69753,1,0,0:0:0:0:
308,288,69910,1,2,2:0:0:0:
136,300,70068,1,0,0:0:0:0:
48,168,70225,2,0,L|40:112,4,40
232,208,70696,5,0,0:0:0:0:
236,188,70775,1,0,0:0:0:0:
240,168,70853,1,2,2:0:0:0:
240,168,71167,1,2,2:0:0:0:
336,164,71324,1,0,0:0:0:0:
432,160,71481,5,2,2:0:0:0:
432,160,71560,1,0,0:0:0:0:
432,160,71638,1,0,0:0:0:0:
432,160,71717,1,0,0:0:0:0:
432,160,71795,2,0,L|436:200,1,40
504,260,71952,2,0,L|516:212,1,40
512,136,72109,5,4,2:0:0:0:
392,52,72267,1,0,0:0:0:0:
372,56,72345,1,0,0:0:0:0:
352,60,72424,1,0,0:0:0:0:
332,64,72502,1,0,0:0:0:0:
312,68,72581,1,0,0:0:0:0:
180,120,72738,2,0,L|136:104,4,40,0|0|0|0|4,0:0|0:0|0:0|0:0|2:0,0:0:0:0:
284,196,73209,5,0,0:0:0:0:
304,192,73287,1,0,0:0:0:0:
324,188,73366,1,0,0:0:0:0:
420,276,73523,1,0,0:0:0:0:
400,280,73602,1,0,0:0:0:0:
380,284,73680,1,0,0:0:0:0:
244,312,73837,2,0,L|196:308,8,40
244,312,74623,5,4,2:0:0:0:
244,292,74701,1,0,0:0:0:0:
240,272,74780,1,0,0:0:0:0:
232,256,74858,1,0,0:0:0:0:
220,240,74937,1,0,0:0:0:0:
228,220,75015,1,0,0:0:0:0:
240,204,75094,1,0,0:0:0:0:
252,188,75172,1,0,0:0:0:0:
256,168,75251,2,0,L|248:124,3,40,4|0|0|0,2:0|0:0|0:0|0:0,0:0:0:0:
260,112,75565,2,0,L|272:68,3,40
268,52,75879,5,4,2:0:0:0:
252,40,75958,1,0,0:0:0:0:
232,36,76036,1,0,0:0:0:0:
212,40,76115,1,0,0:0:0:0:
196,52,76193,1,4,2:0:0:0:
176,60,76272,1,0,0:0:0:0:
156,64,76350,1,0,0:0:0:0:
136,64,76429,1,0,0:0:0:0:
116,60,76507,1,4,2:0:0:0:
96,52,76586,1,0,0:0:0:0:
76,48,76664,1,0,0:0:0:0:
56,56,76743,1,0,0:0:0:0:
40,68,76821,1,4,2:0:0:0:
28,84,76900,1,0,0:0:0:0:
20,100,76979,1,0,0:0:0:0:
16,120,77057,1,0,0:0:0:0:
16,140,77136,5,0,0:0:0:0:
56,240,77293,1,0,0:0:0:0:
108,336,77450,1,0,0:0:0:0:
108,336,77528,1,0,0:0:0:0:
108,336,77607,1,0,0:0:0:0:
108,336,77685,1,0,0:0:0:0:
108,336,77764,2,0,L|192:332,1,80
208,332,77999,1,0,0:0:0:0:
228,332,78078,2,0,P|236:292|232:252,1,80
296,88,78392,6,0,L|284:72,3,20
296,88,78549,2,0,P|296:108|300:128,1,40
400,216,78706,2,0,P|404:196|404:176,1,40
300,268,78863,2,0,P|300:294|304:308,1,40
220,272,79020,6,2,P|184:264|152:264,1,60,0|0,0:0|2:0,0:0:0:0:
44,216,79335,2,0,P|28:164|44:108,1,103.999995239258,2|2,0:0|0:0,0:0:0:0:
180,60,79649,5,4,0:0:0:0:
296,88,79806,1,0,0:0:0:0:
316,84,79884,1,0,0:0:0:0:
336,80,79963,1,0,0:0:0:0:
512,168,80120,1,0,0:0:0:0:
492,164,80198,1,0,0:0:0:0:
472,160,80277,1,0,0:0:0:0:
452,160,80356,1,0,0:0:0:0:
432,164,80434,1,0,0:0:0:0:
412,172,80513,1,0,0:0:0:0:
396,180,80591,1,0,0:0:0:0:
380,192,80670,1,0,0:0:0:0:
368,208,80748,1,0,0:0:0:0:
208,184,80905,5,0,0:0:0:0:
80,232,81062,2,0,L|36:224,2,40
208,184,81376,1,0,0:0:0:0:
212,164,81455,1,0,0:0:0:0:
216,144,81534,1,0,0:0:0:0:
216,124,81612,1,0,0:0:0:0:
216,104,81691,1,0,0:0:0:0:
212,84,81769,1,0,0:0:0:0:
208,64,81848,1,0,0:0:0:0:
200,44,81926,1,0,0:0:0:0:
188,28,82005,1,0,0:0:0:0:
40,80,82162,5,0,0:0:0:0:
40,80,82319,2,0,L|32:24,2,40
112,184,82633,1,0,0:0:0:0:
108,204,82712,1,0,0:0:0:0:
104,224,82790,1,0,0:0:0:0:
100,244,82869,1,0,0:0:0:0:
92,264,82947,1,0,0:0:0:0:
88,284,83026,1,0,0:0:0:0:
84,304,83104,1,0,0:0:0:0:
76,324,83183,1,0,0:0:0:0:
68,344,83261,1,0,0:0:0:0:
240,328,83418,6,0,L|292:324,2,40
152,188,83732,2,0,L|100:184,2,40
280,188,84047,1,0,0:0:0:0:
300,188,84125,1,0,0:0:0:0:
320,188,84204,1,0,0:0:0:0:
340,184,84282,1,0,0:0:0:0:
360,180,84361,1,0,0:0:0:0:
380,172,84439,1,0,0:0:0:0:
400,164,84518,1,0,0:0:0:0:
488,80,84675,5,4,0:0:0:0:
512,188,84832,1,0,0:0:0:0:
512,208,84910,1,0,0:0:0:0:
512,228,84989,1,0,0:0:0:0:
396,308,85146,2,0,L|392:264,2,40
376,308,85382,1,0,0:0:0:0:
356,308,85460,1,0,0:0:0:0:
336,308,85539,1,0,0:0:0:0:
320,320,85617,1,0,0:0:0:0:
300,320,85696,1,0,0:0:0:0:
280,320,85774,1,0,0:0:0:0:
156,312,85931,6,0,L|160:268,2,40,0|0|0,0:0|0:0|0:0,0:0:0:0:
40,204,86246,2,0,L|43:243,2,40,0|0|0,0:0|0:0|0:0,0:0:0:0:
36,184,86481,1,0,0:0:0:0:
32,164,86560,1,0,0:0:0:0:
28,144,86638,1,0,0:0:0:0:
40,128,86717,1,0,0:0:0:0:
52,112,86795,1,0,0:0:0:0:
48,92,86874,1,0,0:0:0:0:
44,72,86952,1,0,0:0:0:0:
40,52,87031,1,0,0:0:0:0:
160,48,87188,5,0,0:0:0:0:
160,48,87267,1,0,0:0:0:0:
160,48,87345,1,0,0:0:0:0:
160,48,87424,1,0,0:0:0:0:
160,48,87502,1,0,0:0:0:0:
192,64,87581,1,0,0:0:0:0:
228,68,87659,1,0,0:0:0:0:
264,68,87738,1,0,0:0:0:0:
300,64,87816,1,0,0:0:0:0:
332,52,87895,1,0,0:0:0:0:
368,44,87973,1,0,0:0:0:0:
404,52,88052,1,0,0:0:0:0:
428,80,88130,1,0,0:0:0:0:
440,116,88209,1,0,0:0:0:0:
432,152,88287,1,0,0:0:0:0:
408,176,88366,1,0,0:0:0:0:
372,184,88445,5,2,0:0:0:0:
256,200,88602,1,2,0:0:0:0:
136,200,88759,1,0,0:0:0:0:
136,200,88837,1,0,0:0:0:0:
136,200,88916,1,0,0:0:0:0:
136,200,88994,1,0,0:0:0:0:
136,200,89073,2,0,L|48:192,1,80
0,288,89387,6,0,L|120:300,1,120.000004577637,2|2,0:0|0:0,0:0:0:0:
140,296,89623,1,0,2:0:0:0:
156,308,89701,6,0,L|235:315,1,80,6|0,0:0|0:0,0:0:0:0:
376,220,90015,1,2,0:0:0:0:
376,220,90172,2,0,P|324:196|220:208,1,160,0|2,0:0|0:0,0:0:0:0:
216,76,90643,1,2,0:0:0:0:
96,96,90801,1,0,0:0:0:0:
216,76,90958,2,0,L|296:72,1,80,2|0,0:0|0:0,0:0:0:0:
96,96,91272,2,0,L|16:92,1,80,2|0,0:0|0:0,0:0:0:0:
120,216,91586,5,2,0:0:0:0:
240,204,91743,1,0,0:0:0:0:
216,76,91900,1,2,0:0:0:0:
96,96,92057,1,0,0:0:0:0:
120,216,92214,6,0,P|112:264|120:300,1,80,2|0,0:0|0:0,0:0:0:0:
352,240,92528,1,2,0:0:0:0:
352,240,92685,2,0,P|284:224|192:260,1,160,0|2,0:0|0:0,0:0:0:0:
216,76,93157,1,0,0:0:0:0:
344,104,93314,1,0,0:0:0:0:
344,104,93392,1,0,0:0:0:0:
344,104,93471,2,0,L|444:100,1,80,2|0,0:0|0:0,0:0:0:0:
472,176,93785,1,2,0:0:0:0:
476,264,93942,1,2,0:0:0:0:
444,348,94099,1,2,0:0:0:0:
444,348,94256,1,0,0:0:0:0:
476,264,94413,1,2,0:0:0:0:
472,176,94570,5,0,0:0:0:0:
472,176,94649,1,0,0:0:0:0:
472,176,94727,2,0,L|368:184,1,80,6|0,0:0|0:0,0:0:0:0:
256,240,95041,1,2,0:0:0:0:
256,240,95198,2,0,P|180:220|96:228,1,160,0|2,0:0|0:0,0:0:0:0:
12,140,95670,1,0,0:0:0:0:
132,108,95827,1,2,0:0:0:0:
100,228,95984,5,2,0:0:0:0:
12,140,96141,1,0,0:0:0:0:
132,108,96298,1,2,0:0:0:0:
100,228,96455,1,0,0:0:0:0:
256,240,96612,2,0,P|264:192|264:152,1,80,2|0,0:0|0:0,0:0:0:0:
124,28,96926,2,0,P|125:67|132:107,1,80,2|0,0:0|0:0,0:0:0:0:
260,116,97240,5,0,0:0:0:0:
280,112,97319,1,2,2:0:0:0:
300,108,97397,1,0,0:0:0:0:
320,104,97476,1,0,2:0:0:0:
340,100,97554,2,0,L|352:48,2,40
256,240,97869,1,0,0:0:0:0:
236,244,97948,1,2,2:0:0:0:
216,248,98026,1,0,0:0:0:0:
196,252,98105,1,2,2:0:0:0:
176,256,98183,2,0,L|164:308,2,40
76,160,98497,5,0,0:0:0:0:
76,160,98654,1,2,2:0:0:0:
76,160,98811,2,0,P|64:120|68:60,1,80,0|0,0:0|2:0,0:0:0:0:
184,52,99125,2,0,L|272:44,2,80,0|2|0,0:0|2:0|0:0,0:0:0:0:
184,52,99596,1,2,2:0:0:0:
184,52,99753,5,4,0:0:0:0:
264,168,100068,2,0,L|256:232,1,60.0000022888184,0|2,0:0|0:0,0:0:0:0:
152,304,100382,2,0,L|168:184,1,120.000004577637,0|2,0:0|0:0,0:0:0:0:
264,168,100853,2,0,P|328:168|392:152,2,120.000004577637,0|2|2,0:0|0:0|0:0,0:0:0:0:
264,168,101795,5,2,0:0:0:0:
188,136,101952,1,0,0:0:0:0:
104,136,102109,1,2,0:0:0:0:
32,180,102267,1,0,0:0:0:0:
32,180,102581,1,2,0:0:0:0:
152,248,102738,2,0,L|160:320,2,60.0000022888184,0|0|2,0:0|0:0|0:0,0:0:0:0:
264,168,103209,1,2,0:0:0:0:
264,168,103366,2,0,P|280:112|284:44,2,120.000004577637,0|2|2,0:0|0:0|0:0,0:0:0:0:
476,300,104308,5,2,0:0:0:0:
396,288,104465,1,0,0:0:0:0:
312,276,104623,1,2,0:0:0:0:
228,264,104780,1,0,0:0:0:0:
228,264,105094,2,0,P|184:264|156:268,1,60.0000022888184,2|0,0:0|0:0,0:0:0:0:
68,312,105408,2,0,P|56:272|64:192,1,120.000004577637,0|2,0:0|0:0,0:0:0:0:
136,104,105879,2,0,P|196:108|260:96,2,120.000004577637,0|2|2,0:0|0:0|0:0,0:0:0:0:
352,80,106821,5,2,0:0:0:0:
256,96,106978,1,0,0:0:0:0:
276,192,107136,1,2,0:0:0:0:
368,176,107293,1,0,0:0:0:0:
368,176,107607,1,2,0:0:0:0:
464,184,107764,1,0,0:0:0:0:
464,184,107921,2,0,L|471:124,2,60.0000022888184,0|2|0,0:0|0:0|0:0,0:0:0:0:
296,288,108392,2,0,P|244:280|168:296,1,120.000004577637,0|2,0:0|0:0,0:0:0:0:
36,184,109020,1,2,0:0:0:0:
40,188,109335,5,2,0:0:0:0:
128,184,109492,1,0,0:0:0:0:
216,180,109649,1,2,0:0:0:0:
300,176,109806,1,0,0:0:0:0:
300,176,110120,2,0,L|304:104,1,60.0000022888184,2|0,0:0|0:0,0:0:0:0:
408,184,110434,2,0,L|404:243,2,60.0000022888184,0|2|0,0:0|0:0|0:0,0:0:0:0:
452,80,110905,5,2,0:0:0:0:
460,84,111219,1,2,0:0:0:0:
468,88,111534,1,2,0:0:0:0:
