osu file format v14

[General]
AudioFilename: 10 Critical Crystal.mp3
AudioLeadIn: 0
PreviewTime: 79383
Countdown: 0
SampleSet: None
StackLeniency: 0.7
Mode: 0
LetterboxInBreaks: 0
WidescreenStoryboard: 1

[Editor]
Bookmarks: 3048
DistanceSpacing: 1
BeatDivisor: 4
GridSize: 32
TimelineZoom: 1.7

[Metadata]
Title:Critical Crystal
TitleUnicode:Critical Crystal
Artist:Seiryu
ArtistUnicode:青龍
Creator:Techniques
Version:Another
Source:beatmania IIDX 21 SPADA
Tags:Ryu* BLUE DRAGON Bemani Konami
BeatmapID:669398
BeatmapSetID:298264

[Difficulty]
HPDrainRate:7
CircleSize:4
OverallDifficulty:8
ApproachRate:9.3
SliderMultiplier:1.9
SliderTickRate:1

[Events]
//Background and Video events
0,0,"criticalcrystal.jpg",0,0
//Break Periods
//Storyboard Layer 0 (Background)
//Storyboard Layer 1 (Fail)
//Storyboard Layer 2 (Pass)
//Storyboard Layer 3 (Foreground)
//Storyboard Sound Samples

[TimingPoints]
535,314.13612565445,4,2,0,70,1,0
3048,-100,4,1,0,70,0,0
13100,-100,4,2,0,70,0,0
23152,-100,4,1,0,70,0,0
33205,-100,4,2,0,70,0,0
43257,-200,4,2,0,30,0,0
55194,-100,4,2,0,25,0,0
57079,-100,4,2,0,70,0,1
67131,-66.6666666666667,4,2,0,70,0,1
67760,-100,4,2,0,70,0,1
68388,-66.6666666666667,4,2,0,70,0,1
69016,-100,4,2,0,70,0,1
69644,-66.6666666666667,4,2,0,70,0,1
70273,-100,4,2,0,70,0,1
77184,-100,4,2,0,70,0,0
79697,-66.6666666666667,4,2,0,70,0,1
89749,-100,4,2,0,70,0,0
99173,-133.333333333333,4,2,0,70,0,0
99802,-200,4,2,0,30,0,0

[Colours]
Combo1 : 255,255,255
Combo2 : 18,136,175
Combo3 : 126,168,245
Combo4 : 49,216,251
Combo5 : 119,247,211

[HitObjects]
117,193,535,5,2,0:0:0:0:
188,70,692,2,0,P|230:98|281:98,1,95,2|2,0:0|0:0,0:0:0:0:
320,96,927,1,0,0:0:0:0:
367,101,1006,1,2,0:0:0:0:
403,131,1084,1,0,0:0:0:0:
421,175,1163,2,0,P|419:227|392:283,3,95,2|0|0|0,0:0|0:0|0:0|0:0,0:0:0:0:
224,330,1791,6,0,L|162:346,3,47.5,2|0|0|0,0:0|0:0|0:0|0:0,0:0:0:0:
153,250,2105,2,0,L|214:233,3,47.5,2|0|0|0,0:0|0:0|0:0|0:0,0:0:0:0:
132,173,2419,2,0,P|152:130|192:90,1,95,2|0,0:0|0:0,0:0:0:0:
423,66,2733,5,2,0:0:0:0:
463,110,2812,1,0,0:0:0:0:
486,161,2891,1,2,0:0:0:0:
485,212,2969,1,0,0:0:0:0:
451,255,3048,6,0,P|403:275|358:279,1,95,4|0,0:0|0:0,0:0:0:0:
336,187,3362,2,0,P|332:141|311:94,1,95,8|0,0:0|0:0,0:0:0:0:
238,37,3676,2,0,P|210:75|190:120,1,95
274,163,3990,2,0,P|254:206|221:240,1,95,8|0,0:0|0:0,0:0:0:0:
92,181,4304,6,0,P|60:144|35:83,1,95
123,58,4618,2,0,P|154:93|170:137,1,95,8|0,0:0|0:0,0:0:0:0:
190,230,4932,1,0,0:0:0:0:
288,348,5089,6,0,P|336:334|393:275,1,95,0|2,0:0|0:0,0:0:0:0:
401,270,5325,1,0,0:0:0:0:
420,227,5404,1,2,0:0:0:0:
418,180,5482,1,0,0:0:0:0:
402,135,5561,2,0,P|370:102|328:74,1,95,2|0,0:0|0:0,0:0:0:0:
253,131,5875,6,0,P|228:178|198:209,1,95,10|0,0:0|0:0,0:0:0:0:
130,217,6110,2,0,P|158:156|211:98,1,142.5,2|0,0:0|0:0,0:0:0:0:
290,52,6503,6,0,P|313:104|322:172,1,95,10|0,0:0|0:0,0:0:0:0:
324,188,6739,1,0,0:0:0:0:
320,236,6817,1,0,0:0:0:0:
178,253,6974,1,0,0:0:0:0:
119,56,7131,5,10,0:0:0:0:
141,98,7210,1,0,0:0:0:0:
164,138,7288,1,2,0:0:0:0:
191,176,7367,1,0,0:0:0:0:
223,209,7445,6,0,P|272:243|309:251,1,95,2|0,0:0|0:0,0:0:0:0:
353,103,7760,2,0,P|297:73|241:64,1,95,8|0,0:0|0:0,0:0:0:0:
141,133,8074,6,0,P|103:179|84:230,1,95,4|0,0:0|0:0,0:0:0:0:
128,270,8309,2,0,P|159:232|184:172,1,95,2|0,0:0|0:0,0:0:0:0:
195,146,8545,1,10,0:0:0:0:
223,107,8624,1,0,0:0:0:0:
261,79,8702,5,2,0:0:0:0:
306,226,8859,1,2,0:0:0:0:
183,133,9016,1,10,0:0:0:0:
337,136,9173,1,2,0:0:0:0:
211,224,9330,1,2,0:0:0:0:
69,200,9487,5,0,0:0:0:0:
69,200,9566,1,0,0:0:0:0:
69,200,9644,2,0,P|111:178|161:175,1,95,8|0,0:0|0:0,0:0:0:0:
204,184,9880,1,0,0:0:0:0:
246,206,9959,1,2,0:0:0:0:
367,278,10116,6,0,P|375:222|366:179,1,95,2|8,0:0|0:0,0:0:0:0:
353,139,10351,1,2,0:0:0:0:
319,105,10430,1,2,0:0:0:0:
276,84,10508,1,2,0:0:0:0:
230,70,10587,2,0,P|173:62|116:69,1,95,2|0,0:0|0:0,0:0:0:0:
91,81,10822,1,0,0:0:0:0:
51,109,10901,1,8,0:0:0:0:
45,203,11058,6,0,L|50:222,7,11.875
133,278,11372,1,2,0:0:0:0:
133,278,11451,1,0,0:0:0:0:
133,278,11529,2,0,P|178:302|224:302,1,95,8|0,0:0|0:0,0:0:0:0:
359,269,11843,6,0,P|390:230|418:167,1,95,2|0,0:0|0:0,0:0:0:0:
400,143,12079,2,0,P|348:164|310:194,1,95,2|0,0:0|0:0,0:0:0:0:
284,221,12315,1,2,0:0:0:0:
256,259,12393,1,0,0:0:0:0:
234,301,12472,1,2,0:0:0:0:
167,175,12629,5,2,0:0:0:0:
213,40,12786,2,0,P|249:85|269:140,1,95
297,207,13100,5,4,0:0:0:0:
388,233,13257,1,0,0:0:0:0:
394,138,13414,1,8,0:0:0:0:
320,77,13571,2,0,P|228:63|155:120,1,190
187,259,14042,2,0,P|148:286|101:292,1,95,8|0,0:0|0:0,0:0:0:0:
30,168,14356,5,0,0:0:0:0:
55,75,14514,1,0,0:0:0:0:
121,192,14671,1,8,0:0:0:0:
146,100,14828,1,0,0:0:0:0:
212,217,14985,1,0,0:0:0:0:
237,125,15142,1,0,0:0:0:0:
303,241,15299,1,8,0:0:0:0:
328,149,15456,1,0,0:0:0:0:
422,243,15613,6,0,P|399:186|394:138,1,95
412,59,15927,1,8,0:0:0:0:
485,119,16084,2,0,P|492:211|468:309,1,190
384,336,16555,2,0,P|333:328|291:311,1,95,8|0,0:0|0:0,0:0:0:0:
207,269,16870,5,0,0:0:0:0:
182,177,17027,1,0,0:0:0:0:
297,244,17184,1,8,0:0:0:0:
268,134,17341,1,0,0:0:0:0:
388,220,17498,1,0,0:0:0:0:
354,92,17655,1,0,0:0:0:0:
479,196,17812,1,8,0:0:0:0:
440,49,17969,1,0,0:0:0:0:
320,96,18126,6,0,P|341:139|344:188,1,95,6|0,0:0|0:0,0:0:0:0:
192,96,18440,2,0,P|171:139|167:188,1,95,10|0,0:0|0:0,0:0:0:0:
256,320,18754,2,0,L|256:225,1,95,2|0,0:0|0:0,0:0:0:0:
336,173,19069,6,0,P|380:180|428:197,1,95,10|0,0:0|0:0,0:0:0:0:
176,173,19383,2,0,P|132:180|83:197,1,95,2|0,0:0|0:0,0:0:0:0:
336,256,19697,2,0,P|380:263|428:280,1,95,10|0,0:0|0:0,0:0:0:0:
176,256,20011,2,0,P|132:263|83:280,1,95,2|0,0:0|0:0,0:0:0:0:
256,304,20325,2,0,L|256:208,1,95,10|0,0:0|0:0,0:0:0:0:
192,112,20639,6,0,P|145:91|99:87,1,95,2|0,0:0|0:0,0:0:0:0:
320,112,20953,2,0,P|367:91|412:87,1,95,10|0,0:0|0:0,0:0:0:0:
256,160,21267,2,0,L|256:64,1,95,2|0,0:0|0:0,0:0:0:0:
309,239,21582,6,0,P|329:280|370:321,1,95,10|0,0:0|0:0,0:0:0:0:
202,239,21896,2,0,P|182:280|141:321,1,95,2|0,0:0|0:0,0:0:0:0:
352,128,22210,6,0,P|400:109|435:79,1,95,10|0,0:0|0:0,0:0:0:0:
160,128,22524,2,0,P|111:109|76:79,1,95,2|0,0:0|0:0,0:0:0:0:
256,48,22838,1,10,0:0:0:0:
256,160,22995,5,2,0:0:0:0:
256,160,23074,1,0,0:0:0:0:
256,160,23152,2,0,P|243:213|256:272,1,95,4|0,0:0|0:0,0:0:0:0:
307,326,23466,1,8,0:0:0:0:
392,282,23624,2,0,P|410:195|392:90,1,190
306,59,24095,1,8,0:0:0:0:
254,138,24252,1,0,0:0:0:0:
234,231,24409,6,0,P|198:201|176:160,1,95
335,130,24723,2,0,P|308:89|266:59,1,95,8|0,0:0|0:0,0:0:0:0:
129,44,25037,2,0,P|84:58|45:91,1,95
48,231,25351,2,0,P|91:204|129:151,1,95,8|0,0:0|0:0,0:0:0:0:
186,103,25665,5,0,0:0:0:0:
223,190,25822,1,0,0:0:0:0:
195,281,25980,1,8,0:0:0:0:
272,336,26137,2,0,P|333:259|368:169,1,190
371,127,26529,1,0,0:0:0:0:
364,79,26608,2,0,P|322:46|270:37,1,95,8|0,0:0|0:0,0:0:0:0:
187,27,26922,5,2,0:0:0:0:
74,58,27079,1,2,0:0:0:0:
217,137,27236,1,10,0:0:0:0:
107,166,27393,1,2,0:0:0:0:
246,246,27550,1,2,0:0:0:0:
136,275,27707,1,2,0:0:0:0:
275,355,27864,1,10,0:0:0:0:
165,384,28021,1,2,0:0:0:0:
384,326,28178,6,0,P|425:309|471:275,1,95,4|0,0:0|0:0,0:0:0:0:
490,188,28493,1,8,0:0:0:0:
490,188,28650,2,0,P|428:127|324:91,1,190
237,92,29121,1,8,0:0:0:0:
145,117,29278,1,0,0:0:0:0:
320,160,29435,6,0,P|370:163|412:135,1,95,0|0,0:0|0:0,0:0:0:0:
192,160,29749,2,0,P|141:163|99:135,1,95,8|0,0:0|0:0,0:0:0:0:
320,288,30063,2,0,P|370:291|412:263,1,95,0|0,0:0|0:0,0:0:0:0:
192,288,30377,2,0,P|141:291|99:263,1,95,8|0,0:0|0:0,0:0:0:0:
256,160,30692,5,0,0:0:0:0:
327,36,30849,1,0,0:0:0:0:
184,36,31006,1,8,0:0:0:0:
116,161,31163,2,0,P|186:222|284:258,1,190
322,262,31555,1,0,0:0:0:0:
366,244,31634,2,0,P|397:204|415:158,1,95,8|0,0:0|0:0,0:0:0:0:
499,205,31948,5,2,0:0:0:0:
461,66,32105,1,2,0:0:0:0:
360,242,32262,1,10,0:0:0:0:
323,103,32419,1,2,0:0:0:0:
222,279,32576,1,2,0:0:0:0:
185,140,32733,1,2,0:0:0:0:
84,316,32890,1,10,0:0:0:0:
47,177,33047,1,2,0:0:0:0:
128,224,33205,6,0,P|169:245|220:248,1,95,6|0,0:0|0:0,0:0:0:0:
307,220,33519,1,2,0:0:0:0:
416,128,33676,2,0,P|320:96|224:128,1,190,2|0,0:0|0:0,0:0:0:0:
199,148,34147,1,2,0:0:0:0:
165,181,34304,1,2,0:0:0:0:
439,258,34618,5,2,0:0:0:0:
439,258,34775,1,2,0:0:0:0:
313,325,34932,2,0,L|318:372,2,47.5,2|0|2,0:0|0:0|0:0,0:0:0:0:
231,259,35247,2,0,L|211:279,1,23.75,2|0,0:0|0:0,0:0:0:0:
198,234,35325,2,0,L|192:259,1,23.75
173,223,35404,1,2,0:0:0:0:
128,204,35482,1,0,0:0:0:0:
89,175,35561,1,2,0:0:0:0:
66,133,35639,1,2,0:0:0:0:
76,86,35718,6,0,P|116:55|189:44,1,95,2|0,0:0|0:0,0:0:0:0:
252,51,36032,1,2,0:0:0:0:
328,107,36189,2,0,P|374:171|417:278,1,190,2|2,0:0|0:0,0:0:0:0:
409,320,36582,1,0,0:0:0:0:
375,353,36660,1,2,0:0:0:0:
328,363,36739,1,0,0:0:0:0:
284,343,36817,1,2,0:0:0:0:
448,64,37131,5,2,0:0:0:0:
384,192,37288,1,2,0:0:0:0:
320,64,37445,1,2,0:0:0:0:
228,91,37603,2,0,L|216:107,7,11.875,0|0|0|0|0|0|0|0,0:0|0:0|0:0|0:0|0:0|0:0|0:0|0:0,0:0:0:0:
251,202,37917,1,2,0:0:0:0:
231,245,37995,1,0,0:0:0:0:
192,273,38074,1,2,0:0:0:0:
146,287,38152,1,0,0:0:0:0:
98,281,38231,5,6,0:0:0:0:
46,148,38388,1,0,0:0:0:0:
102,17,38545,1,2,0:0:0:0:
160,96,38702,2,0,P|207:149|339:147,1,190,2|0,0:0|0:0,0:0:0:0:
385,30,39173,1,2,0:0:0:0:
440,161,39330,1,2,0:0:0:0:
440,161,39487,5,4,0:0:0:0:
384,320,39644,1,0,0:0:0:0:
384,320,39802,1,2,0:0:0:0:
288,320,39959,2,0,P|238:315|195:295,1,95,2|0,0:0|0:0,0:0:0:0:
298,255,40273,2,0,L|311:236,1,23.75,2|0,0:0|0:0,0:0:0:0:
256,230,40351,2,0,L|272:205,1,23.75
223,214,40430,1,2,0:0:0:0:
186,183,40508,1,0,0:0:0:0:
156,145,40587,1,2,0:0:0:0:
132,104,40665,1,0,0:0:0:0:
125,56,40744,6,0,P|177:66|217:80,1,95,4|0,0:0|0:0,0:0:0:0:
346,139,41058,1,2,0:0:0:0:
425,257,41215,2,0,P|389:306|344:326,1,95,2|0,0:0|0:0,0:0:0:0:
147,320,41529,1,2,0:0:0:0:
63,204,41686,1,2,0:0:0:0:
81,62,41843,1,2,0:0:0:0:
81,62,42158,5,2,0:0:0:0:
364,34,42472,1,2,0:0:0:0:
283,205,42786,1,2,0:0:0:0:
372,237,42943,1,2,0:0:0:0:
464,213,43100,1,2,0:0:0:0:
441,120,43257,6,0,P|405:87|357:72,1,95,6|0,0:0|0:0,0:0:0:0:
409,175,43728,1,0,0:0:0:0:
326,127,43885,1,0,0:0:0:0:
377,231,44042,1,0,0:0:0:0:
294,183,44199,1,2,0:0:0:0:
345,286,44356,2,0,P|299:265|261:238,2,95,0|0|0,0:0|0:0|0:0,0:0:0:0:
159,329,45299,5,0,0:0:0:0:
135,236,45456,1,0,0:0:0:0:
110,144,45613,1,0,0:0:0:0:
200,115,45770,6,0,P|203:170|224:207,1,95,2|0,0:0|0:0,0:0:0:0:
262,99,46241,1,0,0:0:0:0:
287,191,46398,1,0,0:0:0:0:
324,82,46555,1,0,0:0:0:0:
349,175,46713,1,2,0:0:0:0:
386,66,46870,1,0,0:0:0:0:
512,198,47184,1,0,0:0:0:0:
383,332,47498,1,0,0:0:0:0:
64,256,47812,5,0,0:0:0:0:
154,283,47969,1,0,0:0:0:0:
128,192,48126,1,0,0:0:0:0:
221,176,48283,6,0,P|237:219|269:259,1,95,2|0,0:0|0:0,0:0:0:0:
277,144,48754,1,0,0:0:0:0:
325,227,48911,1,0,0:0:0:0:
332,112,49069,1,0,0:0:0:0:
380,195,49226,1,2,0:0:0:0:
387,80,49383,2,0,P|369:33|339:-3,2,95
222,174,50325,5,0,0:0:0:0:
154,106,50482,1,0,0:0:0:0:
86,38,50639,1,0,0:0:0:0:
36,118,50796,6,0,P|25:167|36:214,1,95,2|0,0:0|0:0,0:0:0:0:
87,288,51267,1,0,0:0:0:0:
180,308,51425,1,0,0:0:0:0:
270,278,51582,1,0,0:0:0:0:
325,201,51739,1,2,0:0:0:0:
323,106,51896,1,0,0:0:0:0:
144,41,52210,5,0,0:0:0:0:
205,220,52524,1,0,0:0:0:0:
398,299,52838,5,0,0:0:0:0:
421,257,52995,1,0,0:0:0:0:
445,216,53152,1,0,0:0:0:0:
468,174,53309,1,2,0:0:0:0:
352,96,53624,5,2,0:0:0:0:
318,129,53781,1,2,0:0:0:0:
318,176,53938,1,2,0:0:0:0:
284,209,54095,1,2,0:0:0:0:
284,256,54252,1,2,0:0:0:0:
250,289,54409,1,2,0:0:0:0:
250,99,54723,5,2,0:0:0:0:
115,233,55037,1,2,0:0:0:0:
256,192,55194,12,0,56451,0:0:0:0:
110,159,57079,6,0,P|123:114|157:82,1,95,4|0,0:0|0:0,0:0:0:0:
189,160,57393,2,0,P|205:222|169:270,1,95,8|0,0:0|0:0,0:0:0:0:
123,309,57707,5,0,0:0:0:0:
75,301,57786,1,0,0:0:0:0:
44,264,57864,1,0,0:0:0:0:
32,217,57943,1,0,0:0:0:0:
32,169,58021,1,8,0:0:0:0:
43,122,58100,1,0,0:0:0:0:
70,83,58178,1,0,0:0:0:0:
97,43,58257,1,0,0:0:0:0:
140,23,58336,6,0,P|166:13|206:18,3,47.5,2|0|0|0,0:0|0:0|0:0|0:0,0:0:0:0:
278,33,58650,2,0,P|316:43|343:34,3,47.5,10|0|0|0,0:0|0:0|0:0|0:0,0:0:0:0:
412,76,58964,5,0,0:0:0:0:
436,121,59042,1,0,0:0:0:0:
444,172,59121,1,0,0:0:0:0:
430,222,59199,1,0,0:0:0:0:
398,264,59278,1,8,0:0:0:0:
359,298,59356,1,0,0:0:0:0:
308,311,59435,1,0,0:0:0:0:
256,318,59514,1,0,0:0:0:0:
204,317,59592,6,0,P|179:312|162:286,3,47.5,2|0|0|0,0:0|0:0|0:0|0:0,0:0:0:0:
133,205,59906,2,0,P|131:167|147:150,3,47.5,8|0|0|0,0:0|0:0|0:0|0:0,0:0:0:0:
163,69,60220,5,0,0:0:0:0:
213,42,60299,1,0,0:0:0:0:
269,39,60377,1,0,0:0:0:0:
321,62,60456,1,0,0:0:0:0:
347,111,60534,1,8,0:0:0:0:
341,168,60613,1,0,0:0:0:0:
310,216,60692,1,0,0:0:0:0:
262,247,60770,1,0,0:0:0:0:
211,274,60849,6,0,P|187:283|167:279,3,47.5,2|0|0|0,0:0|0:0|0:0|0:0,0:0:0:0:
400,287,61163,2,0,P|418:275|428:248,3,47.5,10|0|0|0,0:0|0:0|0:0|0:0,0:0:0:0:
435,190,61477,5,0,0:0:0:0:
411,148,61555,1,0,0:0:0:0:
371,120,61634,1,0,0:0:0:0:
325,106,61713,1,0,0:0:0:0:
282,84,61791,1,8,0:0:0:0:
239,65,61870,1,0,0:0:0:0:
191,68,61948,1,0,0:0:0:0:
147,88,62027,1,0,0:0:0:0:
124,129,62105,6,0,P|131:168|186:212,1,95,6|0,0:0|0:0,0:0:0:0:
144,354,62419,2,0,P|90:311|81:269,1,95,10|0,0:0|0:0,0:0:0:0:
79,98,62733,5,0,0:0:0:0:
57,151,62812,1,0,0:0:0:0:
44,207,62891,1,0,0:0:0:0:
44,263,62969,1,0,0:0:0:0:
67,315,63048,1,8,0:0:0:0:
120,332,63126,1,0,0:0:0:0:
176,322,63205,1,0,0:0:0:0:
229,302,63283,1,0,0:0:0:0:
277,271,63362,6,0,P|315:242|322:231,3,47.5,2|0|0|0,0:0|0:0|0:0|0:0,0:0:0:0:
319,147,63676,2,0,P|346:154|373:169,3,47.5,10|0|0|0,0:0|0:0|0:0|0:0,0:0:0:0:
412,182,63990,5,0,0:0:0:0:
462,166,64069,1,0,0:0:0:0:
479,117,64147,1,0,0:0:0:0:
469,65,64226,1,0,0:0:0:0:
426,34,64304,1,8,0:0:0:0:
373,31,64383,1,0,0:0:0:0:
323,47,64461,1,0,0:0:0:0:
274,66,64540,1,0,0:0:0:0:
240,105,64618,6,0,P|224:126|198:144,3,47.5,2|0|0|0,0:0|0:0|0:0|0:0,0:0:0:0:
250,223,64932,2,0,P|283:238|294:255,3,47.5,8|0|0|0,0:0|0:0|0:0|0:0,0:0:0:0:
317,285,65247,5,0,0:0:0:0:
316,332,65325,1,0,0:0:0:0:
276,358,65404,1,0,0:0:0:0:
228,354,65482,1,0,0:0:0:0:
187,328,65561,1,8,0:0:0:0:
155,292,65639,1,0,0:0:0:0:
131,250,65718,1,0,0:0:0:0:
130,202,65796,1,0,0:0:0:0:
142,155,65875,6,0,P|159:109|168:97,3,47.5,2|0|0|0,0:0|0:0|0:0|0:0,0:0:0:0:
234,127,66189,2,0,P|256:104|266:82,3,47.5,10|0|0|0,0:0|0:0|0:0|0:0,0:0:0:0:
321,75,66503,5,0,0:0:0:0:
321,75,66582,1,0,0:0:0:0:
321,75,66660,1,0,0:0:0:0:
321,75,66739,1,0,0:0:0:0:
321,75,66817,2,0,P|359:128|375:166,1,95,8|0,0:0|0:0,0:0:0:0:
381,303,67131,6,0,B|330:318|330:318|278:244,1,142.500005435944,6|0,0:0|0:0,0:0:0:0:
350,168,67445,2,0,B|310:136|310:136|222:186,1,142.500005435944,10|0,0:0|0:0,0:0:0:0:
133,286,67760,6,0,L|116:224,1,47.5,2|0,0:0|0:0,0:0:0:0:
48,177,67917,2,0,L|109:160,1,47.5,2|0,0:0|0:0,0:0:0:0:
187,177,68074,2,0,L|170:115,1,47.5,8|0,0:0|0:0,0:0:0:0:
92,84,68231,2,0,L|153:67,1,47.5,2|0,0:0|0:0,0:0:0:0:
231,51,68388,6,0,B|286:57|286:57|311:147,1,142.500005435944,2|0,0:0|0:0,0:0:0:0:
306,247,68702,2,0,B|250:224|250:224|233:132,1,142.500005435944,10|0,0:0|0:0,0:0:0:0:
386,113,69016,6,0,L|402:175,1,47.5,2|0,0:0|0:0,0:0:0:0:
473,217,69173,2,0,L|411:233,1,47.5,2|0,0:0|0:0,0:0:0:0:
333,209,69330,2,0,L|349:271,1,47.5,10|0,0:0|0:0,0:0:0:0:
398,334,69487,2,0,L|336:351,1,47.5,2|0,0:0|0:0,0:0:0:0:
244,340,69644,6,0,B|190:292|190:292|215:199,1,142.500005435944,2|0,0:0|0:0,0:0:0:0:
319,254,69959,2,0,B|335:192|335:192|290:113,1,142.500005435944,10|0,0:0|0:0,0:0:0:0:
157,92,70273,6,0,L|115:115,1,47.5,2|0,0:0|0:0,0:0:0:0:
33,163,70430,2,0,L|56:204,1,47.5,2|0,0:0|0:0,0:0:0:0:
104,287,70587,2,0,L|159:255,1,47.5,10|0,0:0|0:0,0:0:0:0:
229,215,70744,2,0,L|196:159,1,47.5,2|0,0:0|0:0,0:0:0:0:
221,79,70901,5,6,0:0:0:0:
221,79,71215,2,0,P|276:94|318:118,1,95,10|0,0:0|0:0,0:0:0:0:
386,167,71529,5,2,0:0:0:0:
416,204,71608,1,0,0:0:0:0:
431,248,71686,1,2,0:0:0:0:
416,293,71765,1,0,0:0:0:0:
372,311,71843,2,0,P|311:309|264:281,1,95,10|0,0:0|0:0,0:0:0:0:
194,253,72158,6,0,P|146:226|93:215,1,95,14|0,0:0|0:0,0:0:0:0:
102,121,72472,2,0,P|165:125|210:104,1,95
272,60,72786,1,0,0:0:0:0:
329,190,72943,1,0,0:0:0:0:
406,70,73100,2,0,P|444:114|456:162,1,95,14|0,0:0|0:0,0:0:0:0:
422,287,73414,5,0,0:0:0:0:
282,316,73571,1,0,0:0:0:0:
147,268,73728,1,8,0:0:0:0:
90,137,73885,1,0,0:0:0:0:
208,58,74042,5,2,0:0:0:0:
248,82,74121,1,0,0:0:0:0:
277,119,74199,1,2,0:0:0:0:
322,133,74278,1,0,0:0:0:0:
369,136,74356,1,2,0:0:0:0:
415,126,74435,1,0,0:0:0:0:
460,140,74514,1,2,0:0:0:0:
487,178,74592,1,0,0:0:0:0:
493,225,74671,6,0,L|500:292,3,47.5,4|0|0|0,0:0|0:0|0:0|0:0,0:0:0:0:
402,276,74985,2,0,L|407:346,3,47.5,0|0|0|0,0:0|0:0|0:0|0:0,0:0:0:0:
314,293,75299,2,0,L|308:348,3,47.5,4|0|0|0,0:0|0:0|0:0|0:0,0:0:0:0:
230,285,75613,2,0,L|207:337,3,47.5
137,267,75927,6,0,B|150:204|118:178|118:178|139:124,1,142.5,4|0,0:0|0:0,0:0:0:0:
162,94,76241,2,0,B|200:124|250:95|250:95|305:139,1,142.5,4|0,0:0|0:0,0:0:0:0:
317,162,76555,2,0,B|291:201|314:253|314:253|262:271,1,142.5,4|0,0:0|0:0,0:0:0:0:
221,275,76870,2,0,B|185:235|139:235|139:235|131:174,1,142.5,4|0,0:0|0:0,0:0:0:0:
145,107,77184,5,2,0:0:0:0:
277,53,77341,2,0,P|293:101|333:133,1,95,2|2,0:0|0:0,0:0:0:0:
365,155,77576,1,0,0:0:0:0:
399,188,77655,1,2,0:0:0:0:
409,234,77733,1,0,0:0:0:0:
396,280,77812,2,0,P|362:319|307:347,3,95,2|0|2|0,0:0|0:0|0:0|0:0,0:0:0:0:
145,281,78440,6,0,L|87:255,3,47.5,2|0|2|0,0:0|0:0|0:0|0:0,0:0:0:0:
139,174,78754,2,0,L|197:198,3,47.5,2|0|2|0,0:0|0:0|0:0|0:0,0:0:0:0:
169,100,79068,2,0,P|212:79|268:72,1,95,2|2,0:0|0:0,0:0:0:0:
361,233,79383,1,2,0:0:0:0:
361,233,79697,6,0,P|317:246|286:268,3,71.2500027179719,6|0|0|0,0:0|0:0|0:0|0:0,0:0:0:0:
153,278,80011,2,0,P|191:258|215:233,3,71.2500027179719,10|0|0|0,0:0|0:0|0:0|0:0,0:0:0:0:
245,192,80325,5,2,0:0:0:0:
258,136,80404,1,0,0:0:0:0:
236,83,80482,1,2,0:0:0:0:
182,62,80561,1,0,0:0:0:0:
126,72,80639,1,10,0:0:0:0:
80,106,80718,1,0,0:0:0:0:
62,159,80796,1,2,0:0:0:0:
58,216,80875,1,0,0:0:0:0:
75,269,80953,6,0,P|112:283|152:289,3,71.2500027179719,2|0|0|0,0:0|0:0|0:0|0:0,0:0:0:0:
287,291,81267,2,0,P|241:288|200:270,3,71.2500027179719,10|0|0|0,0:0|0:0|0:0|0:0,0:0:0:0:
173,242,81582,5,2,0:0:0:0:
168,185,81660,1,0,0:0:0:0:
196,135,81739,1,2,0:0:0:0:
245,107,81817,1,0,0:0:0:0:
300,120,81896,1,10,0:0:0:0:
342,157,81974,1,0,0:0:0:0:
376,202,82053,1,2,0:0:0:0:
377,258,82131,1,0,0:0:0:0:
353,304,82210,6,0,P|319:328|279:338,3,71.2500027179719,2|0|0|0,0:0|0:0|0:0|0:0,0:0:0:0:
292,193,82524,2,0,P|254:204|219:229,3,71.2500027179719,10|0|0|0,0:0|0:0|0:0|0:0,0:0:0:0:
183,257,82838,5,2,0:0:0:0:
132,283,82917,1,0,0:0:0:0:
75,276,82995,1,2,0:0:0:0:
33,236,83074,1,0,0:0:0:0:
29,179,83152,1,10,0:0:0:0:
40,122,83231,1,0,0:0:0:0:
78,80,83309,1,2,0:0:0:0:
128,52,83388,1,0,0:0:0:0:
183,41,83466,6,0,P|226:32|268:31,3,71.2500027179719,2|0|0|0,0:0|0:0|0:0|0:0,0:0:0:0:
385,89,83781,2,0,P|339:98|301:99,3,71.2500027179719,10|0|0|0,0:0|0:0|0:0|0:0,0:0:0:0:
257,106,84095,5,2,0:0:0:0:
203,123,84173,1,0,0:0:0:0:
170,170,84252,1,2,0:0:0:0:
163,226,84330,1,0,0:0:0:0:
164,283,84409,1,10,0:0:0:0:
202,324,84487,1,0,0:0:0:0:
257,339,84566,1,2,0:0:0:0:
311,322,84644,1,0,0:0:0:0:
356,292,84723,6,0,P|390:261|411:230,3,71.2500027179719,6|0|0|0,0:0|0:0|0:0|0:0,0:0:0:0:
373,100,85037,2,0,P|350:136|310:169,3,71.2500027179719,10|0|0|0,0:0|0:0|0:0|0:0,0:0:0:0:
279,182,85351,5,2,0:0:0:0:
223,197,85430,1,0,0:0:0:0:
166,195,85508,1,2,0:0:0:0:
115,168,85587,1,0,0:0:0:0:
77,125,85665,1,10,0:0:0:0:
72,67,85744,1,0,0:0:0:0:
109,24,85822,1,2,0:0:0:0:
163,5,85901,1,0,0:0:0:0:
220,1,85980,6,0,P|271:1|305:8,3,71.2500027179719,2|0|0|0,0:0|0:0|0:0|0:0,0:0:0:0:
286,147,86294,2,0,P|318:143|361:144,3,71.2500027179719,10|0|0|0,0:0|0:0|0:0|0:0,0:0:0:0:
460,173,86608,6,0,L|435:265,1,71.2500027179719,2|0,0:0|0:0,0:0:0:0:
413,344,86765,2,0,L|320:319,1,71.2500027179719,2|0,0:0|0:0,0:0:0:0:
241,298,86922,2,0,L|265:205,1,71.2500027179719,10|0,0:0|0:0,0:0:0:0:
287,125,87079,2,0,L|379:149,1,71.2500027179719,2|0,0:0|0:0,0:0:0:0:
431,180,87236,5,10,0:0:0:0:
418,213,87315,1,8,0:0:0:0:
404,245,87393,2,8,L|341:281,1,71.2500027179719
334,159,87550,5,10,0:0:0:0:
320,127,87629,1,8,0:0:0:0:
307,95,87707,2,8,L|245:59,1,71.2500027179719
258,181,87864,5,10,0:0:0:0:
244,213,87943,1,8,0:0:0:0:
231,245,88021,2,8,L|167:281,1,71.2500027179719
47,320,88178,5,10,0:0:0:0:
74,298,88257,1,8,0:0:0:0:
101,276,88335,2,8,L|117:205,1,71.2500027179719
119,146,88493,6,0,P|146:77|208:55,1,142.500005435944,2|2,0:0|0:0,0:0:0:0:
348,68,88807,2,0,L|385:97,7,35.625001358986,0|0|0|0|0|0|0|0,0:0|0:0|0:0|0:0|0:0|0:0|0:0|0:0,0:0:0:0:
452,251,89278,1,2,0:0:0:0:
337,335,89435,2,0,B|249:355|249:355|214:340|176:342,1,142.500005435944,2|0,0:0|0:0,0:0:0:0:
117,292,89749,6,0,P|94:231|97:191,1,95,4|0,0:0|0:0,0:0:0:0:
122,111,90063,1,8,0:0:0:0:
214,87,90220,2,0,B|258:113|183:182|183:182|185:228|236:257,1,190
307,270,90692,1,8,0:0:0:0:
399,247,90849,1,0,0:0:0:0:
441,141,91006,5,0,0:0:0:0:
338,41,91163,1,0,0:0:0:0:
282,172,91320,1,8,0:0:0:0:
364,287,91477,1,0,0:0:0:0:
225,321,91634,1,0,0:0:0:0:
124,219,91791,1,0,0:0:0:0:
176,86,91948,1,8,0:0:0:0:
308,33,92105,1,0,0:0:0:0:
419,154,92262,5,0,0:0:0:0:
362,230,92419,1,0,0:0:0:0:
271,260,92576,1,8,0:0:0:0:
176,271,92733,2,0,P|121:174|179:151,1,190
211,153,93126,1,0,0:0:0:0:
255,170,93205,2,0,P|294:191|348:192,1,95,8|0,0:0|0:0,0:0:0:0:
442,150,93519,5,2,0:0:0:0:
466,241,93676,1,2,0:0:0:0:
350,175,93833,1,10,0:0:0:0:
380,284,93990,1,2,0:0:0:0:
259,199,94147,1,2,0:0:0:0:
293,327,94304,1,2,0:0:0:0:
167,224,94461,1,10,0:0:0:0:
206,370,94618,1,2,0:0:0:0:
63,370,94775,6,0,P|27:306|22:283,1,95,4|0,0:0|0:0,0:0:0:0:
47,145,95089,1,8,0:0:0:0:
153,49,95247,2,0,P|214:37|249:39,2,95
47,145,95718,2,0,P|25:216|42:264,1,95,8|0,0:0|0:0,0:0:0:0:
167,266,96032,6,0,P|198:224|194:172,1,95
170,91,96346,1,8,0:0:0:0:
312,91,96503,1,0,0:0:0:0:
292,177,96660,2,0,P|289:226|324:269,1,95
394,312,96974,2,0,P|446:280|466:241,1,95,8|0,0:0|0:0,0:0:0:0:
463,109,97288,6,0,L|421:140,4,47.5,2|0|0|0|8,0:0|0:0|0:0|0:0|0:0,0:0:0:0:
328,58,97760,1,2,0:0:0:0:
197,115,97917,2,0,L|221:161,4,47.5,2|0|2|0|8,0:0|0:0|0:0|0:0|0:0,0:0:0:0:
117,233,98388,5,2,0:0:0:0:
194,352,98545,1,2,0:0:0:0:
373,289,98702,1,0,0:0:0:0:
205,199,98859,2,0,B|218:170|218:170|238:186|238:186|240:159|240:159|266:151,1,95,2|0,0:0|0:0,0:0:0:0:
383,206,99173,2,0,P|429:190|463:194,3,71.2500027179719,2|0|2|0,0:0|0:0|0:0|0:0,0:0:0:0:
441,120,99802,6,0,P|405:87|357:72,1,95,6|0,0:0|0:0,0:0:0:0:
409,175,100273,1,0,0:0:0:0:
326,127,100430,1,0,0:0:0:0:
377,231,100587,1,0,0:0:0:0:
294,183,100744,1,2,0:0:0:0:
345,286,100901,2,0,P|299:265|261:238,2,95
159,329,101844,5,0,0:0:0:0:
135,236,102001,1,0,0:0:0:0:
110,144,102158,1,0,0:0:0:0:
200,115,102315,6,0,P|203:170|224:207,1,95,2|0,0:0|0:0,0:0:0:0:
262,99,102786,1,0,0:0:0:0:
287,191,102943,1,0,0:0:0:0:
324,82,103100,1,0,0:0:0:0:
349,175,103258,1,2,0:0:0:0:
386,66,103414,1,0,0:0:0:0:
512,198,103729,1,0,0:0:0:0:
383,332,104043,1,0,0:0:0:0:
64,256,104357,5,0,0:0:0:0:
154,283,104514,1,0,0:0:0:0:
128,192,104671,1,0,0:0:0:0:
221,176,104828,6,0,P|237:219|269:259,1,95,2|0,0:0|0:0,0:0:0:0:
277,144,105299,1,0,0:0:0:0:
325,227,105456,1,0,0:0:0:0:
332,112,105614,1,0,0:0:0:0:
380,195,105771,1,2,0:0:0:0:
387,80,105928,2,0,P|369:33|339:-3,2,95
222,174,106870,5,0,0:0:0:0:
154,106,107027,1,0,0:0:0:0:
86,38,107184,1,0,0:0:0:0:
36,118,107341,6,0,P|25:167|36:214,1,95,2|0,0:0|0:0,0:0:0:0:
87,288,107812,1,0,0:0:0:0:
180,308,107970,1,0,0:0:0:0:
270,278,108127,1,0,0:0:0:0:
325,201,108284,1,2,0:0:0:0:
323,106,108441,1,0,0:0:0:0:
144,41,108755,5,0,0:0:0:0:
205,220,109069,1,0,0:0:0:0:
398,299,109383,5,0,0:0:0:0:
421,257,109540,1,0,0:0:0:0:
445,216,109697,1,0,0:0:0:0:
468,174,109854,1,2,0:0:0:0:
352,96,110169,5,2,0:0:0:0:
318,129,110326,1,2,0:0:0:0:
318,176,110483,1,2,0:0:0:0:
284,209,110640,1,2,0:0:0:0:
284,256,110797,1,2,0:0:0:0:
250,289,110954,1,2,0:0:0:0:
71,92,111268,5,2,0:0:0:0:
400,329,111582,1,6,0:0:0:0:
