osu file format v14

[General]
AudioFilename: 1-10 Critical Crystal.mp3
AudioLeadIn: 0
PreviewTime: 79682
Countdown: 0
SampleSet: Normal
StackLeniency: 0.7
Mode: 1
LetterboxInBreaks: 0
WidescreenStoryboard: 0

[Editor]
DistanceSpacing: 1.5
BeatDivisor: 2
GridSize: 32
TimelineZoom: 1.6

[Metadata]
Title:Critical Crystal
TitleUnicode:Critical Crystal
Artist:Seiryu
ArtistUnicode:青龍
Creator:Sayaka-
Version:Beginner
Source:beatmania IIDX
Tags:21 SPADA Blue Dragon DANCE SPEED dialgadu77
BeatmapID:731230
BeatmapSetID:138311

[Difficulty]
HPDrainRate:4
CircleSize:4
OverallDifficulty:4
ApproachRate:4
SliderMultiplier:1.4
SliderTickRate:1

[Events]
//Background and Video events
0,0,"bg.jpg",0,110
//Break Periods
//Storyboard Layer 0 (Background)
//Storyboard Layer 1 (Fail)
//Storyboard Layer 2 (Pass)
//Storyboard Layer 3 (Foreground)
//Storyboard Sound Samples

[TimingPoints]
520,314.13612565445,4,1,0,100,1,0
79682,-100,4,1,0,100,0,1
88478,-100,4,1,0,100,0,0
89734,-100,4,1,0,100,0,1
99787,-100,4,1,0,100,0,0

[HitObjects]
256,192,520,5,4,0:0:0:0:
256,192,1776,1,0,0:0:0:0:
256,192,2404,1,8,0:0:0:0:
256,192,3033,1,4,0:0:0:0:
256,192,4289,1,0,0:0:0:0:
256,192,4917,1,8,0:0:0:0:
256,192,5546,1,0,0:0:0:0:
256,192,6802,1,0,0:0:0:0:
256,192,7430,1,8,0:0:0:0:
256,192,8059,1,4,0:0:0:0:
256,192,9315,1,0,0:0:0:0:
256,192,9944,1,8,0:0:0:0:
256,192,10258,1,8,0:0:0:0:
256,192,10572,1,0,0:0:0:0:
256,192,11200,1,8,0:0:0:0:
256,192,11828,1,0,0:0:0:0:
256,192,13085,1,4,0:0:0:0:
256,192,14341,1,0,0:0:0:0:
256,192,15598,1,8,0:0:0:0:
256,192,16855,1,8,0:0:0:0:
256,192,18111,1,4,0:0:0:0:
256,192,19368,1,8,0:0:0:0:
256,192,20624,1,8,0:0:0:0:
256,192,21881,1,0,0:0:0:0:
256,192,23137,1,4,0:0:0:0:
256,192,23766,1,8,0:0:0:0:
256,192,25022,1,8,0:0:0:0:
256,192,25650,1,0,0:0:0:0:
256,192,26279,1,8,0:0:0:0:
256,192,26907,1,0,0:0:0:0:
256,192,28163,1,4,0:0:0:0:
256,192,28792,1,8,0:0:0:0:
256,192,30048,1,8,0:0:0:0:
256,192,30677,1,0,0:0:0:0:
256,192,31305,1,8,0:0:0:0:
256,192,31933,1,0,0:0:0:0:
256,192,33190,1,12,0:0:0:0:
256,192,33818,1,0,0:0:0:0:
256,192,35074,1,0,0:0:0:0:
256,192,35703,1,8,0:0:0:0:
256,192,36331,1,0,0:0:0:0:
256,192,37588,1,8,0:0:0:0:
256,192,38216,1,12,0:0:0:0:
256,192,39472,1,12,0:0:0:0:
256,192,40101,1,0,0:0:0:0:
256,192,40729,1,12,0:0:0:0:
256,192,41357,1,8,0:0:0:0:
256,192,41985,1,0,0:0:0:0:
256,192,43242,1,4,0:0:0:0:
256,192,45755,5,8,0:0:0:0:
256,192,48268,1,8,0:0:0:0:
256,192,50781,1,8,0:0:0:0:
256,192,53294,1,8,0:0:0:0:
256,192,54394,1,8,0:0:0:0:
256,192,55022,12,0,56436,0:0:0:0:
256,192,57064,5,4,0:0:0:0:
256,192,57692,1,8,0:0:0:0:
256,192,58321,1,0,0:0:0:0:
256,192,59577,1,8,0:0:0:0:
256,192,60205,1,0,0:0:0:0:
256,192,60834,1,8,0:0:0:0:
256,192,62090,1,4,0:0:0:0:
256,192,62718,1,0,0:0:0:0:
256,192,63347,1,8,0:0:0:0:
256,192,64603,1,8,0:0:0:0:
256,192,65232,1,8,0:0:0:0:
256,192,65860,1,0,0:0:0:0:
256,192,67116,1,8,0:0:0:0:
256,192,67745,1,0,0:0:0:0:
256,192,68373,1,8,0:0:0:0:
256,192,69629,1,0,0:0:0:0:
256,192,70258,1,8,0:0:0:0:
256,192,70886,1,0,0:0:0:0:
256,192,72143,1,8,0:0:0:0:
256,192,72771,1,8,0:0:0:0:
256,192,73399,1,8,0:0:0:0:
256,192,74656,1,0,0:0:0:0:
256,192,75284,1,0,0:0:0:0:
256,192,75912,1,0,0:0:0:0:
256,192,76540,1,8,0:0:0:0:
256,192,77169,1,4,0:0:0:0:
256,192,78425,1,0,0:0:0:0:
256,192,79054,1,8,0:0:0:0:
256,192,79682,1,4,0:0:0:0:
256,192,80938,1,0,0:0:0:0:
256,192,81567,1,8,0:0:0:0:
256,192,82195,1,0,0:0:0:0:
256,192,83451,1,8,0:0:0:0:
256,192,84080,1,0,0:0:0:0:
256,192,84708,1,12,0:0:0:0:
256,192,85965,1,0,0:0:0:0:
256,192,86593,1,0,0:0:0:0:
256,192,87221,1,8,0:0:0:0:
256,192,87849,1,8,0:0:0:0:
256,192,88478,1,0,0:0:0:0:
256,192,89734,1,4,0:0:0:0:
256,192,90362,1,8,0:0:0:0:
256,192,91619,1,8,0:0:0:0:
256,192,92247,1,0,0:0:0:0:
256,192,92876,1,8,0:0:0:0:
256,192,94132,1,8,0:0:0:0:
256,192,94760,1,4,0:0:0:0:
256,192,96017,1,8,0:0:0:0:
256,192,97274,1,0,0:0:0:0:
256,192,97902,1,8,0:0:0:0:
256,192,98530,1,0,0:0:0:0:
256,192,99158,1,8,0:0:0:0:
256,192,99787,1,12,0:0:0:0:
256,192,102300,1,8,0:0:0:0:
256,192,104813,1,8,0:0:0:0:
256,192,107326,1,8,0:0:0:0:
256,192,109839,1,8,0:0:0:0:
256,192,110938,1,8,0:0:0:0:
256,192,111567,1,8,0:0:0:0:
