osu file format v14

[General]
AudioFilename: Critical Crystal.mp3
AudioLeadIn: 0
PreviewTime: 79678
Countdown: 0
SampleSet: Soft
StackLeniency: 0.7
Mode: 3
LetterboxInBreaks: 0
SpecialStyle: 0
WidescreenStoryboard: 0

[Editor]
Bookmarks: 27060,67819
DistanceSpacing: 2
BeatDivisor: 4
GridSize: 4
TimelineZoom: 0.1

[Metadata]
Title:Critical Crystal
TitleUnicode:Critical Crystal
Artist:Seiryu
ArtistUnicode:青龍
Creator:SanadaYukimura
Version:Hyper
Source:beatmania IIDX
Tags:21 SPADA Blue Dragon DANCE SPEED Rizqy
BeatmapID:824273
BeatmapSetID:376340

[Difficulty]
HPDrainRate:7.5
CircleSize:4
OverallDifficulty:7.5
ApproachRate:5
SliderMultiplier:1.4
SliderTickRate:1

[Events]
//Background and Video events
0,0,"Seiryu.jpg",0,0
//Break Periods
//Storyboard Layer 0 (Background)
//Storyboard Layer 1 (Fail)
//Storyboard Layer 2 (Pass)
//Storyboard Layer 3 (Foreground)
//Storyboard Sound Samples
Sample,1615,0,"kick.wav",60
Sample,1772,0,"kick.wav",60
Sample,2086,0,"drum.wav",65
Sample,2400,0,"kick.wav",60
Sample,2636,0,"drum.wav",65
Sample,2872,0,"drum.wav",65
Sample,3029,0,"crash-cymbol.wav",65
Sample,3186,0,"hihat.wav",45
Sample,3500,0,"hihat.wav",45
Sample,4442,0,"hihat.wav",45
Sample,4756,0,"hihat.wav",45
Sample,5228,0,"snare.wav",60
Sample,5306,0,"kick.wav",60
Sample,5385,0,"kick.wav",60
Sample,5463,0,"kick.wav",60
Sample,6013,0,"bassdrum.wav",45
Sample,6091,0,"bassdrum.wav",45
Sample,7112,0,"drum.wav",65
Sample,7348,0,"drum.wav",65
Sample,8212,0,"hihat.wav",45
Sample,8526,0,"hihat.wav",45
Sample,9468,0,"hihat.wav",45
Sample,9783,0,"hihat.wav",45
Sample,10254,0,"kick.wav",60
Sample,10332,0,"bassdrum.wav",45
Sample,10411,0,"bassdrum.wav",45
Sample,10489,0,"bassdrum.wav",45
Sample,11078,0,"drum.wav",65
Sample,11118,0,"drum.wav",65
Sample,11157,0,"drum.wav",65
Sample,11824,0,"drum.wav",65
Sample,11981,0,"drum.wav",65
Sample,12139,0,"drum.wav",65
Sample,12296,0,"drum.wav",65
Sample,12453,0,"drum.wav",65
Sample,13238,0,"hihat.wav",45
Sample,13552,0,"hihat.wav",45
Sample,13866,0,"hihat.wav",45
Sample,14180,0,"hihat.wav",45
Sample,14495,0,"hihat.wav",45
Sample,14809,0,"hihat.wav",45
Sample,15123,0,"hihat.wav",45
Sample,15437,0,"hihat.wav",45
Sample,15751,0,"hihat.wav",45
Sample,16065,0,"hihat.wav",45
Sample,16379,0,"hihat.wav",45
Sample,16694,0,"hihat.wav",45
Sample,17008,0,"hihat.wav",45
Sample,17322,0,"hihat.wav",45
Sample,17636,0,"hihat.wav",45
Sample,17950,0,"hihat.wav",45
Sample,18264,0,"kick.wav",60
Sample,18578,0,"kick.wav",60
Sample,18892,0,"kick.wav",60
Sample,19207,0,"kick.wav",60
Sample,19521,0,"kick.wav",60
Sample,19835,0,"hihat.wav",45
Sample,20149,0,"hihat.wav",45
Sample,20463,0,"hihat.wav",45
Sample,21955,0,"drum.wav",65
Sample,22112,0,"drum.wav",65
Sample,22269,0,"drum.wav",65
Sample,22426,0,"drum.wav",65
Sample,32243,0,"drum.wav",65
Sample,32322,0,"drum.wav",65
Sample,32479,0,"drum.wav",65
Sample,32557,0,"snare.wav",60
Sample,33814,0,"kick.wav",60
Sample,34442,0,"kick.wav",60
Sample,36327,0,"kick.wav",60
Sample,36955,0,"kick.wav",60
Sample,37623,0,"drum.wav",65
Sample,37662,0,"drum.wav",65
Sample,37701,0,"drum.wav",65
Sample,38840,0,"kick.wav",60
Sample,40882,0,"drum.wav",65
Sample,40961,0,"drum.wav",65
Sample,41118,0,"drum.wav",65
Sample,41196,0,"kick.wav",60
Sample,41275,0,"drum.wav",65
Sample,41353,0,"snare.wav",60
Sample,41510,0,"kick.wav",60
Sample,41589,0,"drum.wav",65
Sample,41824,0,"snare.wav",60
Sample,41903,0,"drum.wav",65
Sample,41981,0,"kick.wav",60
Sample,41981,0,"drum.wav",65
Sample,42139,0,"snare.wav",60
Sample,42217,0,"drum.wav",65
Sample,42296,0,"kick.wav",60
Sample,42296,0,"drum.wav",65
Sample,42453,0,"snare.wav",60
Sample,42531,0,"drum.wav",65
Sample,42610,0,"kick.wav",60
Sample,42610,0,"drum.wav",65
Sample,42767,0,"snare.wav",60
Sample,42845,0,"drum.wav",65
Sample,42924,0,"kick.wav",60
Sample,42924,0,"drum.wav",65
Sample,43081,0,"snare.wav",60
Sample,43159,0,"drum.wav",65
Sample,43238,0,"kick.wav",60
Sample,57060,0,"drum.wav",30
Sample,67112,0,"snare.wav",55
Sample,67741,0,"drum.wav",65
Sample,68212,0,"snare.wav",55
Sample,68997,0,"drum.wav",65
Sample,70254,0,"drum.wav",65
Sample,70725,0,"drum.wav",65
Sample,71903,0,"snare.wav",55
Sample,72060,0,"snare.wav",55
Sample,72139,0,"kick.wav",60
Sample,73081,0,"crash-cymbol.wav",65
Sample,74652,0,"snare.wav",60
Sample,74652,0,"crash-cymbol.wav",65
Sample,74730,0,"snare.wav",60
Sample,74809,0,"kick.wav",60
Sample,74887,0,"kick.wav",60
Sample,74966,0,"snare.wav",60
Sample,75044,0,"snare.wav",60
Sample,75123,0,"kick.wav",60
Sample,75201,0,"kick.wav",60
Sample,75280,0,"kick.wav",60
Sample,75280,0,"crash-cymbol.wav",65
Sample,75358,0,"kick.wav",60
Sample,75437,0,"snare.wav",60
Sample,75515,0,"snare.wav",60
Sample,75594,0,"snare.wav",60
Sample,75673,0,"snare.wav",60
Sample,75751,0,"kick.wav",60
Sample,75830,0,"kick.wav",60
Sample,75908,0,"kick.wav",60
Sample,75908,0,"crash-cymbol.wav",65
Sample,75987,0,"kick.wav",60
Sample,76065,0,"snare.wav",60
Sample,76144,0,"snare.wav",60
Sample,76222,0,"snare.wav",60
Sample,76222,0,"crash-cymbol.wav",65
Sample,76301,0,"snare.wav",60
Sample,76379,0,"kick.wav",60
Sample,76458,0,"kick.wav",60
Sample,76536,0,"kick.wav",60
Sample,76536,0,"crash-cymbol.wav",65
Sample,76615,0,"kick.wav",60
Sample,76694,0,"snare.wav",60
Sample,76772,0,"snare.wav",60
Sample,76851,0,"snare.wav",60
Sample,76851,0,"crash-cymbol.wav",65
Sample,76929,0,"snare.wav",60
Sample,77008,0,"kick.wav",60
Sample,77086,0,"kick.wav",60
Sample,77793,0,"kick.wav",60
Sample,78107,0,"snare.wav",60
Sample,78264,0,"snare.wav",60
Sample,78421,0,"drum.wav",65
Sample,78421,0,"kick.wav",60
Sample,79364,0,"drum.wav",65
Sample,79521,0,"drum.wav",65
Sample,87217,0,"crash-cymbol.wav",65
Sample,87531,0,"crash-cymbol.wav",65
Sample,87845,0,"crash-cymbol.wav",65
Sample,88159,0,"crash-cymbol.wav",65
Sample,88474,0,"bassdrum.wav",45
Sample,88474,0,"kick.wav",60
Sample,88631,0,"kick.wav",60
Sample,89102,0,"kick.wav",60
Sample,89259,0,"kick.wav",60
Sample,89495,0,"bassdrum.wav",45
Sample,90044,0,"kick.wav",60
Sample,90673,0,"snare.wav",60
Sample,91301,0,"snare.wav",60
Sample,91929,0,"kick.wav",60
Sample,92557,0,"kick.wav",60
Sample,93186,0,"snare.wav",60
Sample,93814,0,"snare.wav",60
Sample,94442,0,"kick.wav",60
Sample,94756,0,"kick.wav",60
Sample,97269,0,"drum.wav",65
Sample,97426,0,"drum.wav",65
Sample,97584,0,"drum.wav",65
Sample,97741,0,"drum.wav",65
Sample,97898,0,"drum.wav",65
Sample,98055,0,"drum.wav",65
Sample,98212,0,"drum.wav",65
Sample,98369,0,"drum.wav",65
Sample,98919,0,"drum.wav",65
Sample,99154,0,"kick.wav",65
Sample,99311,0,"kick.wav",65
Sample,99468,0,"kick.wav",65
Sample,99625,0,"kick.wav",65

[TimingPoints]
516,314.13612565445,4,2,1,30,1,0
79678,-100,4,2,1,30,0,1
89730,-100,4,2,1,30,0,0

[HitObjects]
448,192,516,5,0,0:0:0:60:kick.wav
320,192,516,1,0,0:0:0:0:
448,192,673,1,0,0:0:0:60:kick.wav
320,192,673,1,0,0:0:0:60:snare.wav
64,192,830,1,0,0:0:0:65:drum.wav
192,192,908,1,0,0:0:0:65:drum.wav
448,192,987,1,0,0:0:0:65:drum.wav
320,192,1065,1,0,0:0:0:65:drum.wav
192,192,1144,1,0,0:0:0:65:drum.wav
64,192,1144,1,0,0:0:0:65:crash-cymbol.wav
320,192,1301,1,0,0:0:0:65:drum.wav
192,192,1379,1,0,0:0:0:65:drum.wav
448,192,1458,1,0,0:0:0:65:drum.wav
64,192,1458,1,0,0:0:0:60:kick.wav
64,192,1615,1,0,0:0:0:65:drum.wav
448,192,1772,1,0,0:0:0:65:drum.wav
192,192,1851,1,0,0:0:0:65:drum.wav
320,192,1929,1,0,0:0:0:65:drum.wav
64,192,2008,1,0,0:0:0:65:drum.wav
448,192,2086,1,0,0:0:0:60:kick.wav
192,192,2165,1,0,0:0:0:65:drum.wav
320,192,2243,1,0,0:0:0:65:drum.wav
64,192,2322,1,0,0:0:0:65:drum.wav
448,192,2400,1,0,0:0:0:65:drum.wav
192,192,2557,1,0,0:0:0:65:drum.wav
448,192,2714,1,0,0:0:0:65:drum.wav
64,192,2714,128,0,3029:0:0:0:60:kick.wav
320,192,2872,1,0,0:0:0:60:kick.wav
192,192,3029,1,0,0:0:0:60:kick.wav
448,192,3029,1,0,0:0:0:65:drum.wav
320,192,3343,1,0,0:0:0:60:kick.wav
64,192,3343,1,0,0:0:0:60:snare.wav
64,192,3657,1,0,0:0:0:60:kick.wav
448,192,3657,1,0,0:0:0:0:
320,192,3814,1,0,0:0:0:45:hihat.wav
192,192,3971,1,0,0:0:0:60:kick.wav
64,192,3971,1,0,0:0:0:60:snare.wav
320,192,4128,1,0,0:0:0:45:hihat.wav
448,192,4285,1,0,0:0:0:60:kick.wav
64,192,4285,1,0,0:0:0:0:
64,192,4599,1,0,0:0:0:60:kick.wav
320,192,4599,1,0,0:0:0:60:snare.wav
192,192,4913,1,0,0:0:0:60:kick.wav
448,192,4913,1,0,0:0:0:0:
448,192,5070,1,0,0:0:0:60:kick.wav
192,192,5070,1,0,0:0:0:0:
64,192,5228,1,0,0:0:0:60:kick.wav
192,192,5306,1,0,0:0:0:60:snare.wav
320,192,5385,1,0,0:0:0:60:snare.wav
448,192,5463,1,0,0:0:0:60:snare.wav
192,192,5542,1,0,0:0:0:60:kick.wav
64,192,5542,1,0,0:0:0:45:bassdrum.wav
192,192,5699,1,0,0:0:0:60:kick.wav
64,192,5699,1,0,0:0:0:45:bassdrum.wav
320,192,5856,1,0,0:0:0:60:kick.wav
448,192,5856,1,0,0:0:0:45:bassdrum.wav
192,192,6013,1,0,0:0:0:60:kick.wav
320,192,6091,1,0,0:0:0:60:kick.wav
64,192,6170,128,0,6327:0:0:0:0:
448,192,6327,1,0,0:0:0:45:bassdrum.wav
320,192,6484,1,0,0:0:0:60:kick.wav
192,192,6484,1,0,0:0:0:45:bassdrum.wav
448,192,6641,1,0,0:0:0:45:bassdrum.wav
64,192,6798,1,0,0:0:0:60:kick.wav
64,192,6955,1,0,0:0:0:60:kick.wav
320,192,7112,1,0,0:0:0:60:kick.wav
192,192,7269,1,0,0:0:0:65:drum.wav
320,192,7426,1,0,0:0:0:65:drum.wav
448,192,7426,1,0,0:0:0:60:kick.wav
64,192,7584,1,0,0:0:0:65:drum.wav
192,192,7584,1,0,0:0:0:60:kick.wav
64,192,7741,1,0,0:0:0:65:drum.wav
320,192,7741,1,0,0:0:0:60:kick.wav
192,192,7898,1,0,0:0:0:65:drum.wav
448,192,7898,1,0,0:0:0:60:kick.wav
64,192,8055,1,0,0:0:0:65:drum.wav
448,192,8055,1,0,0:0:0:65:crash-cymbol.wav
320,192,8055,1,0,0:0:0:60:kick.wav
320,192,8369,1,0,0:0:0:60:snare.wav
192,192,8369,1,0,0:0:0:60:kick.wav
448,192,8683,1,0,0:0:0:60:kick.wav
64,192,8683,1,0,0:0:0:45:bassdrum.wav
64,192,8840,1,0,0:0:0:60:kick.wav
448,192,8840,1,0,0:0:0:45:bassdrum.wav
448,192,8997,1,0,0:0:0:60:kick.wav
192,192,8997,1,0,0:0:0:45:bassdrum.wav
192,192,9154,1,0,0:0:0:60:kick.wav
448,192,9154,1,0,0:0:0:45:bassdrum.wav
64,192,9311,1,0,0:0:0:60:kick.wav
320,192,9311,1,0,0:0:0:45:bassdrum.wav
192,192,9625,1,0,0:0:0:60:snare.wav
320,192,9625,1,0,0:0:0:60:kick.wav
64,192,9940,1,0,0:0:0:60:kick.wav
448,192,9940,1,0,0:0:0:0:
64,192,10097,1,0,0:0:0:60:kick.wav
320,192,10097,1,0,0:0:0:0:
448,192,10254,1,0,0:0:0:45:bassdrum.wav
320,192,10332,1,0,0:0:0:60:kick.wav
192,192,10411,1,0,0:0:0:60:kick.wav
64,192,10489,1,0,0:0:0:60:kick.wav
320,192,10568,1,0,0:0:0:60:kick.wav
448,192,10568,1,0,0:0:0:0:
64,192,10725,1,0,0:0:0:45:hihat.wav
192,192,10882,1,0,0:0:0:60:snare.wav
320,192,10882,1,0,0:0:0:60:kick.wav
448,192,11039,128,0,11196:0:0:0:65:drum.wav
64,192,11196,1,0,0:0:0:60:kick.wav
192,192,11196,1,0,0:0:0:65:drum.wav
320,192,11353,1,0,0:0:0:45:hihat.wav
64,192,11510,1,0,0:0:0:60:snare.wav
448,192,11510,1,0,0:0:0:60:kick.wav
192,192,11667,1,0,0:0:0:45:hihat.wav
448,192,11824,1,0,0:0:0:60:kick.wav
320,192,11903,1,0,0:0:0:65:drum.wav
192,192,11981,1,0,0:0:0:45:hihat.wav
64,192,12060,1,0,0:0:0:65:drum.wav
448,192,12139,1,0,0:0:0:60:kick.wav
320,192,12217,1,0,0:0:0:65:drum.wav
192,192,12296,1,0,0:0:0:45:hihat.wav
64,192,12374,1,0,0:0:0:65:drum.wav
448,192,12453,1,0,0:0:0:60:kick.wav
192,192,12610,1,0,0:0:0:60:kick.wav
320,192,12767,1,0,0:0:0:60:kick.wav
64,192,12924,1,0,0:0:0:60:kick.wav
192,192,13081,1,0,0:0:0:60:kick.wav
448,192,13081,1,0,0:0:0:65:crash-cymbol.wav
192,192,13395,1,0,0:0:0:60:kick.wav
64,192,13395,1,0,0:0:0:0:
320,192,13709,1,0,0:0:0:60:kick.wav
64,192,13709,1,0,0:0:0:0:
320,192,14023,1,0,0:0:0:60:kick.wav
448,192,14023,1,0,0:0:0:0:
192,192,14337,1,0,0:0:0:60:kick.wav
448,192,14337,1,0,0:0:0:0:
64,192,14652,1,0,0:0:0:60:kick.wav
192,192,14652,1,0,0:0:0:0:
320,192,14966,1,0,0:0:0:60:kick.wav
64,192,14966,1,0,0:0:0:0:
320,192,15280,1,0,0:0:0:60:kick.wav
448,192,15280,1,0,0:0:0:0:
192,192,15594,1,0,0:0:0:60:kick.wav
448,192,15594,1,0,0:0:0:0:
192,192,15908,1,0,0:0:0:60:kick.wav
64,192,15908,1,0,0:0:0:0:
320,192,16222,1,0,0:0:0:60:kick.wav
64,192,16222,1,0,0:0:0:0:
320,192,16536,1,0,0:0:0:60:kick.wav
448,192,16536,1,0,0:0:0:0:
64,192,16851,1,0,0:0:0:60:kick.wav
448,192,16851,1,0,0:0:0:0:
320,192,17165,1,0,0:0:0:60:kick.wav
192,192,17165,1,0,0:0:0:0:
64,192,17479,1,0,0:0:0:60:kick.wav
192,192,17479,1,0,0:0:0:0:
320,192,17793,1,0,0:0:0:60:kick.wav
448,192,17793,1,0,0:0:0:0:
192,192,18107,1,0,0:0:0:65:crash-cymbol.wav
64,192,18107,1,0,0:0:0:60:kick.wav
320,192,18264,1,0,0:0:0:45:hihat.wav
448,192,18421,1,0,0:0:0:60:kick.wav
64,192,18421,1,0,0:0:0:0:
192,192,18578,1,0,0:0:0:45:hihat.wav
64,192,18735,1,0,0:0:0:60:kick.wav
320,192,18735,1,0,0:0:0:0:
448,192,18892,1,0,0:0:0:45:hihat.wav
192,192,19050,1,0,0:0:0:60:kick.wav
64,192,19050,1,0,0:0:0:0:
448,192,19207,1,0,0:0:0:45:hihat.wav
320,192,19364,1,0,0:0:0:60:kick.wav
64,192,19364,1,0,0:0:0:0:
192,192,19521,1,0,0:0:0:45:hihat.wav
64,192,19678,1,0,0:0:0:60:kick.wav
448,192,19678,1,0,0:0:0:0:
320,192,19835,1,0,0:0:0:60:kick.wav
192,192,19992,1,0,0:0:0:60:kick.wav
64,192,19992,1,0,0:0:0:0:
320,192,20149,1,0,0:0:0:60:kick.wav
448,192,20306,1,0,0:0:0:60:kick.wav
64,192,20306,1,0,0:0:0:0:
192,192,20463,1,0,0:0:0:60:kick.wav
64,192,20620,1,0,0:0:0:65:drum.wav
320,192,20620,1,0,0:0:0:0:
448,192,20777,1,0,0:0:0:65:drum.wav
320,192,20856,1,0,0:0:0:65:drum.wav
64,192,20934,1,0,0:0:0:65:drum.wav
192,192,21013,1,0,0:0:0:65:drum.wav
320,192,21091,1,0,0:0:0:65:drum.wav
448,192,21170,1,0,0:0:0:65:drum.wav
192,192,21248,1,0,0:0:0:65:drum.wav
64,192,21248,1,0,0:0:0:0:
320,192,21406,1,0,0:0:0:65:drum.wav
192,192,21563,1,0,0:0:0:65:drum.wav
64,192,21563,1,0,0:0:0:0:
320,192,21720,1,0,0:0:0:65:drum.wav
448,192,21877,1,0,0:0:0:65:drum.wav
64,192,21877,1,0,0:0:0:0:
192,192,22034,1,0,0:0:0:65:drum.wav
320,192,22191,1,0,0:0:0:65:drum.wav
192,192,22348,1,0,0:0:0:65:drum.wav
64,192,22505,1,0,0:0:0:65:drum.wav
448,192,22505,1,0,0:0:0:0:
320,192,22662,1,0,0:0:0:0:
192,192,22819,1,0,0:0:0:65:drum.wav
64,192,22819,1,0,0:0:0:60:snare.wav
192,192,22976,1,0,0:0:0:65:drum.wav
64,192,22976,1,0,0:0:0:60:snare.wav
448,192,23133,1,0,0:0:0:65:crash-cymbol.wav
320,192,23133,1,0,0:0:0:60:kick.wav
192,192,23290,1,0,0:0:0:45:hihat.wav
64,192,23447,1,0,0:0:0:60:snare.wav
320,192,23447,1,0,0:0:0:60:kick.wav
448,192,23605,1,0,0:0:0:45:hihat.wav
192,192,23762,1,0,0:0:0:60:kick.wav
64,192,23762,1,0,0:0:0:0:
320,192,23919,1,0,0:0:0:45:hihat.wav
448,192,24076,1,0,0:0:0:60:kick.wav
64,192,24076,1,0,0:0:0:60:snare.wav
192,192,24233,1,0,0:0:0:45:hihat.wav
64,192,24390,1,0,0:0:0:60:kick.wav
320,192,24390,1,0,0:0:0:0:
448,192,24547,1,0,0:0:0:45:hihat.wav
192,192,24704,1,0,0:0:0:60:kick.wav
64,192,24704,1,0,0:0:0:60:snare.wav
448,192,24861,1,0,0:0:0:45:hihat.wav
320,192,25018,1,0,0:0:0:60:kick.wav
192,192,25018,1,0,0:0:0:0:
64,192,25175,1,0,0:0:0:45:hihat.wav
320,192,25332,1,0,0:0:0:60:snare.wav
448,192,25332,1,0,0:0:0:60:kick.wav
64,192,25489,1,0,0:0:0:45:hihat.wav
192,192,25646,1,0,0:0:0:60:kick.wav
448,192,25646,1,0,0:0:0:0:
320,192,25803,1,0,0:0:0:45:hihat.wav
192,192,25961,1,0,0:0:0:60:snare.wav
64,192,25961,1,0,0:0:0:60:kick.wav
448,192,26118,1,0,0:0:0:45:hihat.wav
320,192,26275,1,0,0:0:0:60:kick.wav
64,192,26275,1,0,0:0:0:0:
192,192,26432,1,0,0:0:0:45:hihat.wav
64,192,26589,1,0,0:0:0:60:snare.wav
448,192,26589,1,0,0:0:0:60:kick.wav
192,192,26746,1,0,0:0:0:45:hihat.wav
448,192,26903,1,0,0:0:0:60:kick.wav
320,192,27060,1,0,0:0:0:45:hihat.wav
192,192,27217,1,0,0:0:0:60:snare.wav
320,192,27374,1,0,0:0:0:45:hihat.wav
64,192,27531,1,0,0:0:0:60:kick.wav
320,192,27688,1,0,0:0:0:45:hihat.wav
192,192,27845,1,0,0:0:0:60:snare.wav
448,192,28002,1,0,0:0:0:45:hihat.wav
192,192,28159,1,0,0:0:0:60:kick.wav
64,192,28159,1,0,0:0:0:65:crash-cymbol.wav
320,192,28317,1,0,0:0:0:45:hihat.wav
448,192,28474,1,0,0:0:0:60:snare.wav
64,192,28474,1,0,0:0:0:60:kick.wav
192,192,28631,1,0,0:0:0:45:hihat.wav
320,192,28788,1,0,0:0:0:60:kick.wav
448,192,28788,1,0,0:0:0:0:
192,192,28945,1,0,0:0:0:45:hihat.wav
64,192,29102,1,0,0:0:0:60:snare.wav
448,192,29102,1,0,0:0:0:60:kick.wav
320,192,29259,1,0,0:0:0:45:hihat.wav
448,192,29416,1,0,0:0:0:60:kick.wav
64,192,29416,1,0,0:0:0:0:
192,192,29573,1,0,0:0:0:45:hihat.wav
64,192,29730,1,0,0:0:0:60:kick.wav
320,192,29730,1,0,0:0:0:60:snare.wav
448,192,29887,1,0,0:0:0:45:hihat.wav
192,192,30044,1,0,0:0:0:60:kick.wav
320,192,30044,1,0,0:0:0:0:
64,192,30201,1,0,0:0:0:45:hihat.wav
192,192,30358,1,0,0:0:0:60:kick.wav
448,192,30358,1,0,0:0:0:60:snare.wav
320,192,30515,1,0,0:0:0:45:hihat.wav
64,192,30673,1,0,0:0:0:60:kick.wav
448,192,30673,1,0,0:0:0:0:
192,192,30830,1,0,0:0:0:45:hihat.wav
320,192,30987,1,0,0:0:0:60:snare.wav
448,192,30987,1,0,0:0:0:60:kick.wav
192,192,31144,1,0,0:0:0:45:hihat.wav
448,192,31301,1,0,0:0:0:60:kick.wav
64,192,31301,1,0,0:0:0:0:
320,192,31458,1,0,0:0:0:45:hihat.wav
192,192,31615,1,0,0:0:0:60:snare.wav
448,192,31615,1,0,0:0:0:60:kick.wav
64,192,31772,1,0,0:0:0:45:hihat.wav
448,192,31929,1,0,0:0:0:60:kick.wav
64,192,32086,1,0,0:0:0:60:kick.wav
192,192,32243,1,0,0:0:0:60:kick.wav
320,192,32400,1,0,0:0:0:65:drum.wav
448,192,32557,5,0,0:0:0:65:drum.wav
64,192,32714,1,0,0:0:0:60:kick.wav
320,192,32872,1,0,0:0:0:60:kick.wav
192,192,33029,1,0,0:0:0:60:kick.wav
64,192,33186,5,0,0:0:0:60:kick.wav
448,192,33186,1,0,0:0:0:65:crash-cymbol.wav
320,192,33343,1,0,0:0:0:45:hihat.wav
192,192,33500,1,0,0:0:0:60:kick.wav
320,192,33657,1,0,0:0:0:45:hihat.wav
64,192,33971,1,0,0:0:0:45:hihat.wav
192,192,34128,1,0,0:0:0:60:kick.wav
320,192,34285,1,0,0:0:0:45:hihat.wav
192,192,34599,1,0,0:0:0:45:hihat.wav
192,192,34756,1,0,0:0:0:60:kick.wav
320,192,34913,1,0,0:0:0:45:hihat.wav
64,192,35070,1,0,0:0:0:60:snare.wav
192,192,35228,1,0,0:0:0:60:drum.wav
448,192,35385,1,0,0:0:0:60:drum.wav
320,192,35463,1,0,0:0:0:60:drum.wav
192,192,35542,1,0,0:0:0:60:drum.wav
64,192,35620,1,0,0:0:0:60:drum.wav
448,192,35699,1,0,0:0:0:60:kick.wav
192,192,35856,1,0,0:0:0:45:hihat.wav
320,192,36013,1,0,0:0:0:60:kick.wav
64,192,36170,1,0,0:0:0:45:hihat.wav
448,192,36484,1,0,0:0:0:45:hihat.wav
320,192,36641,1,0,0:0:0:60:kick.wav
192,192,36798,1,0,0:0:0:45:hihat.wav
448,192,37112,1,0,0:0:0:45:hihat.wav
448,192,37269,1,0,0:0:0:60:kick.wav
64,192,37426,1,0,0:0:0:45:hihat.wav
192,192,37584,1,0,0:0:0:65:drum.wav
64,192,37741,1,0,0:0:0:65:drum.wav
448,192,37898,1,0,0:0:0:60:drum.wav
320,192,37976,1,0,0:0:0:60:drum.wav
192,192,38055,1,0,0:0:0:60:drum.wav
64,192,38133,1,0,0:0:0:60:drum.wav
448,192,38212,1,0,0:0:0:60:kick.wav
320,192,38212,1,0,0:0:0:65:crash-cymbol.wav
192,192,38369,1,0,0:0:0:45:hihat.wav
320,192,38526,1,0,0:0:0:60:kick.wav
448,192,38683,1,0,0:0:0:45:hihat.wav
64,192,38997,1,0,0:0:0:45:hihat.wav
320,192,39154,1,0,0:0:0:60:kick.wav
192,192,39311,1,0,0:0:0:45:hihat.wav
64,192,39468,1,0,0:0:0:60:kick.wav
448,192,39468,1,0,0:0:0:65:crash-cymbol.wav
320,192,39625,1,0,0:0:0:45:hihat.wav
320,192,39783,1,0,0:0:0:60:kick.wav
64,192,39940,1,0,0:0:0:45:hihat.wav
448,192,40097,1,0,0:0:0:60:snare.wav
320,192,40254,1,0,0:0:0:60:drum.wav
64,192,40411,1,0,0:0:0:60:drum.wav
192,192,40489,1,0,0:0:0:60:drum.wav
320,192,40568,1,0,0:0:0:60:drum.wav
448,192,40646,1,0,0:0:0:60:drum.wav
192,192,40725,1,0,0:0:0:60:kick.wav
64,192,40725,1,0,0:0:0:65:crash-cymbol.wav
320,192,40882,1,0,0:0:0:60:kick.wav
192,192,41039,1,0,0:0:0:65:drum.wav
64,192,41196,1,0,0:0:0:65:drum.wav
448,192,41353,1,0,0:0:0:65:drum.wav
192,192,41510,1,0,0:0:0:65:drum.wav
320,192,41667,1,0,0:0:0:65:drum.wav
64,192,41824,1,0,0:0:0:65:drum.wav
64,192,42139,1,0,0:0:0:65:drum.wav
192,192,42453,1,0,0:0:0:65:drum.wav
320,192,42767,1,0,0:0:0:65:drum.wav
448,192,43081,1,0,0:0:0:65:drum.wav
64,192,43238,1,0,0:0:0:65:crash-cymbol.wav
192,192,43238,1,0,0:0:0:65:drum.wav
320,192,43552,1,0,0:0:0:0:
192,192,43709,1,0,0:0:0:0:
448,192,43866,1,0,0:0:0:0:
320,192,44023,1,0,0:0:0:0:
192,192,44180,1,0,0:0:0:0:
448,192,44337,1,0,0:0:0:0:
448,192,44652,1,0,0:0:0:0:
448,192,44966,1,0,0:0:0:0:
64,192,45280,1,0,0:0:0:0:
192,192,45437,1,0,0:0:0:0:
320,192,45594,1,0,0:0:0:0:
192,192,45751,1,0,0:0:0:0:
448,192,46065,1,0,0:0:0:0:
320,192,46222,1,0,0:0:0:0:
64,192,46379,1,0,0:0:0:0:
192,192,46536,1,0,0:0:0:0:
320,192,46694,1,0,0:0:0:0:
64,192,46851,1,0,0:0:0:0:
64,192,47165,1,0,0:0:0:0:
64,192,47479,1,0,0:0:0:0:
448,192,47793,1,0,0:0:0:0:
320,192,47950,1,0,0:0:0:0:
64,192,48107,1,0,0:0:0:0:
192,192,48264,1,0,0:0:0:0:
192,192,48578,1,0,0:0:0:0:
320,192,48735,1,0,0:0:0:0:
64,192,48892,1,0,0:0:0:0:
192,192,49050,1,0,0:0:0:0:
320,192,49207,1,0,0:0:0:0:
448,192,49364,1,0,0:0:0:0:
448,192,49678,1,0,0:0:0:0:
448,192,49992,1,0,0:0:0:0:
64,192,50306,1,0,0:0:0:0:
320,192,50463,1,0,0:0:0:0:
192,192,50620,1,0,0:0:0:0:
448,192,50777,1,0,0:0:0:0:
192,192,51091,1,0,0:0:0:0:
64,192,51248,1,0,0:0:0:0:
448,192,51406,1,0,0:0:0:0:
320,192,51563,1,0,0:0:0:0:
192,192,51720,1,0,0:0:0:0:
64,192,51877,1,0,0:0:0:0:
64,192,52191,1,0,0:0:0:0:
64,192,52505,1,0,0:0:0:0:
448,192,52819,1,0,0:0:0:0:
320,192,52976,1,0,0:0:0:0:
192,192,53133,1,0,0:0:0:0:
320,192,53290,1,0,0:0:0:0:
64,192,53605,1,0,0:0:0:0:
192,192,53762,1,0,0:0:0:0:
448,192,53919,1,0,0:0:0:0:
320,192,54076,1,0,0:0:0:0:
192,192,54233,1,0,0:0:0:0:
448,192,54390,1,0,0:0:0:0:
448,192,54704,1,0,0:0:0:0:
448,192,55018,1,0,0:0:0:0:
64,192,57060,1,0,0:0:0:65:crash-cymbol.wav
448,192,57060,1,0,0:0:0:60:kick.wav
192,192,57217,1,0,0:0:0:30:drum.wav
448,192,57374,1,0,0:0:0:30:drum.wav
320,192,57531,1,0,0:0:0:30:drum.wav
64,192,57688,1,0,0:0:0:30:drum.wav
320,192,57767,1,0,0:0:0:0:
192,192,57845,1,0,0:0:0:30:drum.wav
448,192,57924,1,0,0:0:0:0:
320,192,58002,1,0,0:0:0:30:drum.wav
64,192,58081,1,0,0:0:0:0:
192,192,58159,1,0,0:0:0:30:drum.wav
320,192,58238,1,0,0:0:0:0:
448,192,58317,1,0,0:0:0:30:drum.wav
64,192,58474,1,0,0:0:0:30:drum.wav
320,192,58631,1,0,0:0:0:30:drum.wav
192,192,58788,1,0,0:0:0:30:drum.wav
64,192,58945,1,0,0:0:0:30:drum.wav
192,192,59023,1,0,0:0:0:0:
448,192,59102,1,0,0:0:0:30:drum.wav
320,192,59180,1,0,0:0:0:0:
192,192,59259,1,0,0:0:0:30:drum.wav
448,192,59337,1,0,0:0:0:0:
320,192,59416,1,0,0:0:0:30:drum.wav
192,192,59495,1,0,0:0:0:0:
64,192,59573,1,0,0:0:0:30:drum.wav
448,192,59730,1,0,0:0:0:30:drum.wav
320,192,59887,1,0,0:0:0:30:drum.wav
192,192,60044,1,0,0:0:0:30:drum.wav
448,192,60201,1,0,0:0:0:30:drum.wav
64,192,60280,1,0,0:0:0:0:
320,192,60358,1,0,0:0:0:30:drum.wav
192,192,60437,1,0,0:0:0:0:
448,192,60515,1,0,0:0:0:30:drum.wav
64,192,60594,1,0,0:0:0:0:
192,192,60673,1,0,0:0:0:30:drum.wav
320,192,60751,1,0,0:0:0:0:
448,192,60830,1,0,0:0:0:30:drum.wav
192,192,60987,1,0,0:0:0:30:drum.wav
320,192,61144,1,0,0:0:0:30:drum.wav
192,192,61301,1,0,0:0:0:30:drum.wav
64,192,61458,1,0,0:0:0:30:drum.wav
192,192,61536,1,0,0:0:0:0:
448,192,61615,1,0,0:0:0:30:drum.wav
320,192,61694,1,0,0:0:0:0:
192,192,61772,1,0,0:0:0:30:drum.wav
320,192,61851,1,0,0:0:0:0:
64,192,61929,1,0,0:0:0:30:drum.wav
192,192,62008,1,0,0:0:0:0:
448,192,62086,1,0,0:0:0:30:drum.wav
320,192,62086,1,0,0:0:0:65:crash-cymbol.wav
64,192,62243,1,0,0:0:0:30:drum.wav
448,192,62400,1,0,0:0:0:30:drum.wav
320,192,62557,1,0,0:0:0:30:drum.wav
64,192,62714,1,0,0:0:0:30:drum.wav
320,192,62793,1,0,0:0:0:0:
192,192,62872,1,0,0:0:0:30:drum.wav
448,192,62950,1,0,0:0:0:0:
64,192,63029,1,0,0:0:0:30:drum.wav
192,192,63107,1,0,0:0:0:0:
320,192,63186,1,0,0:0:0:30:drum.wav
448,192,63264,1,0,0:0:0:0:
64,192,63343,1,0,0:0:0:30:drum.wav
320,192,63500,1,0,0:0:0:30:drum.wav
192,192,63657,1,0,0:0:0:30:drum.wav
64,192,63814,1,0,0:0:0:30:drum.wav
448,192,63971,1,0,0:0:0:30:drum.wav
320,192,64050,1,0,0:0:0:0:
192,192,64128,1,0,0:0:0:30:drum.wav
320,192,64207,1,0,0:0:0:0:
64,192,64285,1,0,0:0:0:30:drum.wav
192,192,64364,1,0,0:0:0:0:
320,192,64442,1,0,0:0:0:30:drum.wav
192,192,64521,1,0,0:0:0:0:
64,192,64599,1,0,0:0:0:30:drum.wav
448,192,64756,1,0,0:0:0:30:drum.wav
192,192,64913,1,0,0:0:0:30:drum.wav
448,192,65070,1,0,0:0:0:30:drum.wav
64,192,65228,1,0,0:0:0:30:drum.wav
320,192,65306,1,0,0:0:0:0:
192,192,65385,1,0,0:0:0:30:drum.wav
448,192,65463,1,0,0:0:0:0:
320,192,65542,1,0,0:0:0:30:drum.wav
64,192,65620,1,0,0:0:0:0:
192,192,65699,1,0,0:0:0:30:drum.wav
320,192,65777,1,0,0:0:0:0:
448,192,65856,1,0,0:0:0:30:drum.wav
192,192,66013,1,0,0:0:0:30:drum.wav
64,192,66170,1,0,0:0:0:30:drum.wav
320,192,66327,1,0,0:0:0:30:drum.wav
448,192,66484,1,0,0:0:0:30:drum.wav
192,192,66563,1,0,0:0:0:0:
320,192,66641,1,0,0:0:0:30:drum.wav
64,192,66720,1,0,0:0:0:0:
192,192,66798,1,0,0:0:0:30:drum.wav
320,192,66877,1,0,0:0:0:0:
448,192,66955,1,0,0:0:0:30:drum.wav
192,192,67034,1,0,0:0:0:0:
64,192,67112,1,0,0:0:0:30:drum.wav
320,192,67269,1,0,0:0:0:0:
64,192,67426,1,0,0:0:0:55:snare.wav
320,192,67584,1,0,0:0:0:0:
64,192,67741,1,0,0:0:0:55:snare.wav
192,192,67819,1,0,0:0:0:0:
448,192,67898,1,0,0:0:0:65:drum.wav
320,192,67976,1,0,0:0:0:0:
64,192,68055,1,0,0:0:0:65:drum.wav
192,192,68055,1,0,0:0:0:55:snare.wav
320,192,68212,1,0,0:0:0:65:drum.wav
192,192,68290,1,0,0:0:0:55:snare.wav
64,192,68369,1,0,0:0:0:55:snare.wav
448,192,68369,1,0,0:0:0:0:
320,192,68526,1,0,0:0:0:0:
192,192,68683,1,0,0:0:0:55:snare.wav
320,192,68840,1,0,0:0:0:0:
64,192,68997,1,0,0:0:0:55:snare.wav
192,192,69076,1,0,0:0:0:0:
320,192,69154,1,0,0:0:0:65:drum.wav
192,192,69233,1,0,0:0:0:0:
448,192,69311,1,0,0:0:0:65:drum.wav
64,192,69311,1,0,0:0:0:55:snare.wav
320,192,69468,1,0,0:0:0:65:drum.wav
448,192,69625,1,0,0:0:0:65:drum.wav
64,192,69625,1,0,0:0:0:55:snare.wav
192,192,69783,1,0,0:0:0:0:
448,192,69940,1,0,0:0:0:55:snare.wav
192,192,70097,1,0,0:0:0:0:
448,192,70254,1,0,0:0:0:55:snare.wav
320,192,70332,1,0,0:0:0:0:
64,192,70411,1,0,0:0:0:65:drum.wav
192,192,70489,1,0,0:0:0:0:
448,192,70568,1,0,0:0:0:55:snare.wav
320,192,70568,1,0,0:0:0:65:drum.wav
192,192,70725,1,0,0:0:0:55:snare.wav
320,192,70803,1,0,0:0:0:55:snare.wav
448,192,70882,1,0,0:0:0:55:snare.wav
64,192,70882,1,0,0:0:0:65:drum.wav
448,192,71196,1,0,0:0:0:55:snare.wav
64,192,71196,1,0,0:0:0:65:drum.wav
192,192,71353,1,0,0:0:0:65:drum.wav
64,192,71510,1,0,0:0:0:55:snare.wav
448,192,71510,1,0,0:0:0:65:drum.wav
320,192,71589,1,0,0:0:0:0:
192,192,71667,1,0,0:0:0:0:
64,192,71746,1,0,0:0:0:0:
448,192,71824,1,0,0:0:0:55:snare.wav
448,192,71981,1,0,0:0:0:55:snare.wav
64,192,72139,1,0,0:0:0:65:crash-cymbol.wav
448,192,72139,1,0,0:0:0:60:snare.wav
64,192,72296,1,0,0:0:0:60:snare.wav
192,192,72296,1,0,0:0:0:60:kick.wav
320,192,72453,1,0,0:0:0:60:snare.wav
448,192,72453,1,0,0:0:0:60:kick.wav
192,192,72610,1,0,0:0:0:60:snare.wav
320,192,72610,1,0,0:0:0:60:kick.wav
64,192,72767,1,0,0:0:0:60:snare.wav
448,192,72767,1,0,0:0:0:60:kick.wav
64,192,72924,1,0,0:0:0:60:kick.wav
320,192,72924,1,0,0:0:0:60:snare.wav
192,192,73081,1,0,0:0:0:60:kick.wav
448,192,73081,1,0,0:0:0:60:snare.wav
448,192,73238,1,0,0:0:0:60:snare.wav
64,192,73238,1,0,0:0:0:60:kick.wav
192,192,73395,1,0,0:0:0:60:snare.wav
320,192,73395,1,0,0:0:0:60:kick.wav
192,192,73552,1,0,0:0:0:60:kick.wav
64,192,73552,1,0,0:0:0:60:snare.wav
320,192,73709,1,0,0:0:0:60:kick.wav
448,192,73709,1,0,0:0:0:60:snare.wav
448,192,73866,1,0,0:0:0:60:snare.wav
64,192,73866,1,0,0:0:0:60:kick.wav
320,192,74023,1,0,0:0:0:60:snare.wav
192,192,74023,1,0,0:0:0:60:kick.wav
64,192,74180,1,0,0:0:0:60:kick.wav
448,192,74180,1,0,0:0:0:60:snare.wav
64,192,74337,1,0,0:0:0:60:kick.wav
320,192,74337,1,0,0:0:0:60:snare.wav
448,192,74652,1,0,0:0:0:60:kick.wav
320,192,74730,1,0,0:0:0:60:kick.wav
192,192,74809,1,0,0:0:0:60:snare.wav
320,192,74887,1,0,0:0:0:60:snare.wav
64,192,74966,1,0,0:0:0:60:kick.wav
192,192,75044,1,0,0:0:0:60:kick.wav
448,192,75123,1,0,0:0:0:60:snare.wav
320,192,75201,1,0,0:0:0:60:snare.wav
64,192,75280,1,0,0:0:0:60:snare.wav
192,192,75358,1,0,0:0:0:60:snare.wav
320,192,75437,1,0,0:0:0:60:kick.wav
448,192,75515,1,0,0:0:0:60:kick.wav
192,192,75594,1,0,0:0:0:60:kick.wav
320,192,75673,1,0,0:0:0:60:kick.wav
64,192,75751,1,0,0:0:0:60:snare.wav
448,192,75830,1,0,0:0:0:60:snare.wav
320,192,75908,1,0,0:0:0:60:snare.wav
192,192,75987,1,0,0:0:0:60:snare.wav
320,192,76065,1,0,0:0:0:60:kick.wav
448,192,76144,1,0,0:0:0:60:kick.wav
64,192,76222,1,0,0:0:0:60:kick.wav
192,192,76301,1,0,0:0:0:60:kick.wav
448,192,76379,1,0,0:0:0:60:snare.wav
320,192,76458,1,0,0:0:0:60:snare.wav
192,192,76536,1,0,0:0:0:60:snare.wav
448,192,76615,1,0,0:0:0:60:snare.wav
320,192,76694,1,0,0:0:0:60:kick.wav
192,192,76772,1,0,0:0:0:60:kick.wav
64,192,76851,1,0,0:0:0:60:kick.wav
320,192,76929,1,0,0:0:0:60:kick.wav
192,192,77008,1,0,0:0:0:60:snare.wav
320,192,77086,1,0,0:0:0:60:snare.wav
64,192,77165,1,0,0:0:0:60:kick.wav
448,192,77165,1,0,0:0:0:45:bassdrum.wav
64,192,77322,1,0,0:0:0:45:bassdrum.wav
320,192,77322,1,0,0:0:0:60:kick.wav
192,192,77479,1,0,0:0:0:65:drum.wav
320,192,77557,1,0,0:0:0:65:drum.wav
64,192,77636,1,0,0:0:0:65:drum.wav
192,192,77714,1,0,0:0:0:65:drum.wav
448,192,77793,1,0,0:0:0:65:drum.wav
320,192,77793,1,0,0:0:0:65:crash-cymbol.wav
192,192,77950,1,0,0:0:0:65:drum.wav
320,192,78029,1,0,0:0:0:65:drum.wav
448,192,78107,1,0,0:0:0:45:bassdrum.wav
448,192,78264,1,0,0:0:0:45:bassdrum.wav
64,192,78421,1,0,0:0:0:65:crash-cymbol.wav
192,192,78500,1,0,0:0:0:65:drum.wav
320,192,78578,1,0,0:0:0:65:drum.wav
448,192,78657,1,0,0:0:0:65:drum.wav
64,192,78735,1,0,0:0:0:65:drum.wav
192,192,78814,1,0,0:0:0:65:drum.wav
320,192,78892,1,0,0:0:0:65:drum.wav
448,192,78971,1,0,0:0:0:65:drum.wav
64,192,79050,128,0,79364:0:0:0:65:drum.wav
448,192,79364,1,0,0:0:0:60:snare.wav
448,192,79521,1,0,0:0:0:60:snare.wav
64,192,79678,1,0,0:0:0:60:kick.wav
320,192,79678,1,0,0:0:0:65:crash-cymbol.wav
448,192,79835,1,0,0:0:0:45:hihat.wav
64,192,79992,1,0,0:0:0:60:snare.wav
192,192,79992,1,0,0:0:0:60:kick.wav
320,192,80149,1,0,0:0:0:45:hihat.wav
192,192,80306,1,0,0:0:0:60:kick.wav
448,192,80306,1,0,0:0:0:0:
64,192,80463,1,0,0:0:0:45:hihat.wav
320,192,80620,1,0,0:0:0:60:kick.wav
448,192,80620,1,0,0:0:0:60:snare.wav
192,192,80777,1,0,0:0:0:45:hihat.wav
320,192,80934,1,0,0:0:0:60:kick.wav
64,192,80934,1,0,0:0:0:0:
448,192,81091,1,0,0:0:0:45:hihat.wav
192,192,81248,1,0,0:0:0:60:kick.wav
64,192,81248,1,0,0:0:0:60:snare.wav
448,192,81406,1,0,0:0:0:45:hihat.wav
320,192,81563,1,0,0:0:0:60:kick.wav
64,192,81563,1,0,0:0:0:0:
192,192,81720,1,0,0:0:0:45:hihat.wav
64,192,81877,1,0,0:0:0:60:snare.wav
448,192,81877,1,0,0:0:0:60:kick.wav
320,192,82034,1,0,0:0:0:45:hihat.wav
192,192,82191,1,0,0:0:0:60:kick.wav
64,192,82191,1,0,0:0:0:0:
320,192,82348,1,0,0:0:0:45:hihat.wav
448,192,82505,1,0,0:0:0:60:snare.wav
64,192,82505,1,0,0:0:0:60:kick.wav
192,192,82662,1,0,0:0:0:45:hihat.wav
64,192,82819,1,0,0:0:0:60:kick.wav
320,192,82819,1,0,0:0:0:0:
448,192,82976,1,0,0:0:0:45:hihat.wav
320,192,83133,1,0,0:0:0:60:kick.wav
192,192,83133,1,0,0:0:0:60:snare.wav
64,192,83290,1,0,0:0:0:45:hihat.wav
192,192,83447,1,0,0:0:0:60:kick.wav
448,192,83447,1,0,0:0:0:0:
320,192,83605,1,0,0:0:0:45:hihat.wav
192,192,83762,1,0,0:0:0:60:kick.wav
64,192,83762,1,0,0:0:0:60:snare.wav
320,192,83919,1,0,0:0:0:45:hihat.wav
448,192,84076,1,0,0:0:0:60:kick.wav
64,192,84076,1,0,0:0:0:0:
192,192,84233,1,0,0:0:0:45:hihat.wav
64,192,84390,1,0,0:0:0:60:snare.wav
448,192,84390,1,0,0:0:0:60:kick.wav
320,192,84547,1,0,0:0:0:60:kick.wav
192,192,84704,1,0,0:0:0:60:kick.wav
64,192,84704,1,0,0:0:0:65:crash-cymbol.wav
448,192,84704,1,0,0:0:0:0:
320,192,84861,1,0,0:0:0:45:hihat.wav
64,192,85018,1,0,0:0:0:60:snare.wav
192,192,85018,1,0,0:0:0:60:kick.wav
448,192,85175,1,0,0:0:0:45:hihat.wav
320,192,85332,1,0,0:0:0:60:kick.wav
64,192,85332,1,0,0:0:0:0:
192,192,85489,1,0,0:0:0:45:hihat.wav
64,192,85646,1,0,0:0:0:60:kick.wav
448,192,85646,1,0,0:0:0:60:snare.wav
320,192,85803,1,0,0:0:0:45:hihat.wav
192,192,85961,1,0,0:0:0:60:kick.wav
448,192,85961,1,0,0:0:0:0:
64,192,86118,1,0,0:0:0:45:hihat.wav
192,192,86275,1,0,0:0:0:60:kick.wav
448,192,86275,1,0,0:0:0:60:snare.wav
320,192,86432,1,0,0:0:0:45:hihat.wav
192,192,86589,1,0,0:0:0:60:kick.wav
64,192,86589,1,0,0:0:0:0:
320,192,86746,1,0,0:0:0:45:hihat.wav
448,192,86903,1,0,0:0:0:60:snare.wav
64,192,86903,1,0,0:0:0:60:kick.wav
192,192,87060,1,0,0:0:0:45:hihat.wav
64,192,87217,1,0,0:0:0:60:snare.wav
448,192,87217,1,0,0:0:0:60:kick.wav
320,192,87296,1,0,0:0:0:60:snare.wav
192,192,87374,1,0,0:0:0:60:snare.wav
320,192,87453,1,0,0:0:0:60:snare.wav
448,192,87531,1,0,0:0:0:60:snare.wav
64,192,87531,1,0,0:0:0:60:kick.wav
192,192,87610,1,0,0:0:0:60:snare.wav
320,192,87688,1,0,0:0:0:60:snare.wav
448,192,87767,1,0,0:0:0:60:snare.wav
320,192,87845,1,0,0:0:0:60:kick.wav
192,192,87845,1,0,0:0:0:60:snare.wav
64,192,87924,1,0,0:0:0:60:snare.wav
192,192,88002,1,0,0:0:0:60:snare.wav
320,192,88081,1,0,0:0:0:60:snare.wav
448,192,88159,1,0,0:0:0:60:snare.wav
64,192,88159,1,0,0:0:0:60:kick.wav
192,192,88238,1,0,0:0:0:60:snare.wav
320,192,88317,1,0,0:0:0:60:snare.wav
192,192,88395,1,0,0:0:0:60:snare.wav
448,192,88474,1,0,0:0:0:60:snare.wav
448,192,88631,1,0,0:0:0:45:bassdrum.wav
64,192,88788,1,0,0:0:0:45:bassdrum.wav
320,192,88866,1,0,0:0:0:45:bassdrum.wav
192,192,88945,1,0,0:0:0:45:bassdrum.wav
448,192,89023,1,0,0:0:0:45:bassdrum.wav
64,192,89102,1,0,0:0:0:45:bassdrum.wav
64,192,89259,1,0,0:0:0:45:bassdrum.wav
448,192,89416,1,0,0:0:0:45:bassdrum.wav
320,192,89573,1,0,0:0:0:45:bassdrum.wav
64,192,89730,1,0,0:0:0:65:crash-cymbol.wav
192,192,89730,1,0,0:0:0:60:kick.wav
448,192,89887,1,0,0:0:0:45:hihat.wav
320,192,90044,1,0,0:0:0:60:snare.wav
192,192,90201,1,0,0:0:0:45:hihat.wav
320,192,90358,1,0,0:0:0:60:kick.wav
64,192,90515,1,0,0:0:0:45:hihat.wav
192,192,90673,1,0,0:0:0:60:kick.wav
320,192,90830,1,0,0:0:0:45:hihat.wav
64,192,90987,1,0,0:0:0:60:kick.wav
448,192,91144,1,0,0:0:0:45:hihat.wav
64,192,91301,1,0,0:0:0:60:kick.wav
320,192,91458,1,0,0:0:0:45:hihat.wav
64,192,91615,1,0,0:0:0:60:kick.wav
192,192,91772,1,0,0:0:0:45:hihat.wav
320,192,91929,1,0,0:0:0:60:snare.wav
192,192,92086,1,0,0:0:0:45:hihat.wav
448,192,92243,1,0,0:0:0:60:kick.wav
320,192,92400,1,0,0:0:0:45:hihat.wav
64,192,92557,1,0,0:0:0:60:snare.wav
192,192,92714,1,0,0:0:0:45:hihat.wav
448,192,92872,1,0,0:0:0:60:kick.wav
64,192,93029,1,0,0:0:0:45:hihat.wav
192,192,93186,1,0,0:0:0:60:kick.wav
320,192,93343,1,0,0:0:0:45:hihat.wav
448,192,93500,1,0,0:0:0:60:kick.wav
64,192,93657,1,0,0:0:0:45:hihat.wav
448,192,93814,1,0,0:0:0:60:kick.wav
192,192,93971,1,0,0:0:0:45:hihat.wav
448,192,94128,1,0,0:0:0:60:kick.wav
320,192,94285,1,0,0:0:0:45:hihat.wav
192,192,94442,1,0,0:0:0:60:snare.wav
64,192,94599,1,0,0:0:0:45:hihat.wav
320,192,94756,1,0,0:0:0:60:snare.wav
448,192,94756,1,0,0:0:0:65:crash-cymbol.wav
192,192,94913,1,0,0:0:0:60:snare.wav
64,192,94913,1,0,0:0:0:60:kick.wav
448,192,95070,1,0,0:0:0:60:snare.wav
64,192,95070,1,0,0:0:0:60:kick.wav
320,192,95228,1,0,0:0:0:60:snare.wav
192,192,95228,1,0,0:0:0:60:kick.wav
320,192,95385,1,0,0:0:0:60:kick.wav
448,192,95385,1,0,0:0:0:60:snare.wav
192,192,95542,1,0,0:0:0:60:kick.wav
64,192,95542,1,0,0:0:0:60:snare.wav
64,192,95699,1,0,0:0:0:60:kick.wav
448,192,95699,1,0,0:0:0:60:snare.wav
320,192,95856,1,0,0:0:0:60:kick.wav
192,192,95856,1,0,0:0:0:60:snare.wav
64,192,96013,1,0,0:0:0:60:snare.wav
448,192,96013,1,0,0:0:0:60:kick.wav
448,192,96170,1,0,0:0:0:60:kick.wav
192,192,96170,1,0,0:0:0:60:snare.wav
320,192,96327,1,0,0:0:0:60:snare.wav
64,192,96327,1,0,0:0:0:60:kick.wav
448,192,96484,1,0,0:0:0:60:kick.wav
192,192,96484,1,0,0:0:0:60:snare.wav
64,192,96641,1,0,0:0:0:60:snare.wav
448,192,96641,1,0,0:0:0:60:kick.wav
320,192,96798,1,0,0:0:0:60:snare.wav
192,192,96798,1,0,0:0:0:60:kick.wav
192,192,96955,1,0,0:0:0:60:kick.wav
64,192,96955,1,0,0:0:0:60:snare.wav
448,192,97112,1,0,0:0:0:0:
64,192,97269,1,0,0:0:0:60:snare.wav
320,192,97348,1,0,0:0:0:65:drum.wav
192,192,97426,1,0,0:0:0:60:snare.wav
448,192,97505,1,0,0:0:0:65:drum.wav
64,192,97584,1,0,0:0:0:60:snare.wav
192,192,97662,1,0,0:0:0:0:
448,192,97741,1,0,0:0:0:60:snare.wav
320,192,97819,1,0,0:0:0:0:
64,192,97898,1,0,0:0:0:60:snare.wav
192,192,97976,1,0,0:0:0:65:drum.wav
320,192,98055,1,0,0:0:0:60:snare.wav
448,192,98133,1,0,0:0:0:65:drum.wav
64,192,98212,1,0,0:0:0:60:snare.wav
192,192,98290,1,0,0:0:0:0:
320,192,98369,1,0,0:0:0:60:snare.wav
192,192,98447,1,0,0:0:0:0:
64,192,98526,1,0,0:0:0:65:drum.wav
448,192,98526,1,0,0:0:0:0:
320,192,98683,1,0,0:0:0:65:drum.wav
192,192,98840,128,0,98997:0:0:0:65:drum.wav
320,192,98997,128,0,99154:0:0:0:65:drum.wav
64,192,99154,1,0,0:0:0:65:drum.wav
192,192,99311,1,0,0:0:0:65:drum.wav
320,192,99468,1,0,0:0:0:65:drum.wav
448,192,99625,1,0,0:0:0:65:drum.wav
192,192,99783,1,0,0:0:0:60:kick.wav
64,192,99783,1,0,0:0:0:65:crash-cymbol.wav
320,192,100097,1,0,0:0:0:0:
192,192,100254,1,0,0:0:0:0:
448,192,100411,1,0,0:0:0:0:
320,192,100568,1,0,0:0:0:0:
192,192,100725,1,0,0:0:0:0:
448,192,100882,1,0,0:0:0:0:
448,192,101196,1,0,0:0:0:0:
448,192,101510,1,0,0:0:0:0:
64,192,101824,1,0,0:0:0:0:
192,192,101981,1,0,0:0:0:0:
320,192,102139,1,0,0:0:0:0:
192,192,102296,1,0,0:0:0:0:
448,192,102610,1,0,0:0:0:0:
320,192,102767,1,0,0:0:0:0:
64,192,102924,1,0,0:0:0:0:
192,192,103081,1,0,0:0:0:0:
320,192,103238,1,0,0:0:0:0:
64,192,103395,1,0,0:0:0:0:
64,192,103709,1,0,0:0:0:0:
64,192,104023,1,0,0:0:0:0:
448,192,104337,1,0,0:0:0:0:
320,192,104495,1,0,0:0:0:0:
64,192,104652,1,0,0:0:0:0:
192,192,104809,1,0,0:0:0:0:
320,192,105123,1,0,0:0:0:0:
192,192,105280,1,0,0:0:0:0:
64,192,105437,1,0,0:0:0:0:
448,192,105594,1,0,0:0:0:0:
320,192,105751,1,0,0:0:0:0:
192,192,105908,1,0,0:0:0:0:
192,192,106222,1,0,0:0:0:0:
192,192,106536,1,0,0:0:0:0:
64,192,106851,1,0,0:0:0:0:
192,192,107008,1,0,0:0:0:0:
320,192,107165,1,0,0:0:0:0:
192,192,107322,1,0,0:0:0:0:
448,192,107636,1,0,0:0:0:0:
320,192,107793,1,0,0:0:0:0:
192,192,107950,1,0,0:0:0:0:
320,192,108107,1,0,0:0:0:0:
448,192,108264,1,0,0:0:0:0:
64,192,108421,1,0,0:0:0:0:
64,192,108735,1,0,0:0:0:0:
64,192,109050,1,0,0:0:0:0:
448,192,109364,1,0,0:0:0:0:
320,192,109521,1,0,0:0:0:0:
192,192,109678,1,0,0:0:0:0:
320,192,109835,1,0,0:0:0:0:
64,192,110149,1,0,0:0:0:0:
192,192,110306,1,0,0:0:0:0:
448,192,110463,1,0,0:0:0:0:
320,192,110620,1,0,0:0:0:0:
192,192,110777,1,0,0:0:0:0:
64,192,110934,1,0,0:0:0:0:
64,192,111248,1,0,0:0:0:0:
64,192,111563,1,0,0:0:0:0:
