osu file format v14

[General]
AudioFilename: Critical Crystal.mp3
AudioLeadIn: 2000
PreviewTime: 23133
Countdown: 0
SampleSet: Normal
StackLeniency: 0.3
Mode: 0
LetterboxInBreaks: 0
WidescreenStoryboard: 0

[Editor]
Bookmarks: 11824,33157,111563
DistanceSpacing: 0.5
BeatDivisor: 4
GridSize: 4
TimelineZoom: 1.8

[Metadata]
Title:Critical Crystal
TitleUnicode:Critical Crystal
Artist:Seiryu
ArtistUnicode:青龍
Creator:Priti
Version:Ultra
Source:beatmania IIDX
Tags:21st SPADA Blue Dragon Ryu* DANCE SPEED BEMANI Konami wa_ -kevincela- Irreversible Collab Minakami Yuki [Minakami_Yuki] EvilElvis EvilElvisV2 Lust ポップンリズミン pop'n rhythmin
BeatmapID:473210
BeatmapSetID:199535

[Difficulty]
HPDrainRate:6.5
CircleSize:4.5
OverallDifficulty:9
ApproachRate:9.4
SliderMultiplier:1.8
SliderTickRate:1

[Events]
//Background and Video events
0,0,"bg.png",0,0
//Break Periods
//Storyboard Layer 0 (Background)
//Storyboard Layer 1 (Fail)
//Storyboard Layer 2 (Pass)
//Storyboard Layer 3 (Foreground)
//Storyboard Sound Samples

[TimingPoints]
516,314.13612565445,4,1,0,60,1,0
2400,-100,4,1,0,70,0,0
2636,-100,4,1,0,5,0,0
2714,-66.6666666666667,4,1,0,60,0,0
2950,-66.6666666666667,4,1,0,5,0,0
3029,-100,4,1,0,90,0,0
3107,-100,4,1,0,80,0,0
8055,-100,4,1,0,90,0,0
8133,-100,4,1,0,80,0,0
11510,-151.515151515152,4,1,0,80,0,0
11746,-151.515151515152,4,1,0,5,0,0
11824,-100,4,1,0,80,0,0
12453,-100,4,1,0,100,0,0
12688,-100,4,1,0,5,0,0
12767,-66.6666666666667,4,1,0,80,0,0
13002,-66.6666666666667,4,1,0,5,0,0
13081,-100,4,2,0,80,0,0
18107,-133.333333333333,4,2,0,80,0,0
21248,-133.333333333333,4,2,0,90,0,0
21327,-133.333333333333,4,2,0,80,0,0
23133,-100,4,1,0,80,0,1
23212,-100,4,1,0,80,0,0
26903,-133.333333333333,4,1,0,60,0,0
27531,-133.333333333333,4,1,0,70,0,0
28159,-100,4,1,0,80,0,0
32557,-100,4,1,0,100,0,0
32793,-100,4,1,0,5,0,0
32871,-66.6666666666667,4,1,0,80,0,0
33107,-66.6666666666667,4,1,0,5,0,0
33186,-100,4,2,0,70,0,0
35227,-100,4,2,0,40,0,0
35385,-100,4,2,0,70,0,0
37583,-100,4,2,0,40,0,0
37741,-100,4,2,0,70,0,0
40254,-100,4,2,0,40,0,0
40411,-100,4,2,0,70,0,0
41353,-100,4,2,0,100,0,0
41432,-100,4,2,0,70,0,0
43238,-133.333333333333,4,2,0,65,0,0
43317,-133.333333333333,4,2,0,45,0,0
44494,-133.333333333333,4,2,0,25,0,0
44652,-133.333333333333,4,2,0,45,0,0
44809,-133.333333333333,4,2,0,25,0,0
44966,-133.333333333333,4,2,0,45,0,0
45123,-133.333333333333,4,2,0,25,0,0
45280,-133.333333333333,4,2,0,45,0,0
49521,-133.333333333333,4,2,0,25,0,0
49678,-133.333333333333,4,2,0,45,0,0
49835,-133.333333333333,4,2,0,25,0,0
49992,-133.333333333333,4,2,0,45,0,0
50149,-133.333333333333,4,2,0,25,0,0
50306,-133.333333333333,4,2,0,45,0,0
52034,-133.333333333333,4,2,0,25,0,0
52191,-133.333333333333,4,2,0,45,0,0
52348,-133.333333333333,4,2,0,25,0,0
52505,-133.333333333333,4,2,0,45,0,0
52662,-133.333333333333,4,2,0,25,0,0
52819,-133.333333333333,4,2,0,45,0,0
53290,-133.333333333333,4,2,0,32,0,0
54547,-133.333333333333,4,2,0,25,0,0
54704,-133.333333333333,4,2,0,32,0,0
54861,-133.333333333333,4,2,0,25,0,0
55018,-133.333333333333,4,2,0,32,0,0
55097,-100,4,1,0,20,0,0
57060,-100,4,2,0,90,0,0
57138,-100,4,2,0,75,0,0
62086,-100,4,2,0,90,0,0
62165,-100,4,2,0,75,0,0
65856,-100,4,2,0,78,0,0
67112,-100,4,2,1,70,0,0
72139,-100,4,3,1,80,0,0
74652,-100,4,3,1,85,0,0
77165,-100,4,1,0,65,0,0
79050,-100,4,1,0,75,0,0
79285,-100,4,1,0,5,0,0
79364,-66.6666666666667,4,1,0,65,0,0
79678,-80,4,1,0,85,0,1
87217,-80,4,3,1,80,0,1
88474,-80,4,1,0,80,0,1
89730,-100,4,1,0,80,0,0
94756,-100,4,3,1,80,0,0
97269,-100,4,2,0,100,0,0
98526,-100,4,2,0,70,0,0
99783,-133.333333333333,4,2,0,65,0,0
99940,-133.333333333333,4,2,0,45,0,0
103552,-133.333333333333,4,2,0,25,0,0
103709,-133.333333333333,4,2,0,45,0,0
103866,-133.333333333333,4,2,0,25,0,0
104023,-133.333333333333,4,2,0,45,0,0
104180,-133.333333333333,4,2,0,25,0,0
104337,-133.333333333333,4,2,0,45,0,0
109835,-133.333333333333,4,2,0,32,0,0
109992,-133.333333333333,4,2,0,25,0,0
110149,-133.333333333333,4,2,0,32,0,0
110934,-133.333333333333,4,2,0,25,0,0

[Colours]
Combo1 : 119,247,211
Combo2 : 18,136,175
Combo3 : 126,168,245
Combo4 : 49,216,251

[HitObjects]
268,223,516,6,0,P|271:179|260:136,1,90,4|4,0:3|0:3,0:0:0:0:
175,189,830,1,0,0:0:0:0:
169,233,908,1,0,0:0:0:0:
183,275,987,1,0,0:0:0:0:
215,306,1065,1,0,0:0:0:0:
257,321,1144,2,0,L|354:310,1,90,8|0,0:2|0:0,0:0:0:0:
404,240,1379,1,0,0:0:0:0:
408,244,1458,2,0,P|413:198|416:141,1,90,4|0,0:3|0:0,0:0:0:0:
312,24,1772,5,2,1:2:0:0:
287,7,1850,1,2,1:2:0:0:
258,0,1929,1,2,1:2:0:0:
228,5,2007,1,2,1:2:0:0:
171,103,2086,5,2,1:2:0:0:
201,108,2164,1,2,1:2:0:0:
230,101,2243,1,2,1:2:0:0:
255,84,2321,1,2,1:2:0:0:
108,38,2400,6,0,P|86:74|109:169,1,135,2|0,0:3|2:0,0:0:0:0:
136,260,2714,6,2,B|275:245|275:245|326:195,1,202.500007724762,2|0,0:0|2:0,0:0:0:0:
392,135,3029,6,0,P|355:108|311:103,1,90,4|0,0:2|0:0,0:0:0:0:
247,268,3343,2,0,P|284:294|328:300,1,90,0|2,0:0|0:2,0:0:0:0:
392,135,3657,5,0,0:0:0:0:
247,268,3814,1,0,0:0:0:0:
311,103,3971,1,0,0:0:0:0:
328,300,4128,1,2,0:2:0:0:
231,71,4285,5,0,0:0:0:0:
392,135,4442,1,0,0:0:0:0:
396,131,4521,1,2,0:2:0:0:
247,268,4678,1,0,0:0:0:0:
243,272,4756,1,2,0:2:0:0:
80,201,4913,1,2,0:2:0:0:
151,39,5070,1,0,0:0:0:0:
175,209,5228,5,0,0:0:0:0:
170,253,5306,1,0,0:0:0:0:
165,298,5385,1,0,0:0:0:0:
160,343,5463,1,0,0:0:0:0:
156,388,5542,5,0,0:0:0:0:
175,209,5699,1,0,0:0:0:0:
165,298,5856,1,0,0:0:0:0:
185,120,6013,1,0,0:0:0:0:
189,116,6091,1,0,0:0:0:0:
193,112,6170,2,0,L|285:102,1,90,4|2,3:0|0:3,0:0:0:0:
165,298,6484,2,0,L|73:308,1,90,0|0,0:0|0:0,0:0:0:0:
272,219,6798,6,0,L|364:228,1,90
464,256,7112,1,2,0:2:0:0:
453,212,7191,1,0,0:0:0:0:
453,167,7269,1,0,0:0:0:0:
462,123,7348,1,0,0:0:0:0:
482,83,7426,2,0,L|379:72,1,90,0|2,0:0|0:2,0:0:0:0:
220,124,7741,1,0,0:0:0:0:
276,0,7898,1,2,0:2:0:0:
337,197,8055,5,4,0:2:0:0:
220,124,8212,2,0,L|175:119,1,45,0|2,0:0|0:2,0:0:0:0:
276,0,8447,2,0,L|323:5,1,45,0|2,0:0|0:2,0:0:0:0:
172,240,8683,6,0,L|127:235,1,45,0|0,0:0|2:0,0:0:0:0:
24,148,8840,2,0,L|71:153,1,45,0|0,0:0|2:0,0:0:0:0:
179,244,8997,2,0,L|130:239,1,45,0|0,0:0|2:0,0:0:0:0:
16,143,9154,2,0,L|69:148,1,45,0|0,0:0|2:0,0:0:0:0:
186,248,9311,5,0,0:0:0:0:
380,324,9468,1,0,0:0:0:0:
384,328,9547,1,2,0:2:0:0:
314,212,9704,1,0,0:0:0:0:
318,208,9783,1,2,0:2:0:0:
256,364,9940,1,0,0:0:0:0:
186,248,10097,1,0,0:0:0:0:
314,212,10254,1,0,0:0:0:0:
334,172,10332,1,0,0:0:0:0:
339,127,10411,1,0,0:0:0:0:
329,84,10489,1,0,0:0:0:0:
304,47,10568,6,0,L|207:36,1,90
210,41,10803,1,0,0:0:0:0:
206,45,10882,1,2,0:0:0:0:
92,108,11039,2,0,L|68:110,3,22.5
96,104,11196,2,0,P|104:152|88:208,1,90
64,301,11510,6,0,L|153:310,1,90,4|0,0:3|2:0,0:0:0:0:
283,357,11824,5,2,1:2:0:0:
308,374,11902,1,2,1:2:0:0:
337,381,11981,1,2,1:2:0:0:
367,376,12059,1,2,1:2:0:0:
424,278,12138,5,2,1:2:0:0:
394,273,12216,1,2,1:2:0:0:
365,280,12295,1,2,1:2:0:0:
340,297,12373,1,2,1:2:0:0:
491,330,12453,6,0,B|510:263|510:263|463:199,1,135,2|0,3:3|2:0,0:0:0:0:
416,153,12767,6,2,B|335:156|335:156|294:146|294:146|215:151,1,202.500007724762,2|0,0:3|2:0,0:0:0:0:
122,91,13081,5,4,0:0:0:0:
34,113,13238,1,2,0:0:0:0:
29,203,13395,1,2,0:0:0:0:
114,235,13552,1,0,0:0:0:0:
170,165,13709,1,0,0:0:0:0:
320,296,13866,5,2,0:0:0:0:
292,210,14023,1,0,0:0:0:0:
231,277,14180,1,2,0:0:0:0:
251,74,14337,5,0,0:0:0:0:
100,319,14495,1,2,0:0:0:0:
252,65,14652,5,0,0:0:0:0:
112,189,14809,1,2,0:0:0:0:
253,57,14966,5,0,0:0:0:0:
229,331,15123,1,2,0:0:0:0:
254,48,15280,5,0,0:0:0:0:
241,203,15437,1,2,0:0:0:0:
229,331,15594,5,0,0:0:0:0:
317,356,15751,1,2,0:0:0:0:
404,325,15908,1,0,0:0:0:0:
458,250,16065,1,2,0:0:0:0:
458,158,16222,1,0,0:0:0:0:
317,356,16379,1,2,0:0:0:0:
404,325,16536,1,0,0:0:0:0:
458,250,16694,1,2,0:0:0:0:
229,331,16851,5,0,0:0:0:0:
458,250,17008,1,2,0:0:0:0:
317,356,17165,1,0,0:0:0:0:
458,158,17322,1,2,0:0:0:0:
404,325,17479,5,2,0:0:0:0:
229,331,17636,1,2,0:0:0:0:
223,156,17793,1,0,0:0:0:0:
398,150,17950,1,2,0:0:0:0:
314,241,18107,6,0,L|239:243,1,67.5000025749208,4|2,0:0|0:0,0:0:0:0:
323,59,18421,2,0,L|248:61,1,67.5000025749208,0|2,0:0|0:0,0:0:0:0:
398,332,18735,6,0,L|323:334,1,67.5000025749208,0|2,0:0|0:0,0:0:0:0:
398,150,19050,2,0,L|323:152,1,67.5000025749208
255,60,19364,6,0,P|212:51|166:53,1,67.5000025749208,0|2,0:0|0:0,0:0:0:0:
387,191,19678,2,0,P|397:148|395:102,1,67.5000025749208,0|2,0:0|0:0,0:0:0:0:
256,323,19992,2,0,P|300:333|346:331,1,67.5000025749208,0|2,0:0|0:0,0:0:0:0:
124,192,20306,2,0,P|115:236|117:282,1,67.5000025749208,0|2,0:0|0:0,0:0:0:0:
256,192,20620,5,0,0:0:0:0:
255,60,20777,1,0,0:0:0:0:
232,54,20856,1,0,0:0:0:0:
208,50,20934,1,0,0:0:0:0:
185,49,21013,1,0,0:0:0:0:
161,51,21091,1,0,0:0:0:0:
138,55,21170,1,0,0:0:0:0:
115,61,21248,5,2,3:0:0:0:
117,200,21406,1,2,0:0:0:0:
256,199,21563,1,0,0:0:0:0:
255,60,21720,1,2,0:0:0:0:
117,200,21877,5,0,3:0:0:0:
115,210,21955,1,0,3:0:0:0:
114,220,22034,1,0,3:0:0:0:
113,230,22112,1,0,3:0:0:0:
112,240,22191,1,0,3:0:0:0:
111,250,22269,1,0,3:0:0:0:
110,260,22348,1,0,3:0:0:0:
109,270,22426,1,0,3:0:0:0:
108,280,22505,5,2,3:2:0:0:
271,366,22662,1,2,0:0:0:0:
190,201,22819,1,2,1:2:0:0:
158,382,22976,1,2,1:2:0:0:
291,252,23133,6,0,L|379:242,1,90,6|2,0:0|0:0,0:0:0:0:
396,144,23447,1,2,0:0:0:0:
412,45,23605,1,0,0:0:0:0:
256,104,23762,1,0,0:0:0:0:
116,144,23919,1,2,0:0:0:0:
100,45,24076,1,2,0:0:0:0:
396,144,24233,1,0,0:0:0:0:
128,233,24390,6,0,L|116:144,1,90,2|2,0:0|0:0,0:0:0:0:
396,144,24704,2,0,L|383:233,1,90,2|2,0:0|0:0,0:0:0:0:
148,344,25018,2,0,L|59:331,1,90,2|0,0:0|0:0,0:0:0:0:
364,344,25332,2,0,L|453:331,1,90,2|0,0:0|0:0,0:0:0:0:
128,233,25646,5,2,0:0:0:0:
256,280,25803,1,2,0:0:0:0:
148,344,25961,1,2,0:0:0:0:
364,344,26118,1,0,0:0:0:0:
384,233,26275,1,0,0:0:0:0:
148,344,26432,1,2,0:0:0:0:
364,344,26589,1,2,0:0:0:0:
256,280,26746,1,2,0:0:0:0:
384,233,26903,6,0,P|383:190|372:159,1,67.5000025749208,2|2,0:0|0:0,0:0:0:0:
247,213,27217,2,0,P|247:247|256:280,1,67.5000025749208,2|2,0:0|0:0,0:0:0:0:
392,237,27532,1,2,0:0:0:0:
239,217,27688,1,0,0:0:0:0:
383,170,27845,1,2,0:0:0:0:
247,283,28002,1,2,0:0:0:0:
400,241,28159,5,6,0:0:0:0:
231,221,28317,1,2,0:0:0:0:
299,377,28474,1,2,0:0:0:0:
333,86,28631,1,0,0:0:0:0:
165,65,28788,1,0,0:0:0:0:
131,357,28945,1,2,0:0:0:0:
231,221,29102,1,2,0:0:0:0:
62,201,29259,1,2,0:0:0:0:
299,377,29416,5,2,0:0:0:0:
165,65,29573,1,2,0:0:0:0:
400,241,29730,1,2,0:0:0:0:
62,201,29887,1,2,0:0:0:0:
299,377,30044,5,2,0:0:0:0:
165,65,30201,1,2,0:0:0:0:
131,357,30358,1,2,0:0:0:0:
333,86,30515,1,0,0:0:0:0:
231,221,30673,5,2,0:0:0:0:
245,86,30830,1,2,0:0:0:0:
379,100,30987,1,2,0:0:0:0:
365,235,31144,1,0,0:0:0:0:
305,160,31301,5,0,0:0:0:0:
171,146,31458,1,2,0:0:0:0:
157,281,31615,1,2,0:0:0:0:
291,295,31772,1,2,0:0:0:0:
231,221,31929,5,2,0:0:0:0:
305,160,32086,1,0,0:0:0:0:
306,146,32165,1,0,0:0:0:0:
307,133,32243,1,0,3:0:0:0:
309,119,32322,1,0,3:0:0:0:
310,106,32400,1,0,3:0:0:0:
312,92,32479,1,0,3:0:0:0:
313,79,32557,2,0,P|254:45|178:58,1,135,2|0,3:0|2:0,0:0:0:0:
86,55,32872,6,2,P|137:138|235:143,1,202.500007724762,2|0,0:0|2:0,0:0:0:0:
313,79,33186,6,0,P|366:73|403:78,1,90,4|2,1:2|0:0,0:0:0:0:
488,196,33500,1,0,1:0:0:0:
480,296,33657,1,2,0:0:0:0:
385,325,33814,2,0,L|289:314,1,90,0|2,1:0|0:0,0:0:0:0:
135,254,34128,2,0,L|225:245,1,90,0|2,1:0|0:0,0:0:0:0:
294,175,34442,1,0,1:0:0:0:
385,325,34599,2,0,P|436:330|476:317,2,90,2|2|2,0:0|1:2|0:0,0:0:0:0:
202,24,35070,5,2,1:0:0:0:
134,86,35228,2,0,L|111:84,3,22.5,2|0|0|0,1:1|0:0|0:0|0:0,0:0:0:0:
141,122,35385,1,0,1:0:0:0:
144,157,35463,1,0,3:0:0:0:
144,193,35542,1,0,1:0:0:0:
140,229,35620,1,0,3:0:0:0:
134,265,35699,6,0,L|225:255,1,90,0|2,1:0|0:0,0:0:0:0:
382,316,36013,2,0,L|392:225,1,90,0|2,1:0|0:0,0:0:0:0:
374,56,36327,1,0,1:0:0:0:
277,76,36484,1,2,0:0:0:0:
179,62,36641,1,0,1:0:0:0:
92,16,36798,1,2,0:0:0:0:
56,184,36955,1,0,1:0:0:0:
56,184,37112,2,0,P|60:226|54:277,2,90,2|0|2,0:0|1:0|0:0,0:0:0:0:
123,111,37584,6,0,L|146:113,3,22.5,2|0|0|0,1:1|0:0|0:0|0:0,0:0:0:0:
176,131,37741,1,0,1:0:0:0:
210,141,37819,1,0,3:0:0:0:
246,145,37898,1,0,1:0:0:0:
282,140,37976,1,0,3:0:0:0:
315,127,38055,1,0,1:0:0:0:
345,108,38133,1,0,3:0:0:0:
371,82,38212,6,0,P|416:70|469:80,1,90,4|2,1:2|0:0,0:0:0:0:
421,224,38526,2,0,P|415:281|417:314,1,90,0|2,1:0|0:0,0:0:0:0:
268,344,38840,1,0,1:0:0:0:
227,253,38997,1,2,0:0:0:0:
169,333,39154,1,0,1:0:0:0:
128,242,39311,1,2,0:0:0:0:
69,323,39468,1,4,1:2:0:0:
187,161,39625,2,0,P|192:119|186:67,2,90,2|0|2,0:0|1:0|0:0,0:0:0:0:
268,344,40097,5,2,1:0:0:0:
128,242,40254,2,0,L|105:244,3,22.5,2|0|0|0,1:1|0:0|0:0|0:0,0:0:0:0:
157,262,40411,1,0,1:0:0:0:
192,266,40489,1,0,3:0:0:0:
226,253,40568,1,0,1:0:0:0:
250,227,40646,1,0,3:0:0:0:
259,192,40725,5,4,1:2:0:0:
340,36,40882,1,2,0:0:0:0:
340,36,40961,1,0,3:0:0:0:
340,36,41039,1,0,1:0:0:0:
298,53,41118,1,0,0:0:0:0:
254,60,41196,1,2,0:0:0:0:
209,56,41275,1,0,0:0:0:0:
167,40,41353,1,2,3:3:0:0:
64,268,41667,1,0,1:0:0:0:
64,268,41824,6,0,B|122:274|122:274|151:266,1,90,2|0,0:0|0:0,0:0:0:0:
311,111,42139,2,0,B|259:140|259:140|241:164,1,90,2|0,0:0|0:0,0:0:0:0:
203,383,42453,2,0,B|226:329|226:329|228:299,1,90,2|0,0:0|0:0,0:0:0:0:
130,100,42767,2,0,B|142:157|142:157|158:182,1,90,2|0,0:0|0:0,0:0:0:0:
355,286,43081,1,2,0:0:0:0:
282,236,43238,5,4,0:0:0:0:
278,232,43552,1,0,0:0:0:0:
247,164,43709,1,2,0:0:0:0:
204,224,43866,1,0,0:0:0:0:
173,156,44023,1,2,0:0:0:0:
130,216,44180,1,0,0:0:0:0:
99,148,44337,2,0,P|92:108|96:78,1,67.5000025749208,2|0,0:0|0:0,0:0:0:0:
130,216,44652,2,0,P|98:242|70:253,1,67.5000025749208,2|0,0:0|0:0,0:0:0:0:
173,156,44966,2,0,P|211:169|235:188,1,67.5000025749208,2|0,0:0|0:0,0:0:0:0:
282,327,45280,1,2,0:0:0:0:
356,320,45437,1,0,0:0:0:0:
429,312,45594,1,2,0:0:0:0:
503,304,45751,5,2,0:0:0:0:
499,300,46065,1,0,0:0:0:0:
509,226,46222,1,2,0:0:0:0:
427,80,46379,1,0,0:0:0:0:
437,154,46536,1,2,0:0:0:0:
355,299,46694,1,0,0:0:0:0:
365,225,46851,1,2,0:0:0:0:
357,221,47165,1,2,0:0:0:0:
349,217,47479,1,2,0:0:0:0:
341,213,47793,1,2,0:0:0:0:
276,246,47950,1,0,0:0:0:0:
204,234,48107,1,2,0:0:0:0:
154,181,48264,5,2,0:0:0:0:
150,185,48578,1,0,0:0:0:0:
223,177,48735,1,2,0:0:0:0:
297,169,48892,1,0,0:0:0:0:
371,161,49050,1,2,0:0:0:0:
444,153,49207,1,2,0:0:0:0:
328,36,49364,2,0,L|260:28,1,67.5000025749208,2|0,0:0|0:3,0:0:0:0:
140,73,49678,2,0,L|208:81,1,67.5000025749208,2|0,0:0|0:3,0:0:0:0:
326,140,49992,2,0,L|259:133,1,67.5000025749208,2|0,0:0|0:3,0:0:0:0:
207,185,50306,1,0,0:0:0:0:
180,252,50463,1,2,0:0:0:0:
202,321,50620,1,0,0:0:0:0:
263,361,50777,5,2,0:0:0:0:
267,357,51091,1,0,0:0:0:0:
340,364,51249,1,2,0:0:0:0:
414,372,51406,1,0,0:0:0:0:
488,380,51563,1,2,0:0:0:0:
500,221,51720,1,0,0:0:0:0:
500,221,51877,2,0,P|502:180|493:148,1,67.5000025749208,2|0,0:0|0:0,0:0:0:0:
353,239,52191,2,0,P|387:261|419:269,1,67.5000025749208,2|0,0:0|0:0,0:0:0:0:
411,103,52505,2,0,P|374:121|351:145,1,67.5000025749208,2|0,0:0|0:0,0:0:0:0:
268,280,52819,1,2,0:0:0:0:
193,276,52976,1,0,0:0:0:0:
119,272,53133,1,2,0:0:0:0:
45,268,53290,5,0,0:0:0:0:
41,272,53605,1,0,0:0:0:0:
13,203,53762,1,2,0:0:0:0:
16,130,53919,1,0,0:0:0:0:
50,64,54076,1,2,0:0:0:0:
108,19,54233,1,0,0:0:0:0:
216,80,54390,2,0,L|283:76,1,67.5000025749208,2|0,0:0|0:0,0:0:0:0:
350,143,54704,2,0,L|417:139,1,67.5000025749208,2|0,0:0|0:3,0:0:0:0:
484,206,55018,1,2,0:0:0:0:
256,192,55097,12,0,56432,2:0:0:0:
288,264,57060,5,6,1:2:0:0:
297,226,57139,1,0,0:0:0:0:
290,190,57217,1,2,0:0:0:0:
269,160,57296,1,0,0:0:0:0:
256,126,57374,1,2,1:2:0:0:
260,90,57453,1,0,0:0:0:0:
282,61,57531,1,2,0:0:0:0:
316,49,57610,1,0,0:0:0:0:
351,51,57688,6,0,L|408:57,1,45,2|2,1:2|0:0,0:0:0:0:
424,132,57845,2,0,L|481:138,1,45,2|2,0:0|0:0,0:0:0:0:
351,213,58002,2,0,L|408:219,1,45,2|2,1:2|0:0,0:0:0:0:
424,294,58159,2,0,L|481:300,1,45,2|2,0:0|0:0,0:0:0:0:
351,375,58317,5,2,1:2:0:0:
315,381,58395,1,0,0:0:0:0:
279,378,58474,1,2,0:0:0:0:
245,368,58552,1,0,0:0:0:0:
214,349,58631,1,2,1:2:0:0:
181,363,58709,1,0,0:0:0:0:
145,367,58788,1,2,0:0:0:0:
110,360,58866,1,0,0:0:0:0:
79,341,58945,6,0,L|74:296,1,45,2|2,1:2|0:0,0:0:0:0:
176,272,59102,2,0,L|171:227,1,45,2|2,0:0|0:0,0:0:0:0:
79,203,59259,2,0,L|74:158,1,45,2|2,1:2|0:0,0:0:0:0:
176,134,59416,2,0,L|171:89,1,45,2|2,0:0|0:0,0:0:0:0:
79,65,59573,5,2,1:2:0:0:
52,89,59652,1,0,0:0:0:0:
34,120,59730,1,2,0:0:0:0:
26,155,59809,1,0,0:0:0:0:
28,191,59887,1,2,1:2:0:0:
41,224,59966,1,0,0:0:0:0:
62,253,60044,1,2,0:0:0:0:
92,274,60123,1,0,0:0:0:0:
125,285,60201,5,2,1:2:0:0:
160,258,60280,1,2,0:0:0:0:
203,243,60358,1,2,0:0:0:0:
248,242,60437,1,2,0:0:0:0:
291,252,60515,1,2,1:2:0:0:
288,209,60594,1,2,0:0:0:0:
297,165,60673,1,2,0:0:0:0:
317,125,60751,1,2,0:0:0:0:
347,92,60830,6,0,L|343:45,1,45,2|0,1:2|0:0,0:0:0:0:
444,160,60987,2,0,L|439:112,1,45,2|0,0:0|0:0,0:0:0:0:
347,226,61144,2,0,L|343:179,1,45,2|0,1:2|0:0,0:0:0:0:
444,294,61301,2,0,L|439:246,1,45,2|0,0:0|0:0,0:0:0:0:
347,360,61458,5,2,1:2:0:0:
305,375,61536,1,2,0:0:0:0:
260,372,61615,1,2,0:0:0:0:
221,350,61694,1,2,0:0:0:0:
195,314,61772,1,2,1:2:0:0:
166,280,61851,1,2,0:0:0:0:
127,258,61929,1,2,0:0:0:0:
83,251,62008,1,2,0:0:0:0:
39,261,62086,5,6,1:2:0:0:
83,251,62165,1,0,0:0:0:0:
122,230,62243,1,2,0:0:0:0:
151,196,62322,1,0,0:0:0:0:
168,155,62400,1,2,1:2:0:0:
164,110,62479,1,0,0:0:0:0:
181,69,62557,1,2,0:0:0:0:
215,40,62636,1,0,0:0:0:0:
259,29,62714,6,0,L|308:35,1,45,2|2,1:2|0:0,0:0:0:0:
400,100,62872,2,0,L|449:94,1,45,2|2,0:0|0:0,0:0:0:0:
259,149,63029,2,0,L|308:155,1,45,2|2,1:2|0:0,0:0:0:0:
400,220,63186,2,0,L|449:214,1,45,2|2,0:0|0:0,0:0:0:0:
259,270,63343,5,2,1:2:0:0:
233,295,63421,1,0,0:0:0:0:
203,314,63500,1,2,0:0:0:0:
168,324,63578,1,0,0:0:0:0:
132,325,63657,1,2,1:2:0:0:
97,317,63735,1,0,0:0:0:0:
66,301,63814,1,2,0:0:0:0:
39,276,63892,1,0,0:0:0:0:
19,246,63971,6,0,L|24:200,1,45,2|2,1:2|0:0,0:0:0:0:
120,184,64128,2,0,L|125:137,1,45,2|2,0:0|0:0,0:0:0:0:
19,120,64285,2,0,L|24:74,1,45,2|2,1:2|0:0,0:0:0:0:
120,58,64442,2,0,L|125:11,1,45,2|2,0:0|0:0,0:0:0:0:
120,184,64599,5,2,1:2:0:0:
105,216,64678,1,0,0:0:0:0:
100,252,64756,1,2,0:0:0:0:
106,288,64835,1,0,0:0:0:0:
120,320,64913,1,2,1:2:0:0:
143,348,64992,1,0,0:0:0:0:
172,368,65070,1,2,0:0:0:0:
206,380,65149,1,0,0:0:0:0:
242,382,65228,5,2,1:2:0:0:
278,355,65306,1,2,0:0:0:0:
303,318,65385,1,2,0:0:0:0:
304,274,65463,1,2,0:0:0:0:
283,235,65542,1,2,1:2:0:0:
256,198,65620,1,2,0:0:0:0:
238,157,65699,1,2,0:0:0:0:
238,113,65777,1,2,0:0:0:0:
259,72,65856,5,2,1:2:0:0:
284,46,65934,1,0,0:0:0:0:
316,30,66013,1,2,0:0:0:0:
351,23,66091,1,0,0:0:0:0:
387,28,66170,1,2,1:2:0:0:
419,43,66248,1,0,0:0:0:0:
446,67,66327,1,2,0:0:0:0:
464,98,66406,1,0,0:0:0:0:
472,133,66484,5,2,1:2:0:0:
460,175,66563,1,2,0:0:0:0:
424,202,66641,1,2,0:0:0:0:
380,213,66720,1,2,0:0:0:0:
341,190,66798,1,2,1:2:0:0:
306,162,66877,1,2,0:0:0:0:
264,147,66955,1,2,0:0:0:0:
219,143,67034,1,2,0:0:0:0:
174,152,67112,6,0,L|122:148,1,45,0|0,1:0|0:0,0:0:0:0:
338,232,67269,2,0,L|389:235,1,45,0|0,3:0|0:0,0:0:0:0:
216,274,67426,2,0,L|212:325,1,45,0|0,1:0|0:0,0:0:0:0:
296,110,67584,2,0,L|299:58,1,45,0|0,3:0|0:0,0:0:0:0:
174,152,67741,5,4,1:3:0:0:
143,184,67819,1,2,0:0:0:0:
101,199,67898,1,2,0:0:0:0:
57,193,67976,1,2,0:0:0:0:
21,167,68055,1,4,1:3:0:0:
2,127,68133,1,4,0:3:0:0:
3,83,68212,1,4,1:3:0:0:
24,44,68290,1,4,1:3:0:0:
62,20,68369,6,0,L|105:24,1,45,4|0,1:3|0:0,0:0:0:0:
104,249,68526,2,0,L|60:245,1,45,0|0,3:0|0:0,0:0:0:0:
170,136,68683,2,0,L|214:132,1,45,0|0,1:0|0:0,0:0:0:0:
213,358,68840,2,0,L|169:362,1,45,0|0,3:0|0:0,0:3:0:0:
60,245,68997,5,4,1:3:0:0:
85,208,69076,1,2,0:0:0:0:
88,164,69154,1,2,0:0:0:0:
66,125,69233,1,2,0:0:0:0:
27,103,69311,1,4,1:3:0:0:
9,64,69390,1,2,0:0:0:0:
24,23,69468,1,2,0:0:0:0:
65,5,69547,1,2,0:0:0:0:
105,22,69625,6,0,L|149:18,1,45,0|0,1:0|0:0,0:0:0:0:
224,64,69783,2,0,L|268:60,1,45,0|0,3:0|0:0,0:0:0:0:
364,155,69940,2,0,L|320:151,1,45,0|0,1:0|0:0,0:0:0:0:
245,197,70097,2,0,L|201:193,1,45,0|0,3:0|0:0,0:0:0:0:
104,287,70254,5,2,1:2:0:0:
144,308,70332,1,2,0:0:0:0:
188,318,70411,1,2,0:0:0:0:
232,315,70489,1,2,0:0:0:0:
275,301,70568,1,4,1:3:0:0:
312,275,70646,1,4,0:3:0:0:
340,240,70725,1,4,1:3:0:0:
358,199,70803,1,4,1:3:0:0:
364,155,70882,5,4,1:3:0:0:
368,159,71196,1,0,1:0:0:0:
498,123,71353,1,0,1:0:0:0:
464,253,71510,1,4,1:3:0:0:
484,292,71588,1,2,0:0:0:0:
476,335,71667,1,2,3:2:0:0:
438,358,71745,1,2,0:0:0:0:
394,359,71824,1,2,3:2:0:0:
353,341,71902,1,2,0:0:0:0:
313,319,71981,1,2,3:2:0:0:
270,308,72059,1,2,3:2:0:0:
225,308,72139,6,0,L|135:312,1,90,6|4,0:0|0:0,0:0:0:0:
383,242,72453,2,0,L|294:238,1,90,4|4,0:0|0:0,0:0:0:0:
453,172,72767,2,0,L|448:82,1,90,4|4,0:0|0:0,0:0:0:0:
471,381,73081,2,0,L|476:292,1,90,6|4,0:0|0:0,0:0:0:0:
294,238,73395,6,0,L|201:242,1,90,4|4,0:0|0:0,0:0:0:0:
113,116,73709,2,0,L|24:112,1,90,4|4,0:0|0:0,0:0:0:0:
264,92,74023,2,0,L|259:2,1,90,4|4,0:0|0:0,0:0:0:0:
388,196,74337,1,4,0:0:0:0:
392,192,74652,5,6,0:3:0:0:
404,234,74730,1,4,0:3:0:0:
397,279,74809,1,4,0:3:0:0:
372,316,74887,1,4,0:3:0:0:
334,339,74966,1,4,0:3:0:0:
290,345,75044,1,4,0:3:0:0:
248,331,75123,1,4,0:3:0:0:
215,301,75201,1,4,0:3:0:0:
197,260,75280,5,6,0:3:0:0:
155,245,75358,1,4,0:3:0:0:
111,247,75437,1,4,0:3:0:0:
70,266,75515,1,4,0:3:0:0:
40,299,75594,1,4,0:3:0:0:
45,254,75672,1,4,0:3:0:0:
45,209,75751,1,4,0:3:0:0:
40,164,75829,1,4,0:3:0:0:
29,121,75908,5,6,0:3:0:0:
27,77,75986,1,4,0:3:0:0:
58,45,76065,1,4,0:3:0:0:
101,46,76143,1,4,0:3:0:0:
131,78,76222,5,6,0:3:0:0:
168,103,76300,1,4,0:3:0:0:
210,118,76379,1,4,0:3:0:0:
255,124,76457,1,4,0:3:0:0:
299,118,76536,5,6,0:3:0:0:
321,157,76614,1,4,0:3:0:0:
359,180,76693,1,4,0:3:0:0:
403,182,76771,1,4,0:3:0:0:
443,161,76851,5,6,0:3:0:0:
431,118,76929,1,4,0:3:0:0:
433,73,77008,1,4,0:3:0:0:
450,31,77086,1,4,0:3:0:0:
479,0,77165,6,0,L|387:4,1,90,4|4,0:3|0:3,0:0:0:0:
272,48,77479,1,0,0:0:0:0:
269,101,77557,1,0,0:0:0:0:
266,155,77636,1,0,0:0:0:0:
263,209,77714,1,0,0:0:0:0:
260,263,77793,1,8,0:2:0:0:
128,340,77950,5,0,0:0:0:0:
123,263,78029,1,0,0:0:0:0:
119,187,78107,2,0,P|116:142|126:93,1,90,2|2,0:3|0:3,0:0:0:0:
318,84,78421,5,2,0:2:0:0:
360,69,78499,1,2,0:2:0:0:
405,69,78578,1,2,0:2:0:0:
447,83,78656,1,2,0:2:0:0:
503,142,78735,5,2,0:2:0:0:
492,185,78813,1,2,0:2:0:0:
490,230,78892,1,2,0:2:0:0:
497,275,78970,1,2,0:2:0:0:
450,343,79050,6,0,L|314:335,1,135,2|0,0:3|2:0,0:0:0:0:
250,343,79364,6,2,B|293:355|334:354|366:331|407:330|450:343,1,202.500007724762,2|0,0:0|2:0,0:0:0:0:
509,279,79678,5,6,0:2:0:0:
496,235,79756,1,0,0:0:0:0:
490,191,79835,1,2,0:2:0:0:
490,146,79913,1,0,0:0:0:0:
497,101,79992,1,2,0:2:0:0:
497,57,80070,1,0,0:0:0:0:
472,21,80149,1,2,0:2:0:0:
430,6,80227,1,0,0:0:0:0:
387,18,80306,5,2,0:2:0:0:
346,37,80384,1,2,0:2:0:0:
304,52,80463,1,2,0:2:0:0:
259,61,80541,1,2,0:2:0:0:
215,63,80620,1,2,0:2:0:0:
170,60,80698,1,2,0:2:0:0:
126,50,80777,2,0,L|65:53,1,56.25,2|0,0:2|0:0,0:0:0:0:
9,149,80934,5,2,0:2:0:0:
2,222,81013,1,2,0:2:0:0:
14,293,81091,2,0,P|16:332|11:359,1,56.25,2|0,0:2|0:0,0:0:0:0:
119,310,81248,1,2,0:2:0:0:
191,307,81327,1,2,0:2:0:0:
264,303,81406,2,0,P|296:308|325:303,1,56.25,2|0,0:2|0:0,0:0:0:0:
423,259,81563,5,2,0:2:0:0:
459,233,81641,1,2,0:2:0:0:
483,195,81720,1,2,0:2:0:0:
491,151,81798,1,2,0:2:0:0:
482,107,81877,1,2,0:2:0:0:
457,70,81955,1,2,0:2:0:0:
420,45,82034,1,2,0:2:0:0:
376,36,82112,1,2,0:2:0:0:
333,44,82191,6,0,P|300:51|271:45,1,56.25,2|0,0:2|0:0,0:0:0:0:
166,31,82348,1,2,0:2:0:0:
141,99,82426,1,2,0:2:0:0:
160,169,82505,2,0,L|156:223,1,56.25,2|0,0:2|0:0,0:0:0:0:
132,352,82662,2,0,L|188:349,1,56.25,2|0,0:2|0:0,0:0:0:0:
311,328,82819,5,2,0:2:0:0:
303,283,82897,1,2,0:2:0:0:
302,238,82976,1,2,0:2:0:0:
306,193,83054,1,2,0:2:0:0:
317,150,83133,1,2,0:2:0:0:
331,108,83211,1,2,0:2:0:0:
317,66,83290,1,2,0:2:0:0:
279,43,83368,1,2,0:2:0:0:
235,49,83447,5,2,0:2:0:0:
191,59,83525,1,0,0:0:0:0:
146,60,83604,1,2,0:2:0:0:
101,53,83682,1,0,0:0:0:0:
57,45,83762,1,2,0:2:0:0:
21,69,83841,1,0,0:0:0:0:
12,112,83919,1,2,0:2:0:0:
35,149,83998,1,0,0:0:0:0:
78,160,84076,6,0,L|137:156,1,56.25,2|0,0:2|0:0,0:0:0:0:
232,249,84233,1,2,0:2:0:0:
240,178,84312,2,0,L|246:118,1,56.25,2|0,0:2|0:0,0:0:0:0:
345,29,84469,1,2,0:2:0:0:
274,21,84547,2,0,L|214:14,1,56.25,2|0,0:2|0:0,0:0:0:0:
240,178,84704,5,6,0:2:0:0:
277,202,84782,1,0,0:0:0:0:
321,208,84861,1,2,0:2:0:0:
364,195,84939,1,0,0:0:0:0:
397,165,85018,1,2,0:2:0:0:
434,142,85096,1,0,0:0:0:0:
478,149,85175,1,2,0:2:0:0:
505,184,85253,1,0,0:0:0:0:
502,227,85333,6,0,L|504:282,1,56.25,2|2,0:2|0:2,0:0:0:0:
412,120,85489,2,0,L|414:64,1,56.25,2|2,0:2|0:2,0:0:0:0:
332,272,85646,2,0,L|334:327,1,56.25,2|2,0:2|0:2,0:0:0:0:
242,165,85803,2,0,L|244:109,1,56.25,2|2,0:2|0:2,0:0:0:0:
162,317,85961,6,0,L|106:319,1,56.25,2|0,0:2|0:0,0:0:0:0:
40,204,86118,1,2,0:2:0:0:
40,204,86197,1,2,0:2:0:0:
40,204,86275,2,0,L|37:148,1,56.25,2|0,0:2|0:0,0:0:0:0:
147,93,86432,1,2,0:2:0:0:
147,93,86511,1,2,0:2:0:0:
147,93,86589,5,2,0:2:0:0:
188,75,86667,1,2,0:2:0:0:
232,70,86746,1,2,0:2:0:0:
276,78,86824,1,2,0:2:0:0:
316,100,86903,1,2,0:2:0:0:
358,113,86981,1,2,0:2:0:0:
402,107,87060,1,2,0:2:0:0:
440,82,87138,1,2,0:2:0:0:
464,44,87217,5,6,0:3:0:0:
451,98,87295,1,4,0:3:0:0:
449,154,87374,1,4,0:3:0:0:
458,210,87452,1,4,0:3:0:0:
478,262,87531,1,4,0:3:0:0:
472,318,87609,1,4,0:3:0:0:
437,361,87688,1,4,0:3:0:0:
385,379,87766,1,4,0:3:0:0:
331,366,87845,5,6,0:3:0:0:
282,339,87923,1,4,0:3:0:0:
228,322,88002,1,4,0:3:0:0:
172,316,88080,1,4,0:3:0:0:
116,321,88159,1,4,0:3:0:0:
62,323,88237,1,4,0:3:0:0:
22,285,88316,1,4,0:3:0:0:
22,230,88394,1,4,0:3:0:0:
61,192,88474,6,0,L|59:156,1,28.125,2|0,0:2|2:0,0:0:0:0:
125,98,88631,2,0,L|123:62,1,28.125,2|0,0:2|2:0,0:0:0:0:
189,4,88788,1,2,0:2:0:0:
236,20,88866,1,2,0:2:0:0:
286,28,88945,1,2,0:2:0:0:
337,27,89023,1,2,0:2:0:0:
387,19,89102,6,0,L|385:54,1,28.125,2|0,0:2|2:0,0:0:0:0:
451,113,89259,2,0,L|449:148,1,28.125,2|0,0:2|2:0,0:0:0:0:
423,230,89416,2,0,L|478:227,1,56.25,2|0,0:0|2:0,0:0:0:0:
315,312,89573,2,0,L|259:309,1,56.25,2|0,0:2|2:0,0:0:0:0:
89,230,89731,5,6,0:0:0:0:
159,303,89887,1,2,0:0:0:0:
423,230,90044,1,2,0:0:0:0:
353,303,90200,1,0,0:0:0:0:
493,157,90358,1,0,0:0:0:0:
296,108,90515,1,2,0:0:0:0:
353,303,90673,1,2,0:0:0:0:
395,133,90830,1,2,0:0:0:0:
324,205,90987,5,2,0:0:0:0:
493,157,91144,1,2,0:0:0:0:
489,257,91301,5,0,0:0:0:0:
320,209,91458,1,2,0:0:0:0:
324,309,91615,5,2,0:0:0:0:
493,261,91772,1,2,0:0:0:0:
489,361,91929,5,0,0:0:0:0:
320,313,92086,1,2,0:0:0:0:
151,265,92243,5,0,0:0:0:0:
80,132,92400,1,2,0:0:0:0:
54,280,92557,1,2,0:0:0:0:
165,179,92714,1,2,0:0:0:0:
15,190,92872,1,0,0:0:0:0:
145,74,93029,5,2,0:0:0:0:
54,280,93186,1,2,0:0:0:0:
277,255,93343,1,0,0:0:0:0:
145,74,93500,5,2,0:0:0:0:
304,128,93657,1,2,0:0:0:0:
127,75,93814,5,0,0:0:0:0:
339,130,93971,1,2,0:0:0:0:
109,76,94128,5,2,0:0:0:0:
375,132,94285,1,2,0:0:0:0:
91,77,94442,5,0,0:0:0:0:
411,135,94599,1,2,0:0:0:0:
73,78,94756,6,0,L|68:171,1,90,4|4,0:3|0:3,0:0:0:0:
34,364,95070,2,0,L|29:270,1,90,4|4,0:3|0:3,0:0:0:0:
193,177,95385,2,0,L|286:181,1,90,4|4,0:3|0:3,0:0:0:0:
458,64,95699,2,0,L|368:67,1,90,4|4,0:3|0:3,0:0:0:0:
193,177,96013,6,0,L|188:83,1,90,4|4,0:3|0:3,0:0:0:0:
8,128,96327,2,0,L|101:132,1,90,4|4,0:3|0:3,0:0:0:0:
232,36,96641,2,0,L|138:40,1,90,4|4,0:3|0:3,0:0:0:0:
368,8,96955,2,0,L|363:101,1,90,4|4,0:3|0:3,0:0:0:0:
456,256,97269,5,0,1:0:0:0:
411,258,97347,1,0,1:0:0:0:
366,260,97426,1,0,1:0:0:0:
321,263,97504,1,0,1:0:0:0:
259,324,97584,5,0,3:0:0:0:
226,323,97662,1,0,3:0:0:0:
192,321,97741,1,0,3:0:0:0:
158,319,97819,1,0,3:0:0:0:
92,256,97897,5,2,1:2:0:0:
99,211,97976,1,0,1:0:0:0:
98,166,98054,1,0,1:0:0:0:
88,121,98133,1,0,1:0:0:0:
16,80,98212,5,0,3:0:0:0:
15,113,98290,1,0,3:0:0:0:
13,147,98369,1,0,3:0:0:0:
12,181,98447,1,0,3:0:0:0:
4,266,98527,6,0,L|103:260,1,90,0|2,1:0|0:0,0:0:0:0:
164,316,98840,2,0,L|263:321,1,90,0|2,3:0|0:0,0:0:0:0:
212,148,99154,2,0,L|311:142,1,90,0|2,1:0|0:0,0:0:0:0:
372,198,99467,2,0,L|471:203,1,90,0|2,3:0|0:0,0:0:0:0:
302,143,99783,5,4,0:0:0:0:
200,252,100097,1,0,0:0:0:0:
196,177,100254,1,2,0:0:0:0:
192,103,100411,1,0,0:0:0:0:
188,29,100568,1,2,0:0:0:0:
200,252,100725,1,0,0:0:0:0:
196,177,100882,1,2,0:0:0:0:
192,103,101196,1,2,0:0:0:0:
188,29,101510,1,2,0:0:0:0:
301,143,101824,1,2,0:0:0:0:
370,169,101981,1,0,0:0:0:0:
441,155,102138,1,2,0:0:0:0:
494,104,102295,5,2,0:0:0:0:
498,108,102610,1,0,0:0:0:0:
494,182,102767,1,2,0:0:0:0:
398,277,102924,1,0,0:0:0:0:
394,203,103081,1,2,0:0:0:0:
298,107,103238,1,0,0:0:0:0:
294,181,103396,2,0,L|226:177,1,67.5000025749208,2|0,0:0|0:0,0:0:0:0:
105,171,103709,2,0,L|142:114,1,67.5000025749208,2|0,0:0|0:0,0:0:0:0:
208,13,104023,2,0,L|238:73,1,67.5000025749208,2|0,0:0|0:0,0:0:0:0:
298,185,104337,1,2,0:0:0:0:
281,255,104494,1,0,0:0:0:0:
314,320,104651,1,2,0:0:0:0:
381,348,104808,5,2,0:0:0:0:
298,185,105123,1,0,0:0:0:0:
223,188,105280,1,2,0:0:0:0:
149,192,105437,1,0,0:0:0:0:
75,196,105595,1,2,0:0:0:0:
0,199,105751,1,0,0:0:0:0:
298,185,105908,1,2,0:0:0:0:
149,192,106222,1,2,0:0:0:0:
0,199,106536,1,2,0:0:0:0:
298,185,106851,1,2,0:0:0:0:
292,76,107008,1,0,0:0:0:0:
398,71,107165,1,2,0:0:0:0:
404,179,107322,5,2,0:0:0:0:
190,189,107636,1,0,0:0:0:0:
264,192,107793,1,2,0:0:0:0:
338,196,107950,1,0,0:0:0:0:
412,200,108107,1,2,0:0:0:0:
486,204,108264,1,2,0:0:0:0:
338,196,108421,1,2,0:0:0:0:
334,204,108735,1,2,0:0:0:0:
330,212,109050,1,2,0:0:0:0:
326,220,109364,1,2,0:0:0:0:
253,233,109521,1,0,0:0:0:0:
179,228,109678,1,2,0:0:0:0:
110,204,109835,6,0,L|106:136,1,67.5000025749208,2|0,0:0|0:0,0:0:0:0:
22,49,110149,2,0,L|18:116,1,67.5000025749208,2|2,0:0|0:0,0:0:0:0:
81,285,110463,2,0,L|148:281,1,67.5000025749208,0|2,0:0|0:0,0:0:0:0:
323,345,110777,1,2,0:0:0:0:
323,345,110934,2,0,L|255:341,1,67.5000025749208,2|0,0:0|0:0,0:0:0:0:
393,262,111248,2,0,L|325:258,1,67.5000025749208,2|0,0:0|0:0,0:0:0:0:
463,179,111563,1,2,0:0:0:0:
