osu file format v14

[General]
AudioFilename: Critical Crystal.mp3
AudioLeadIn: 2000
PreviewTime: 23133
Countdown: 0
SampleSet: Normal
StackLeniency: 0.7
Mode: 0
LetterboxInBreaks: 0
WidescreenStoryboard: 0

[Editor]
Bookmarks: 33157
DistanceSpacing: 1
BeatDivisor: 4
GridSize: 4
TimelineZoom: 1.2

[Metadata]
Title:Critical Crystal
TitleUnicode:Critical Crystal
Artist:Seiryu
ArtistUnicode:青龍
Creator:Priti
Version:Beginner
Source:beatmania IIDX
Tags:21st SPADA Blue Dragon Ryu* DANCE SPEED BEMANI Konami wa_ -kevincela- Irreversible Collab Minakami Yuki [Minakami_Yuki] EvilElvis EvilElvisV2 Lust ポップンリズミン pop'n rhythmin
BeatmapID:473208
BeatmapSetID:199535

[Difficulty]
HPDrainRate:2
CircleSize:3
OverallDifficulty:2
ApproachRate:4
SliderMultiplier:0.9
SliderTickRate:1

[Events]
//Background and Video events
0,0,"bg.png",0,0
//Break Periods
2,13281,16787
2,43438,54861
//Storyboard Layer 0 (Background)
//Storyboard Layer 1 (Fail)
//Storyboard Layer 2 (Pass)
//Storyboard Layer 3 (Foreground)
//Storyboard Sound Samples

[TimingPoints]
516,314.13612565445,4,1,0,70,1,0
18107,-100,4,2,0,80,0,0
23133,-100,4,1,0,70,0,0
57060,-100,4,2,0,95,0,0
67112,-100,4,2,0,85,0,0
79678,-100,4,2,0,90,0,1
88474,-100,4,2,0,60,0,1
89730,-100,4,1,0,70,0,0
99782,-100,4,2,0,55,0,0
109835,-100,4,2,0,35,0,0
109913,-100,4,2,0,20,0,0

[Colours]
Combo1 : 119,247,211
Combo2 : 18,136,175
Combo3 : 126,168,245
Combo4 : 49,216,251

[HitObjects]
428,144,516,5,4,0:3:0:0:
252,104,1144,2,0,L|156:114,1,90,8|0,0:0|0:0,0:0:0:0:
72,128,1772,2,0,P|52:208|104:296,1,180,0|2,0:0|0:3,0:0:0:0:
276,308,3029,6,0,P|328:300|380:324,1,90,4|0,0:2|0:0,0:0:0:0:
440,356,3657,1,0,0:0:0:0:
500,188,4285,2,0,L|489:88,1,90
424,36,4913,2,0,P|376:28|336:44,1,90
260,84,5542,6,0,B|221:102|185:94|159:73|123:65|85:84,1,180
12,136,6484,1,0,0:0:0:0:
32,224,6798,2,0,P|40:264|20:312,2,90,0|2|0,0:0|2:0|0:0,0:0:0:0:
136,77,8055,5,4,0:2:0:0:
301,126,8683,2,0,L|392:117,1,90
468,164,9311,2,0,P|472:224|376:300,1,180
212,328,10568,6,0,L|120:318,1,90,0|2,0:0|0:0,0:0:0:0:
56,256,11196,2,0,P|48:196|56:160,1,90,8|4,0:2|0:3,0:0:0:0:
256,192,11824,12,4,13081,0:2:0:0:
124,164,18107,6,0,P|132:120|122:76,1,90,4|2,1:2|0:0,0:0:0:0:
43,117,18735,2,0,P|35:169|51:217,1,90,0|0,1:0|0:0,0:0:0:0:
119,253,19364,1,2,0:0:0:0:
300,236,19992,2,0,L|391:245,1,90,0|2,1:0|0:0,0:0:0:0:
468,204,20620,6,0,P|472:152|460:104,1,90,0|0,1:0|0:0,0:0:0:0:
436,28,21248,1,8,0:0:0:0:
265,86,21877,2,0,B|211:108|177:88|139:68|86:86,1,180,2|4,0:0|0:0,0:0:0:0:
124,264,23133,6,2,L|223:274,1,90,6|2,0:2|0:0,0:0:0:0:
392,292,24076,1,2,0:0:0:0:
420,208,24390,2,0,P|428:152|420:116,1,90,2|0,0:0|0:0,0:0:0:0:
348,68,25018,2,0,L|258:58,1,90,2|0,0:0|0:0,0:0:0:0:
173,87,25646,6,0,P|171:138|202:174,1,90,2|0,0:0|0:0,0:0:0:0:
348,68,26589,1,2,0:0:0:0:
421,120,26903,2,0,B|414:179|414:179|432:237|432:237|426:301,1,180,0|2,0:0|0:0,0:0:0:0:
252,344,28159,6,2,P|204:352|156:332,1,90,6|2,0:2|0:0,0:0:0:0:
104,168,29102,1,2,0:0:0:0:
156,96,29416,2,0,L|255:85,2,90,2|0|2,0:0|0:0|0:0,0:0:0:0:
48,240,30672,6,2,P|124:256|152:244,1,90,2|0,0:0|0:0,0:0:0:0:
312,236,31615,1,2,0:0:0:0:
400,220,31929,1,0,0:0:0:0:
460,52,32557,2,0,P|384:36|356:48,1,90,8|2,0:0|0:0,0:0:0:0:
292,80,33186,6,0,L|109:60,1,180,4|0,0:2|0:0,0:0:0:0:
32,104,34128,2,0,P|26:128|28:156,1,45,0|0,0:0|2:0,0:0:0:0:
90,211,34599,2,0,P|90:233|84:255,1,45,0|0,2:0|0:0,0:0:0:0:
20,318,35070,1,2,0:3:0:0:
196,356,35699,6,0,L|287:346,1,90
374,335,36327,1,0,0:0:0:0:
452,288,36641,2,0,P|456:240|452:224,1,45,0|0,0:0|2:0,0:0:0:0:
392,179,37112,2,0,P|388:131|392:115,1,45,0|0,2:0|0:0,0:0:0:0:
451,70,37583,1,4,2:0:0:0:
272,52,38212,6,0,P|196:48|112:112,1,180,4|0,0:2|0:0,0:0:0:0:
180,276,39468,2,0,P|256:280|340:216,1,180,4|2,0:2|0:2,0:0:0:0:
272,52,40725,6,0,P|220:44|181:53,2,90,4|0|8,0:2|0:0|0:0,0:0:0:0:
344,108,41667,2,0,L|407:101,1,45,8|0,0:0|0:0,0:0:0:0:
447,171,42138,2,0,P|455:223|443:271,2,90
475,85,43081,2,0,L|484:27,1,45,0|4,0:0|0:2,0:0:0:0:
256,192,57060,6,0,P|208:200|164:184,1,90,4|2,0:0|0:0,0:0:0:0:
83,159,57688,1,0,0:0:0:0:
249,89,58316,2,0,P|317:108|357:207,1,180,0|2,0:0|0:0,0:0:0:0:
268,360,59573,6,0,L|172:349,1,90,0|2,0:0|0:0,0:0:0:0:
89,339,60201,1,0,0:0:0:0:
24,172,60830,2,0,P|36:116|60:88,1,90,0|2,0:0|0:0,0:0:0:0:
132,44,61458,2,0,L|221:53,1,90,0|0,0:0|0:0,0:0:0:0:
310,65,62086,5,4,0:0:0:0:
376,232,62714,2,0,P|328:226|288:240,1,90,0|0,0:0|0:0,0:0:0:0:
232,308,63343,2,0,B|112:320|112:320|46:299,1,180,0|2,0:0|0:0,0:0:0:0:
104,128,64599,6,0,L|203:117,1,90,0|2,0:0|0:0,0:0:0:0:
282,104,65227,1,0,0:0:0:0:
440,192,65856,2,0,P|452:240|440:288,2,90,0|2|4,0:0|0:0|0:0,0:0:0:0:
282,104,67112,6,0,L|180:114,2,90,0|0|2,1:0|1:0|0:0,0:0:0:0:
348,271,68369,2,0,P|352:303|344:335,2,45,0|0|0,1:0|0:0|1:0,0:0:0:0:
320,185,68997,1,2,0:0:0:0:
200,52,69625,6,0,P|148:40|103:50,1,90,0|0,1:0|1:0,0:0:0:0:
60,120,70254,2,0,P|112:132|157:122,1,90,2|0,0:0|0:0,0:0:0:0:
237,133,70882,1,0,0:0:0:0:
188,208,71196,2,0,L|198:307,1,90,0|2,0:0|0:0,0:0:0:0:
368,352,72138,6,0,P|404:304|376:192,1,180,4|2,0:0|0:0,0:0:0:0:
324,120,73081,1,4,0:0:0:0:
240,152,73395,2,0,B|195:191|195:191|56:176,1,180
64,360,74652,6,0,L|159:370,1,90,4|0,0:0|0:0,0:0:0:0:
217,305,75280,2,0,L|312:315,1,90,4|0,0:0|0:0,0:0:0:0:
370,250,75908,1,4,0:0:0:0:
254,111,76536,2,0,B|209:106|209:106|165:87,1,90,4|2,0:0|0:0,0:0:0:0:
77,81,77165,6,0,P|79:58|89:38,2,45,0|0|2,1:0|1:0|0:3,0:0:0:0:
114,162,77793,2,0,L|124:257,1,90,8|2,0:0|3:2,0:0:0:0:
180,320,78421,2,0,B|297:330|240:304|365:323,1,180,2|6,1:3|0:0,0:0:0:0:
433,271,79364,1,2,1:0:0:0:
413,185,79678,6,0,P|421:142|409:99,2,90,0|0|0,1:0|0:0|0:0,0:0:0:0:
337,234,80620,1,0,0:0:0:0:
332,144,80934,2,0,L|152:125,1,180,0|2,1:0|0:0,0:0:0:0:
181,303,82191,6,0,L|272:312,1,90,0|2,1:0|0:0,0:0:0:0:
359,321,82819,1,2,0:0:0:0:
389,236,83133,1,0,0:0:0:0:
420,151,83447,2,0,P|410:99|376:64,2,90,0|2|2,1:0|0:0|0:0,0:0:0:0:
359,321,84704,6,0,L|263:310,1,90,4|0,1:2|0:0,0:0:0:0:
181,303,85332,1,2,0:0:0:0:
56,172,85960,2,0,P|48:112|136:40,1,180,0|2,1:0|0:0,0:0:0:0:
236,188,87217,6,0,B|355:200|355:200|403:164,1,180,0|2,1:0|1:2,0:0:0:0:
326,117,88159,1,0,1:0:0:0:
240,88,88474,2,0,P|176:107|154:137,2,90,2|2|2,1:0|1:0|0:0,0:0:0:0:
403,164,89730,6,0,P|408:220|392:264,1,90,6|2,0:0|0:0,0:0:0:0:
236,328,90672,1,2,0:0:0:0:
156,368,90987,2,0,L|52:357,2,90,2|0|2,0:0|0:0|0:0,0:0:0:0:
316,288,92243,5,2,0:0:0:0:
280,208,92557,2,0,P|276:120|354:70,1,180,2|0,0:0|0:0,0:0:0:0:
356,161,93500,2,0,L|177:76,1,180,2|2,0:0|0:0,0:0:0:0:
40,180,94756,6,0,P|36:240|52:284,1,90,4|0,0:2|0:0,0:0:0:0:
100,340,95385,2,0,L|195:329,1,90
278,315,96013,1,0,0:0:0:0:
432,220,96641,2,0,P|436:160|420:116,1,90
256,192,97269,12,0,98526,1:0:0:0:
372,120,99782,6,0,P|380:176|364:220,1,90,4|2,0:0|0:0,0:0:0:0:
328,288,100411,1,0,0:0:0:0:
244,320,100725,2,0,L|188:314,1,45,0|2,0:0|0:0,0:0:0:0:
124,268,101196,2,0,L|113:168,1,90,0|2,0:0|0:0,0:0:0:0:
320,84,102296,6,0,P|376:72|424:96,1,90,0|2,0:0|0:0,0:0:0:0:
470,145,102924,1,0,0:0:0:0:
440,228,103238,2,0,P|437:247|441:273,1,45,0|2,0:0|0:0,0:0:0:0:
380,332,103709,2,0,L|288:322,1,90,0|2,0:0|0:0,0:0:0:0:
68,276,104809,6,0,P|60:216|135:112,1,180
199,164,105751,2,0,P|239:168|255:164,1,45,0|2,0:0|0:0,0:0:0:0:
332,148,106222,1,0,0:0:0:0:
420,124,106536,1,2,0:0:0:0:
199,164,107322,6,0,P|159:183|114:181,1,90
55,113,107950,2,0,P|63:190|38:247,1,135,0|2,0:0|0:0,0:0:0:0:
15,327,108735,2,0,L|114:337,1,90,0|2,0:0|0:0,0:0:0:0:
324,284,109835,5,0,0:0:0:0:
256,192,109992,12,2,111563,0:0:0:0:
