osu file format v12

[General]
AudioFilename: 10.. - Critical Crystal.mp3
AudioLeadIn: 0
PreviewTime: 30635
Countdown: 0
SampleSet: Soft
StackLeniency: 0.7
Mode: 3
LetterboxInBreaks: 0
SpecialStyle: 0
WidescreenStoryboard: 1

[Editor]
DistanceSpacing: 0.8
BeatDivisor: 4
GridSize: 8

[Metadata]
Title:Critical Crystal
TitleUnicode:Critical Crystal
Artist:Seiryu
ArtistUnicode:青龍
Creator:Hanyuu
Version:7K Normal
Source:beatmania IIDX
Tags:21 Spada
BeatmapID:370254
BeatmapSetID:138534

[Difficulty]
HPDrainRate:9
CircleSize:7
OverallDifficulty:9
ApproachRate:5
SliderMultiplier:1.4
SliderTickRate:1

[Events]
//Background and Video events
0,0,"kamui-guardian-seiryu1600.jpg",0,0
//Break Periods
2,43400,55822
//Storyboard Layer 0 (Background)
//Storyboard Layer 1 (Fail)
//Storyboard Layer 2 (Pass)
//Storyboard Layer 3 (Foreground)
//Storyboard Sound Samples
//Background Colour Transformations
3,100,163,162,255

[TimingPoints]
478,314.13612565445,4,2,0,5,1,0

[HitObjects]
36,192,478,1,0,0:0:0:0:
36,192,635,1,0,0:0:0:0:
182,192,1106,1,0,0:0:0:0:
256,192,1420,1,0,0:0:0:0:
256,192,1577,1,0,0:0:0:0:
109,192,1734,1,0,0:0:0:0:
109,192,2048,1,0,0:0:0:0:
36,192,2362,1,0,0:0:0:0:
475,192,2676,1,0,0:0:0:0:
182,192,2991,1,0,0:0:0:0:
182,192,3305,1,0,0:0:0:0:
329,192,3619,1,0,0:0:0:0:
329,192,3776,1,0,0:0:0:0:
256,192,3933,1,0,0:0:0:0:
329,192,4090,1,0,0:0:0:0:
109,192,4247,1,0,0:0:0:0:
109,192,4561,1,0,0:0:0:0:
256,192,4875,1,0,0:0:0:0:
256,192,5032,1,0,0:0:0:0:
329,192,5190,128,0,5504:0:0:0:0:
109,192,5504,1,0,0:0:0:0:
109,192,5661,1,0,0:0:0:0:
256,192,5818,1,0,0:0:0:0:
256,192,5975,1,0,0:0:0:0:
329,192,6053,1,0,0:0:0:0:
182,192,6289,1,0,0:0:0:0:
329,192,6446,1,0,0:0:0:0:
402,192,6603,1,0,0:0:0:0:
329,192,6760,1,0,0:0:0:0:
329,192,6917,1,0,0:0:0:0:
475,192,7074,1,0,0:0:0:0:
329,192,7231,1,0,0:0:0:0:
402,192,7388,1,0,0:0:0:0:
182,192,7546,1,0,0:0:0:0:
256,192,7703,1,0,0:0:0:0:
109,192,7860,1,0,0:0:0:0:
182,192,8017,1,0,0:0:0:0:
329,192,8017,1,0,0:0:0:0:
182,192,8331,1,0,0:0:0:0:
329,192,8331,1,0,0:0:0:0:
402,192,8645,1,0,0:0:0:0:
402,192,8802,1,0,0:0:0:0:
402,192,8959,1,0,0:0:0:0:
402,192,9116,1,0,0:0:0:0:
182,192,9273,1,0,0:0:0:0:
256,192,9509,1,0,0:0:0:0:
329,192,9587,1,0,0:0:0:0:
109,192,9902,1,0,0:0:0:0:
109,192,10059,1,0,0:0:0:0:
109,192,10216,128,0,10530:0:0:0:0:
182,192,10530,1,0,0:0:0:0:
402,192,10687,1,0,0:0:0:0:
256,192,10765,1,0,0:0:0:0:
182,192,11001,128,0,11158:0:0:0:0:
329,192,11315,1,0,0:0:0:0:
402,192,11394,1,0,0:0:0:0:
182,192,11629,1,0,0:0:0:0:
329,192,11786,1,0,0:0:0:0:
329,192,11943,1,0,0:0:0:0:
329,192,12101,1,0,0:0:0:0:
402,192,12258,1,0,0:0:0:0:
329,192,12336,1,0,0:0:0:0:
182,192,12415,1,0,0:0:0:0:
36,192,12572,1,0,0:0:0:0:
182,192,12729,1,0,0:0:0:0:
329,192,13043,1,0,0:0:0:0:
329,192,13357,1,0,0:0:0:0:
182,192,13514,1,0,0:0:0:0:
109,192,13828,1,0,0:0:0:0:
256,192,13985,1,0,0:0:0:0:
402,192,14142,1,0,0:0:0:0:
36,192,14299,1,0,0:0:0:0:
182,192,14457,1,0,0:0:0:0:
329,192,14614,1,0,0:0:0:0:
402,192,14771,1,0,0:0:0:0:
109,192,14928,1,0,0:0:0:0:
182,192,15085,1,0,0:0:0:0:
329,192,15242,1,0,0:0:0:0:
475,192,15399,1,0,0:0:0:0:
256,192,15556,1,0,0:0:0:0:
256,192,15870,1,0,0:0:0:0:
109,192,16027,1,0,0:0:0:0:
36,192,16341,1,0,0:0:0:0:
182,192,16498,1,0,0:0:0:0:
329,192,16656,1,0,0:0:0:0:
109,192,16813,1,0,0:0:0:0:
182,192,16970,1,0,0:0:0:0:
329,192,17127,1,0,0:0:0:0:
475,192,17284,1,0,0:0:0:0:
256,192,17441,1,0,0:0:0:0:
402,192,17598,1,0,0:0:0:0:
256,192,17755,1,0,0:0:0:0:
109,192,17912,1,0,0:0:0:0:
36,192,18069,1,0,0:0:0:0:
256,192,18069,1,0,0:0:0:0:
329,192,18226,1,0,0:0:0:0:
475,192,18383,1,0,0:0:0:0:
329,192,18540,1,0,0:0:0:0:
36,192,18854,1,0,0:0:0:0:
182,192,19012,1,0,0:0:0:0:
329,192,19169,1,0,0:0:0:0:
109,192,19326,1,0,0:0:0:0:
256,192,19483,1,0,0:0:0:0:
402,192,19640,1,0,0:0:0:0:
256,192,19797,1,0,0:0:0:0:
329,192,19954,1,0,0:0:0:0:
182,192,20111,1,0,0:0:0:0:
36,192,20268,1,0,0:0:0:0:
182,192,20425,1,0,0:0:0:0:
256,192,20582,1,0,0:0:0:0:
182,192,20739,1,0,0:0:0:0:
256,192,20896,1,0,0:0:0:0:
329,192,21053,1,0,0:0:0:0:
402,192,21210,1,0,0:0:0:0:
256,192,21368,1,0,0:0:0:0:
329,192,21525,1,0,0:0:0:0:
402,192,21682,1,0,0:0:0:0:
36,192,21839,1,0,0:0:0:0:
182,192,21996,1,0,0:0:0:0:
256,192,22153,1,0,0:0:0:0:
402,192,22310,1,0,0:0:0:0:
256,192,22467,1,0,0:0:0:0:
329,192,22624,1,0,0:0:0:0:
402,192,22781,1,0,0:0:0:0:
475,192,22938,1,0,0:0:0:0:
182,192,23095,1,0,0:0:0:0:
256,192,23409,1,0,0:0:0:0:
109,192,23567,1,0,0:0:0:0:
329,192,23881,1,0,0:0:0:0:
182,192,24038,1,0,0:0:0:0:
256,192,24352,1,0,0:0:0:0:
329,192,24666,1,0,0:0:0:0:
402,192,24980,1,0,0:0:0:0:
329,192,25294,1,0,0:0:0:0:
182,192,25608,1,0,0:0:0:0:
256,192,25922,1,0,0:0:0:0:
109,192,26080,1,0,0:0:0:0:
329,192,26394,1,0,0:0:0:0:
182,192,26551,1,0,0:0:0:0:
256,192,26865,1,0,0:0:0:0:
402,192,27179,1,0,0:0:0:0:
475,192,27493,1,0,0:0:0:0:
329,192,27807,1,0,0:0:0:0:
109,192,28121,1,0,0:0:0:0:
182,192,28436,1,0,0:0:0:0:
36,192,28593,1,0,0:0:0:0:
256,192,28907,1,0,0:0:0:0:
109,192,29064,1,0,0:0:0:0:
182,192,29378,1,0,0:0:0:0:
329,192,29692,1,0,0:0:0:0:
402,192,30006,1,0,0:0:0:0:
329,192,30320,1,0,0:0:0:0:
109,192,30635,1,0,0:0:0:0:
182,192,30949,1,0,0:0:0:0:
36,192,31106,1,0,0:0:0:0:
256,192,31420,1,0,0:0:0:0:
109,192,31577,1,0,0:0:0:0:
182,192,31891,1,0,0:0:0:0:
256,192,32205,1,0,0:0:0:0:
329,192,32519,1,0,0:0:0:0:
402,192,32834,1,0,0:0:0:0:
475,192,32991,1,0,0:0:0:0:
329,192,33148,1,0,0:0:0:0:
182,192,33462,1,0,0:0:0:0:
256,192,33619,1,0,0:0:0:0:
109,192,33933,1,0,0:0:0:0:
182,192,34090,1,0,0:0:0:0:
256,192,34247,1,0,0:0:0:0:
182,192,34561,1,0,0:0:0:0:
256,192,34718,1,0,0:0:0:0:
182,192,34875,1,0,0:0:0:0:
329,192,35032,1,0,0:0:0:0:
109,192,35190,128,0,35268:0:0:0:0:
402,192,35347,1,0,0:0:0:0:
329,192,35504,1,0,0:0:0:0:
182,192,35661,1,0,0:0:0:0:
402,192,35975,1,0,0:0:0:0:
329,192,36132,1,0,0:0:0:0:
182,192,36446,1,0,0:0:0:0:
256,192,36603,1,0,0:0:0:0:
329,192,36760,1,0,0:0:0:0:
329,192,37074,1,0,0:0:0:0:
182,192,37231,1,0,0:0:0:0:
36,192,37388,1,0,0:0:0:0:
402,192,37546,128,0,37624:0:0:0:0:
256,192,37860,1,0,0:0:0:0:
109,192,38017,1,0,0:0:0:0:
402,192,38174,1,0,0:0:0:0:
475,192,38488,1,0,0:0:0:0:
329,192,38645,1,0,0:0:0:0:
256,192,38959,1,0,0:0:0:0:
329,192,39116,1,0,0:0:0:0:
475,192,39273,1,0,0:0:0:0:
182,192,39587,1,0,0:0:0:0:
256,192,39745,1,0,0:0:0:0:
329,192,39902,1,0,0:0:0:0:
109,192,40059,128,0,40137:0:0:0:0:
402,192,40216,1,0,0:0:0:0:
256,192,40373,1,0,0:0:0:0:
109,192,40530,1,0,0:0:0:0:
36,192,40687,1,0,0:0:0:0:
109,192,41001,1,0,0:0:0:0:
182,192,41158,1,0,0:0:0:0:
109,192,41472,1,0,0:0:0:0:
182,192,41629,1,0,0:0:0:0:
329,192,41786,1,0,0:0:0:0:
182,192,42101,1,0,0:0:0:0:
256,192,42415,1,0,0:0:0:0:
402,192,42729,1,0,0:0:0:0:
475,192,43043,1,0,0:0:0:0:
402,192,43200,1,0,0:0:0:0:
182,192,57022,5,0,0:0:0:0:
329,192,57336,1,0,0:0:0:0:
256,192,57650,1,0,0:0:0:0:
402,192,57729,1,0,0:0:0:0:
256,192,57886,1,0,0:0:0:0:
109,192,58043,1,0,0:0:0:0:
256,192,58121,1,0,0:0:0:0:
109,192,58279,1,0,0:0:0:0:
256,192,58593,1,0,0:0:0:0:
182,192,58907,1,0,0:0:0:0:
329,192,58985,1,0,0:0:0:0:
182,192,59142,1,0,0:0:0:0:
36,192,59299,1,0,0:0:0:0:
182,192,59378,1,0,0:0:0:0:
182,192,59535,1,0,0:0:0:0:
329,192,59849,1,0,0:0:0:0:
256,192,60163,1,0,0:0:0:0:
402,192,60242,1,0,0:0:0:0:
256,192,60399,1,0,0:0:0:0:
109,192,60556,1,0,0:0:0:0:
256,192,60634,1,0,0:0:0:0:
329,192,60792,1,0,0:0:0:0:
182,192,61106,1,0,0:0:0:0:
256,192,61420,1,0,0:0:0:0:
109,192,61499,1,0,0:0:0:0:
256,192,61656,1,0,0:0:0:0:
402,192,61813,1,0,0:0:0:0:
256,192,61891,1,0,0:0:0:0:
109,192,62048,1,0,0:0:0:0:
256,192,62362,1,0,0:0:0:0:
109,192,62676,1,0,0:0:0:0:
256,192,62755,1,0,0:0:0:0:
36,192,62912,1,0,0:0:0:0:
182,192,63069,1,0,0:0:0:0:
329,192,63148,1,0,0:0:0:0:
182,192,63305,1,0,0:0:0:0:
329,192,63619,1,0,0:0:0:0:
182,192,63933,1,0,0:0:0:0:
329,192,64012,1,0,0:0:0:0:
109,192,64169,1,0,0:0:0:0:
256,192,64326,1,0,0:0:0:0:
402,192,64404,1,0,0:0:0:0:
109,192,64561,1,0,0:0:0:0:
256,192,64875,1,0,0:0:0:0:
109,192,65189,1,0,0:0:0:0:
256,192,65268,1,0,0:0:0:0:
36,192,65425,1,0,0:0:0:0:
182,192,65582,1,0,0:0:0:0:
329,192,65661,1,0,0:0:0:0:
329,192,65818,1,0,0:0:0:0:
402,192,66132,1,0,0:0:0:0:
329,192,66446,1,0,0:0:0:0:
182,192,66525,1,0,0:0:0:0:
402,192,66682,1,0,0:0:0:0:
256,192,66839,1,0,0:0:0:0:
402,192,66917,1,0,0:0:0:0:
109,192,67074,1,0,0:0:0:0:
256,192,67231,1,0,0:0:0:0:
109,192,67388,1,0,0:0:0:0:
256,192,67546,1,0,0:0:0:0:
402,192,67703,1,0,0:0:0:0:
256,192,67781,1,0,0:0:0:0:
109,192,67938,1,0,0:0:0:0:
256,192,68017,1,0,0:0:0:0:
402,192,68174,1,0,0:0:0:0:
475,192,68331,1,0,0:0:0:0:
182,192,68331,1,0,0:0:0:0:
36,192,68488,1,0,0:0:0:0:
182,192,68645,1,0,0:0:0:0:
36,192,68802,1,0,0:0:0:0:
256,192,68959,1,0,0:0:0:0:
329,192,69038,1,0,0:0:0:0:
329,192,69195,1,0,0:0:0:0:
329,192,69430,1,0,0:0:0:0:
182,192,69587,1,0,0:0:0:0:
475,192,69587,1,0,0:0:0:0:
36,192,69745,1,0,0:0:0:0:
182,192,69902,1,0,0:0:0:0:
329,192,70059,1,0,0:0:0:0:
475,192,70216,1,0,0:0:0:0:
329,192,70294,1,0,0:0:0:0:
182,192,70451,1,0,0:0:0:0:
329,192,70530,1,0,0:0:0:0:
475,192,70687,1,0,0:0:0:0:
402,192,70844,1,0,0:0:0:0:
182,192,70844,1,0,0:0:0:0:
109,192,71158,1,0,0:0:0:0:
329,192,71158,1,0,0:0:0:0:
256,192,71315,1,0,0:0:0:0:
182,192,71472,1,0,0:0:0:0:
402,192,71472,1,0,0:0:0:0:
109,192,71786,1,0,0:0:0:0:
329,192,71943,1,0,0:0:0:0:
109,192,71943,1,0,0:0:0:0:
329,192,72101,1,0,0:0:0:0:
182,192,72101,1,0,0:0:0:0:
329,192,72258,1,0,0:0:0:0:
329,192,72415,1,0,0:0:0:0:
329,192,72572,1,0,0:0:0:0:
329,192,72729,1,0,0:0:0:0:
329,192,72886,1,0,0:0:0:0:
329,192,73043,1,0,0:0:0:0:
329,192,73200,1,0,0:0:0:0:
109,192,73200,1,0,0:0:0:0:
256,192,73357,1,0,0:0:0:0:
109,192,73357,1,0,0:0:0:0:
256,192,73514,1,0,0:0:0:0:
256,192,73671,1,0,0:0:0:0:
256,192,73828,1,0,0:0:0:0:
36,192,73985,1,0,0:0:0:0:
36,192,74142,1,0,0:0:0:0:
36,192,74299,1,0,0:0:0:0:
402,192,74614,1,0,0:0:0:0:
182,192,74614,1,0,0:0:0:0:
256,192,74928,1,0,0:0:0:0:
402,192,75242,1,0,0:0:0:0:
329,192,75242,1,0,0:0:0:0:
109,192,75320,1,0,0:0:0:0:
182,192,75477,1,0,0:0:0:0:
36,192,75635,1,0,0:0:0:0:
182,192,75713,1,0,0:0:0:0:
329,192,75870,1,0,0:0:0:0:
256,192,75870,1,0,0:0:0:0:
182,192,76184,1,0,0:0:0:0:
36,192,76184,1,0,0:0:0:0:
329,192,76420,1,0,0:0:0:0:
256,192,76498,1,0,0:0:0:0:
36,192,76498,1,0,0:0:0:0:
402,192,76734,1,0,0:0:0:0:
36,192,76813,1,0,0:0:0:0:
475,192,76970,1,0,0:0:0:0:
329,192,77127,1,0,0:0:0:0:
182,192,77127,1,0,0:0:0:0:
256,192,77284,1,0,0:0:0:0:
402,192,77441,1,0,0:0:0:0:
182,192,77519,1,0,0:0:0:0:
256,192,77598,1,0,0:0:0:0:
402,192,77755,1,0,0:0:0:0:
475,192,77755,1,0,0:0:0:0:
182,192,77912,1,0,0:0:0:0:
256,192,77991,1,0,0:0:0:0:
402,192,78069,1,0,0:0:0:0:
329,192,78226,1,0,0:0:0:0:
109,192,78383,1,0,0:0:0:0:
256,192,78540,1,0,0:0:0:0:
329,192,78619,1,0,0:0:0:0:
109,192,78697,1,0,0:0:0:0:
36,192,78854,1,0,0:0:0:0:
182,192,78933,1,0,0:0:0:0:
329,192,79012,1,0,0:0:0:0:
256,192,79326,1,0,0:0:0:0:
182,192,79640,1,0,0:0:0:0:
109,192,79875,1,0,0:0:0:0:
329,192,79954,1,0,0:0:0:0:
182,192,80111,1,0,0:0:0:0:
256,192,80268,1,0,0:0:0:0:
36,192,80504,1,0,0:0:0:0:
182,192,80582,1,0,0:0:0:0:
109,192,80739,1,0,0:0:0:0:
402,192,80896,1,0,0:0:0:0:
36,192,81132,1,0,0:0:0:0:
256,192,81210,1,0,0:0:0:0:
182,192,81368,1,0,0:0:0:0:
329,192,81525,1,0,0:0:0:0:
256,192,81760,1,0,0:0:0:0:
402,192,81839,1,0,0:0:0:0:
256,192,81996,1,0,0:0:0:0:
36,192,82153,1,0,0:0:0:0:
109,192,82388,1,0,0:0:0:0:
329,192,82467,1,0,0:0:0:0:
182,192,82624,1,0,0:0:0:0:
402,192,82781,1,0,0:0:0:0:
182,192,83017,1,0,0:0:0:0:
329,192,83095,1,0,0:0:0:0:
109,192,83252,1,0,0:0:0:0:
256,192,83409,1,0,0:0:0:0:
109,192,83645,1,0,0:0:0:0:
329,192,83724,1,0,0:0:0:0:
256,192,83881,1,0,0:0:0:0:
402,192,84038,1,0,0:0:0:0:
329,192,84273,1,0,0:0:0:0:
475,192,84352,1,0,0:0:0:0:
475,192,84509,1,0,0:0:0:0:
182,192,84666,1,0,0:0:0:0:
109,192,84901,1,0,0:0:0:0:
329,192,84980,1,0,0:0:0:0:
182,192,85137,1,0,0:0:0:0:
256,192,85294,1,0,0:0:0:0:
36,192,85530,1,0,0:0:0:0:
182,192,85608,1,0,0:0:0:0:
109,192,85765,1,0,0:0:0:0:
402,192,85922,1,0,0:0:0:0:
36,192,86158,1,0,0:0:0:0:
256,192,86236,1,0,0:0:0:0:
182,192,86394,1,0,0:0:0:0:
329,192,86551,1,0,0:0:0:0:
256,192,86786,1,0,0:0:0:0:
402,192,86865,1,0,0:0:0:0:
256,192,87022,1,0,0:0:0:0:
36,192,87179,1,0,0:0:0:0:
109,192,87414,1,0,0:0:0:0:
329,192,87493,1,0,0:0:0:0:
182,192,87650,1,0,0:0:0:0:
402,192,87807,1,0,0:0:0:0:
182,192,88043,1,0,0:0:0:0:
329,192,88121,1,0,0:0:0:0:
109,192,88278,1,0,0:0:0:0:
329,192,88436,1,0,0:0:0:0:
256,192,88593,1,0,0:0:0:0:
402,192,88750,1,0,0:0:0:0:
109,192,88828,1,0,0:0:0:0:
402,192,88907,1,0,0:0:0:0:
109,192,88985,1,0,0:0:0:0:
256,192,89064,1,0,0:0:0:0:
256,192,89221,1,0,0:0:0:0:
109,192,89378,1,0,0:0:0:0:
109,192,89535,1,0,0:0:0:0:
329,192,89692,1,0,0:0:0:0:
182,192,89849,1,0,0:0:0:0:
329,192,90006,1,0,0:0:0:0:
109,192,90163,1,0,0:0:0:0:
402,192,90477,1,0,0:0:0:0:
256,192,90635,1,0,0:0:0:0:
402,192,90792,1,0,0:0:0:0:
109,192,90949,1,0,0:0:0:0:
256,192,91106,1,0,0:0:0:0:
329,192,91263,1,0,0:0:0:0:
402,192,91420,1,0,0:0:0:0:
329,192,91577,1,0,0:0:0:0:
182,192,91734,1,0,0:0:0:0:
109,192,91891,1,0,0:0:0:0:
182,192,92048,1,0,0:0:0:0:
475,192,92205,1,0,0:0:0:0:
329,192,92362,1,0,0:0:0:0:
475,192,92519,1,0,0:0:0:0:
256,192,92676,1,0,0:0:0:0:
182,192,92991,1,0,0:0:0:0:
36,192,93148,1,0,0:0:0:0:
182,192,93305,1,0,0:0:0:0:
36,192,93462,1,0,0:0:0:0:
109,192,93619,1,0,0:0:0:0:
256,192,93776,1,0,0:0:0:0:
402,192,93933,1,0,0:0:0:0:
475,192,94090,1,0,0:0:0:0:
402,192,94247,1,0,0:0:0:0:
256,192,94404,1,0,0:0:0:0:
109,192,94561,1,0,0:0:0:0:
475,192,94718,1,0,0:0:0:0:
329,192,94875,1,0,0:0:0:0:
475,192,95032,1,0,0:0:0:0:
329,192,95190,1,0,0:0:0:0:
256,192,95504,1,0,0:0:0:0:
109,192,95661,1,0,0:0:0:0:
256,192,95818,1,0,0:0:0:0:
109,192,95975,1,0,0:0:0:0:
182,192,96132,1,0,0:0:0:0:
256,192,96289,1,0,0:0:0:0:
329,192,96446,1,0,0:0:0:0:
402,192,96603,1,0,0:0:0:0:
329,192,96760,1,0,0:0:0:0:
256,192,96917,1,0,0:0:0:0:
182,192,97074,1,0,0:0:0:0:
475,192,97231,1,0,0:0:0:0:
329,192,97310,1,0,0:0:0:0:
182,192,97388,1,0,0:0:0:0:
329,192,97546,1,0,0:0:0:0:
182,192,97703,1,0,0:0:0:0:
36,192,97860,1,0,0:0:0:0:
182,192,97938,1,0,0:0:0:0:
329,192,98017,1,0,0:0:0:0:
182,192,98174,1,0,0:0:0:0:
329,192,98331,1,0,0:0:0:0:
256,192,98488,1,0,0:0:0:0:
109,192,98645,1,0,0:0:0:0:
329,192,98802,1,0,0:0:0:0:
36,192,98959,1,0,0:0:0:0:
182,192,98959,1,0,0:0:0:0:
256,192,99116,1,0,0:0:0:0:
329,192,99273,1,0,0:0:0:0:
402,192,99430,1,0,0:0:0:0:
109,192,99430,1,0,0:0:0:0:
475,192,99587,1,0,0:0:0:0:
256,192,99587,1,0,0:0:0:0:
182,192,99745,1,0,0:0:0:0:
