osu file format v9

[General]
AudioFilename: REFLEC BEAT limelight - Castle on the Moon - YouTube.mp3
AudioLeadIn: 0
PreviewTime: -1
Countdown: 0
SampleSet: Soft
StackLeniency: 0.3
Mode: 0
LetterboxInBreaks: 0

[Editor]
Bookmarks: 13050,18076,38181,48233,73364,93469
DistanceSpacing: 0.2
BeatDivisor: 4
GridSize: 4

[Metadata]
Title:Castle on the Moon
Artist:Seiryu
Creator:pekos
Version:Extra
Source:REFLEC BEAT
Tags:

[Difficulty]
HPDrainRate:7
CircleSize:4
OverallDifficulty:8
ApproachRate:9
SliderMultiplier:1.4
SliderTickRate:1

[Events]
//Background and Video events
0,0,"wallpaper-113436.jpg"
//Break Periods
2,58485,67738
//Storyboard Layer 0 (Background)
//Storyboard Layer 1 (Fail)
//Storyboard Layer 2 (Pass)
//Storyboard Layer 3 (Foreground)
//Storyboard Sound Samples
//Background Colour Transformations
3,100,163,162,255

[TimingPoints]
2998,314.13612565445,4,2,0,79,1,0

[Colours]
Combo1 : 200,0,200
Combo2 : 0,200,0
Combo3 : 170,170,255

[HitObjects]
192,80,18076,1,0
320,80,18233,1,0
256,192,18390,1,8
256,320,18547,1,0
328,192,18704,2,0,B|400:192,1,70
184,192,19018,2,0,B|112:192,1,70,8|0
256,336,19333,5,0
384,336,19490,1,0
432,216,19647,1,8
352,120,19804,1,8
256,40,19961,1,0
160,120,20118,1,0
80,216,20275,1,8
128,336,20432,1,0
384,336,20589,6,0,B|424:336|464:336,1,70,0|0
128,48,20903,2,0,B|88:48|48:48,1,70,8|0
384,48,21217,2,0,B|424:48|464:48,1,70,0|0
128,336,21532,2,0,B|88:336|48:336,1,70,8|0
256,72,21846,5,12
256,196,22003,1,0
256,320,22160,1,4
128,320,22317,1,0
128,196,22474,1,8
256,196,22631,1,0
380,196,22788,1,8
380,320,22945,1,12
128,320,23102,5,0
128,320,23259,1,0
128,72,23416,1,8
128,72,23573,1,0
380,68,23730,1,0
380,68,23888,1,0
380,320,24045,1,8
380,320,24202,1,0
256,80,24359,6,0,B|256:176|152:176,1,140,0|8
256,80,24830,1,8
256,304,24987,6,0,B|256:208|360:208,1,140,0|8
256,304,25458,1,0
400,48,25615,6,0,B|440:48|440:48|448:88,3,70,0|0|8|0
112,336,26244,2,0,B|72:336|72:336|64:296,3,70,0|0|8|0
136,192,26872,5,0
384,192,27186,1,0
80,192,27500,1,0
440,192,27814,1,0
208,80,28128,6,0,B|136:80|136:80|96:136,1,140,0|8
208,192,28600,1,0
304,304,28757,2,0,B|376:304|376:304|416:248,1,140,0|8
304,192,29229,1,0
416,120,29385,5,0
416,120,29542,1,0
96,264,29699,1,8
96,264,29856,1,0
416,216,30013,1,0
320,136,30170,1,0
192,136,30327,1,8
96,216,30484,1,0
256,192,30641,6,0,B|256:112,1,70
256,192,30956,2,0,B|256:264,1,70,8|0
256,120,31270,2,0,B|256:48,1,70
256,264,31584,2,0,B|256:336,1,70,8|0
448,320,31898,5,0
448,192,32055,1,0
448,64,32212,1,8
320,64,32369,1,0
192,64,32526,1,0
64,64,32683,1,0
64,192,32840,1,8
64,320,32997,1,0
256,80,33155,6,0,B|256:0,2,70,0|0|8
256,192,33626,1,0
256,304,33783,2,0,B|256:384,2,70,0|0|8
256,192,34254,1,0
384,192,34411,5,0
256,64,34568,1,0
128,192,34725,1,8
256,320,34882,1,0
346,101,35039,1,0
165,101,35196,1,0
165,282,35353,1,8
346,282,35510,1,0
444,132,35668,5,0
436,112,35746,1,0
428,92,35825,1,0
420,72,35903,1,0
412,52,35982,2,0,B|340:28,1,70,8|0
68,252,36296,5,0
76,272,36374,1,0
84,292,36453,1,0
92,312,36531,1,0
100,332,36610,2,0,B|172:356,1,70,8|0
388,348,36924,5,0
392,336,37238,1,0
396,324,37552,1,0
400,312,37867,1,0
496,256,38181,5,0
460,236,38259,1,0
420,220,38338,1,0
380,220,38416,1,0
340,236,38495,1,0
308,260,38573,1,0
280,292,38652,1,0
244,312,38730,1,0
200,316,38809,1,0
160,300,38888,1,0
124,276,38966,1,0
96,244,39045,1,0
88,204,39123,1,0
92,160,39202,1,0
112,124,39280,1,0
140,92,39359,1,0
176,68,39437,5,2
220,64,39516,1,0
260,80,39594,1,0
288,112,39673,1,0
288,152,39751,1,0
264,188,39830,1,0
224,204,39908,1,0
180,204,39987,1,0
140,212,40066,1,0
104,232,40144,1,0
68,256,40223,1,0
52,296,40301,1,0
64,336,40380,1,0
100,356,40458,1,0
140,368,40537,1,0
180,364,40615,1,0
220,360,40694,5,2
256,340,40772,1,0
284,308,40851,1,0
308,272,40929,1,0
344,248,41008,1,0
388,248,41087,1,0
428,232,41165,1,0
452,196,41244,1,0
464,156,41322,1,0
456,116,41401,1,0
436,80,41479,1,0
404,52,41558,1,0
364,36,41636,1,0
320,36,41715,1,0
280,40,41793,1,0
248,64,41872,1,0
224,96,41950,5,2
216,136,42029,1,0
232,176,42107,1,0
264,200,42186,1,0
296,228,42265,1,0
324,260,42343,1,0
332,300,42422,1,0
320,340,42500,1,0
288,368,42579,1,0
248,372,42657,1,0
208,364,42736,1,0
168,348,42814,1,0
132,324,42893,1,0
116,284,42971,1,0
124,244,43050,1,0
152,216,43128,1,0
188,192,43207,5,2
472,40,43521,1,0
472,344,43835,1,0
40,344,44149,1,0
40,40,44463,1,2
472,40,44778,1,0
472,344,45092,1,0
40,344,45406,1,0
40,40,45720,1,2
472,40,46348,1,0
192,256,46977,5,0
192,128,47291,1,0
320,128,47605,1,0
320,256,47919,1,0
256,192,48233,5,0
220,192,48312,1,0
188,200,48390,1,0
156,216,48469,1,0
132,240,48547,1,0
124,276,48626,1,0
144,304,48704,1,0
172,328,48783,1,0
204,340,48861,2,0,B|192:380,3,35,2|0|0|0
240,348,49176,2,0,B|244:388,3,35,2|0|0|0
272,344,49490,5,0
308,340,49568,1,0
340,324,49647,1,0
368,304,49725,1,0
384,272,49804,1,0
368,240,49882,1,0
344,212,49961,1,0
312,200,50039,1,0
276,192,50118,2,0,B|252:224,3,35,2|0|0|0
252,168,50432,2,0,B|212:184,3,35,2|0|0|0
244,128,50746,5,0
248,92,50825,1,0
268,64,50903,1,0
296,44,50982,1,0
332,44,51060,1,0
368,52,51139,1,0
396,68,51217,1,0
412,100,51296,1,0
416,136,51374,1,2
404,168,51453,1,0
380,196,51532,1,0
356,220,51610,1,0
324,232,51689,1,2
288,240,51767,1,0
252,240,51846,1,2
216,244,51924,1,0
180,244,52003,6,0,B|164:280,3,35,2|0|0|0
144,232,52317,2,0,B|108:252,3,35,0|0|0|0
120,200,52631,1,0
116,164,52710,1,0
124,128,52788,1,0
148,104,52867,1,0
180,92,52945,1,2
216,92,53024,1,0
248,108,53102,1,2
268,136,53181,1,0
276,172,53259,5,0
264,204,53338,1,0
244,232,53416,1,0
224,260,53495,1,0
220,296,53573,1,0
232,328,53652,1,0
260,344,53730,1,0
292,356,53809,1,0
328,356,53888,2,0,B|324:300,3,35,2|0|0|0
364,352,54202,2,0,B|368:312,3,35,2|0|0|0
400,344,54516,5,0
432,332,54594,1,0
452,304,54673,1,0
464,272,54751,1,0
468,236,54830,1,0
468,200,54908,1,0
456,168,54987,1,0
432,144,55066,1,0
408,120,55144,1,2
376,104,55223,1,0
344,96,55301,1,0
308,92,55380,1,0
272,92,55458,1,2
236,96,55537,1,0
204,108,55615,1,0
172,124,55694,1,0
148,148,55772,5,2
128,176,55851,1,0
128,212,55929,1,0
144,244,56008,1,0
164,272,56087,1,0
192,292,56165,1,0
228,300,56244,1,0
264,300,56322,1,0
300,296,56401,1,2
332,280,56479,1,0
348,248,56558,1,0
356,216,56636,1,0
348,180,56715,1,0
320,156,56793,1,0
288,144,56872,1,0
252,144,56950,1,0
220,156,57029,5,2
192,180,57107,1,0
188,216,57186,1,0
208,244,57265,1,0
240,256,57343,1,2
276,260,57422,1,0
308,244,57500,1,0
316,208,57579,1,0
296,180,57657,1,2
260,172,57736,1,0
232,196,57814,1,0
232,232,57893,1,0
240,264,57971,1,2
256,296,58050,1,0
280,320,58128,1,0
312,340,58207,1,0
344,356,58285,1,6
256,192,68338,5,0
256,192,69594,5,0
180,148,70851,5,0
180,148,70929,1,0
180,148,71008,1,0
180,148,71087,1,0
180,148,71165,1,0
180,148,71244,1,0
180,148,71322,1,0
180,148,71401,1,0
180,148,71479,1,0
180,148,71558,1,0
180,148,71636,1,0
180,148,71715,1,0
180,148,71793,1,0
180,148,71872,1,0
180,148,71950,1,0
180,148,72029,1,0
180,148,72107,1,0
180,148,72186,1,0
180,148,72265,1,0
180,148,72343,1,0
180,148,72422,1,0
180,148,72500,1,0
180,148,72579,1,0
180,148,72657,1,0
180,148,72736,2,0,B|224:204,2,70
60,316,73364,5,0
84,292,73443,1,0
116,284,73521,1,0
152,288,73600,1,0
184,304,73678,1,8
212,324,73757,1,0
244,340,73835,1,0
280,336,73914,1,0
312,324,73992,2,0,B|348:323|396:332,1,70,2|0
360,256,74306,2,0,B|332:233|312:196,1,70,10|0
240,32,74621,5,0
168,72,74778,1,0
92,108,74935,1,8
16,144,75092,1,0
76,204,75249,2,0,B|84:256,2,35,2|0|0
156,184,75563,2,0,B|216:176,2,35,10|0|0
312,100,75877,5,2
348,124,75956,1,0
368,160,76034,1,0
384,200,76113,1,0
392,240,76191,2,0,B|384:288|348:296,1,70,8|0
224,356,76505,1,2
180,356,76584,1,0
140,344,76662,1,0
104,324,76741,1,0
72,296,76819,2,0,B|36:260|32:220,1,70,8|0
168,136,77134,5,2
88,196,77291,1,0
148,272,77448,1,8
228,216,77605,1,8
308,164,77762,5,2
328,68,77919,1,0
424,88,78076,1,10
404,184,78233,1,2
252,96,78390,5,0
216,72,78469,1,0
176,68,78547,1,0
136,76,78626,1,0
100,100,78704,1,8
76,136,78783,1,0
68,176,78861,1,0
76,216,78940,1,0
88,256,79018,1,0
188,260,79176,1,0
244,340,79333,1,10
336,308,79490,1,0
460,220,79647,5,0
452,180,79725,1,0
420,152,79804,1,0
380,140,79882,1,0
340,148,79961,1,8
312,176,80039,1,0
280,204,80118,1,0
240,220,80196,1,0
196,224,80275,2,0,B|172:256,3,35
132,244,80589,2,0,B|100:212|60:200,1,70,10|0
60,56,80903,5,2
100,44,80982,1,0
140,48,81060,1,0
176,68,81139,1,0
200,104,81217,1,8
208,144,81296,1,0
196,184,81374,1,8
176,220,81453,1,0
176,264,81532,1,2
200,296,81610,1,0
236,320,81689,1,0
276,328,81767,1,0
320,324,81846,1,8
356,304,81924,1,0
384,272,82003,1,0
400,232,82081,1,0
396,192,82160,5,2
256,52,82317,1,0
116,192,82474,1,2
256,332,82631,1,0
256,120,82788,1,2
256,264,82945,1,2
256,120,83102,1,2
256,192,83416,12,8,85615
360,64,85929,5,2
420,144,86087,1,0
340,200,86244,1,8
276,124,86401,1,0
248,216,86558,5,2
160,260,86715,1,0
92,188,86872,1,8
176,140,87029,1,8
248,324,87186,6,0,B|208:368,2,35,2|0|0
412,264,87500,2,0,B|456:284,2,35,10|0|0
328,36,87814,2,0,B|348:-8,2,35,2|0|0
100,120,88128,2,0,B|56:100,2,35,10|0|8
220,56,88443,5,2
256,60,88521,1,0
292,72,88600,1,0
328,88,88678,1,0
360,112,88757,1,8
376,144,88835,1,0
376,184,88914,1,0
348,208,88992,1,0
312,220,89071,1,0
272,224,89149,1,0
232,228,89228,1,0
196,240,89306,1,0
168,264,89385,1,8
156,300,89463,1,0
180,328,89542,1,0
216,344,89621,1,0
252,352,89699,5,2
292,352,89778,1,0
328,336,89856,1,0
352,304,89935,1,0
340,268,90013,1,8
320,236,90092,1,0
292,208,90170,1,8
260,184,90249,1,0
228,164,90327,1,0
192,148,90406,1,0
156,144,90484,1,0
120,132,90563,1,0
92,108,90641,1,8
80,72,90720,1,0
96,36,90799,1,0
132,20,90877,1,0
172,20,90956,5,2
208,28,91034,1,0
244,36,91113,1,0
280,52,91191,1,0
316,68,91270,1,8
348,92,91348,1,0
364,128,91427,1,0
352,164,91505,1,0
328,196,91584,1,2
304,224,91662,1,0
276,248,91741,1,0
240,264,91819,1,0
204,272,91898,1,8
164,268,91977,1,0
128,252,92055,1,0
100,224,92134,1,0
80,192,92212,5,2
256,16,92369,1,0
432,192,92526,1,2
256,368,92683,1,0
256,88,92840,1,2
256,300,92997,1,2
256,88,93155,1,2
256,192,93469,5,4
