osu file format v14

[General]
AudioFilename: BLUE DRAGON.mp3
AudioLeadIn: 0
PreviewTime: 131407
Countdown: 2
SampleSet: Soft
StackLeniency: 0.7
Mode: 0
LetterboxInBreaks: 1
WidescreenStoryboard: 1

[Editor]
DistanceSpacing: 0.7
BeatDivisor: 4
GridSize: 4
TimelineZoom: 1.6

[Metadata]
Title:BLUE DRAGON
TitleUnicode:BLUE DRAGON
Artist:Seiryu
ArtistUnicode:青龍
Creator:FaiVillager
Version:Extra
Source:jubeat sauce fulfill
Tags:
BeatmapID:797523
BeatmapSetID:362648

[Difficulty]
HPDrainRate:6.5
CircleSize:4
OverallDifficulty:7.5
ApproachRate:9
SliderMultiplier:1.5
SliderTickRate:1

[Events]
//Background and Video events
0,0,"1.jpg",0,0
//Break Periods
2,85936,103527
//Storyboard Layer 0 (Background)
//Storyboard Layer 1 (Fail)
//Storyboard Layer 2 (Pass)
//Storyboard Layer 3 (Foreground)
//Storyboard Sound Samples

[TimingPoints]
491,314.13612565445,4,2,1,5,1,0
491,-200,4,2,1,5,0,0
3004,-200,4,2,2,5,0,0
3082,-200,4,2,1,5,0,0
5595,-200,4,2,2,5,0,0
5674,-200,4,2,1,5,0,0
8108,-200,4,2,2,5,0,0
8187,-200,4,2,1,5,0,0
9365,-200,4,2,2,5,0,0
9443,-200,4,2,1,5,0,0
10621,-200,4,2,2,5,0,0
10700,-200,4,2,1,5,0,0
13134,-200,4,2,2,5,0,0
13213,-200,4,2,1,5,0,0
22166,-133.333333333333,4,2,1,20,0,0
23108,-133.333333333333,4,2,1,25,0,0
29391,-133.333333333333,4,2,1,30,0,0
30648,-133.333333333333,4,2,1,5,0,0
31590,-133.333333333333,4,2,1,10,0,0
31904,-133.333333333333,4,2,1,15,0,0
32218,-100,4,2,1,50,0,0
33161,-66.6666666666667,4,2,1,90,0,0
43213,-75.187969924812,4,2,1,80,0,0
47611,-75.187969924812,4,2,1,40,0,0
47925,-75.187969924812,4,2,1,80,0,0
53265,-66.6666666666667,4,2,1,90,0,0
63318,-75.187969924812,4,2,1,80,0,0
82166,-66.6666666666667,4,2,1,60,0,0
83422,-66.6666666666667,4,2,1,80,0,0
105098,-133.333333333333,4,2,1,25,0,0
105333,-133.333333333333,4,2,1,5,0,0
105412,-133.333333333333,4,2,1,25,0,0
105648,-133.333333333333,4,2,1,5,0,0
105726,-133.333333333333,4,2,1,25,0,0
105962,-133.333333333333,4,2,1,5,0,0
106040,-133.333333333333,4,2,1,25,0,0
116093,-133.333333333333,4,2,1,5,0,0
121119,-100,4,2,1,5,0,0
126773,-100,4,2,1,10,0,0
127401,-100,4,2,1,15,0,0
128030,-100,4,2,1,20,0,0
128658,-100,4,2,1,25,0,0
129915,-66.6666666666667,4,2,1,25,0,0
131485,-100,4,2,1,50,0,0
132428,-66.6666666666667,4,2,1,90,0,0
142480,-75.187969924812,4,2,1,80,0,0
152532,-66.6666666666667,4,2,1,90,0,0
162585,-66.6666666666667,4,2,1,80,0,0
172716,-58.8235294117647,4,2,1,50,0,0
173894,-58.8235294117647,4,2,1,40,0,0
174365,-58.8235294117647,4,2,1,30,0,0
174679,-58.8235294117647,4,2,1,20,0,0
174993,-58.8235294117647,4,2,1,5,0,0

[Colours]
Combo1 : 3,90,252
Combo2 : 4,196,251
Combo3 : 0,255,255
Combo4 : 128,255,255

[HitObjects]
203,162,22166,6,0,P|258:151|319:165,2,112.500004291535
256,247,23108,6,0,L|256:307,1,56.2500021457673
352,346,23422,2,0,L|352:286,1,56.2500021457673
423,183,23737,2,0,L|392:133,1,56.2500021457673
282,116,24051,2,0,L|311:163,1,56.2500021457673
256,248,24365,6,0,P|225:267|188:275,2,56.2500021457673
195,187,24836,1,0,0:0:0:0:
112,167,24993,2,0,P|101:139|102:107,1,56.2500021457673
168,50,25307,2,0,P|179:78|178:110,1,56.2500021457673
113,168,25621,5,0,0:0:0:0:
154,241,25778,1,0,0:0:0:0:
154,241,25936,1,0,0:0:0:0:
220,189,26093,1,0,0:0:0:0:
299,217,26250,6,0,P|334:220|363:214,1,56.2500021457673
420,163,26564,2,0,P|437:200|437:232,1,56.2500021457673
408,293,26878,2,0,L|335:314,1,56.2500021457673
278,345,27192,2,0,L|208:318,1,56.2500021457673
88,208,27663,6,0,P|69:236|55:275,2,56.2500021457673
150,151,28134,1,0,0:0:0:0:
224,192,28292,1,0,0:0:0:0:
304,167,28449,1,0,0:0:0:0:
334,88,28606,1,0,0:0:0:0:
388,152,28763,6,0,P|411:176|437:190,1,56.2500021457673
452,84,29077,2,0,P|429:60|403:46,1,56.2500021457673
334,88,29391,6,0,L|256:73,1,56.2500021457673
205,36,29705,2,0,L|140:50,1,56.2500021457673
65,51,30019,2,0,L|30:109,1,56.2500021457673
83,168,30333,2,0,L|98:228,1,56.2500021457673
208,188,30648,6,0,L|228:193,32,14.0625005364418
430,56,32218,5,0,0:0:0:0:
192,342,32532,1,0,0:0:0:0:
425,195,32847,1,0,0:0:0:0:
293,101,33161,5,8,0:0:0:0:
78,111,33318,1,2,0:0:0:0:
87,149,33396,1,2,0:0:0:0:
96,187,33475,1,2,0:0:0:0:
105,225,33553,1,2,0:0:0:0:
114,263,33632,1,0,0:0:0:0:
253,202,33789,5,8,0:0:0:0:
400,296,33946,1,2,0:0:0:0:
388,258,34025,1,0,0:0:0:0:
376,220,34103,1,0,0:0:0:0:
363,182,34182,1,0,0:0:0:0:
351,144,34260,1,0,0:0:0:0:
254,25,34417,6,0,P|185:2|135:3,1,112.500004291535,8|0,0:0|0:0,0:0:0:0:
22,202,34731,2,0,P|95:163|124:118,1,112.500004291535,8|0,0:0|0:0,0:0:0:0:
272,175,35045,1,8,0:0:0:0:
408,275,35203,1,8,0:0:0:0:
288,126,35360,1,8,0:0:0:0:
308,338,35517,1,0,0:0:0:0:
158,280,35674,5,8,0:0:0:0:
81,97,35831,2,0,L|28:65,3,56.2500021457673,2|2|2|2,0:0|0:0|0:0|0:0,0:0:0:0:
87,131,36145,1,0,0:0:0:0:
238,36,36302,5,8,0:0:0:0:
401,126,36459,2,2,L|450:97,3,56.2500021457673
409,158,36773,1,0,0:0:0:0:
237,168,36930,6,0,P|194:116|173:57,1,112.500004291535,8|0,0:0|0:0,0:0:0:0:
336,238,37244,2,8,P|306:285|257:318,1,112.500004291535
259,316,37716,5,2,0:0:0:0:
13,293,37873,1,2,0:0:0:0:
137,169,38030,1,2,0:0:0:0:
227,215,38187,6,2,P|235:146|210:100,1,112.500004291535,10|2,0:0|0:0,0:0:0:0:
193,85,38422,1,2,0:0:0:0:
162,70,38500,1,2,0:0:0:0:
129,67,38579,1,2,0:0:0:0:
96,75,38657,1,0,0:0:0:0:
205,323,38815,6,0,P|268:347|322:337,1,112.500004291535,8|2,0:0|0:0,0:0:0:0:
342,327,39051,1,2,0:0:0:0:
366,304,39129,1,2,0:0:0:0:
383,275,39208,1,2,0:0:0:0:
391,242,39286,1,0,0:0:0:0:
278,235,39443,5,8,0:0:0:0:
190,57,39600,1,0,0:0:0:0:
136,203,39758,1,8,0:0:0:0:
307,82,39915,1,0,0:0:0:0:
88,139,40072,2,8,P|54:207|92:268,1,112.500004291535
218,262,40386,2,0,P|186:213|129:204,1,112.500004291535,8|0,0:0|0:0,0:0:0:0:
259,334,40700,6,0,P|300:280|284:221,1,112.500004291535,8|2,0:0|0:0,0:0:0:0:
284,206,40936,1,2,0:0:0:0:
285,172,41014,1,2,0:0:0:0:
302,142,41093,1,2,0:0:0:0:
329,123,41171,1,0,0:0:0:0:
426,179,41328,6,0,P|442:122|428:71,1,112.500004291535,8|0,0:0|0:0,0:0:0:0:
408,44,41564,1,2,0:0:0:0:
381,23,41642,1,2,0:0:0:0:
349,11,41721,1,2,0:0:0:0:
316,10,41799,1,0,0:0:0:0:
163,77,41956,6,0,P|145:138|101:186,1,112.500004291535
259,246,42271,2,0,P|279:312|319:354,1,112.500004291535
422,233,42585,5,0,0:0:0:0:
422,233,42742,1,0,0:0:0:0:
422,233,42899,1,0,0:0:0:0:
422,233,43056,1,0,0:0:0:0:
422,233,43213,6,0,P|400:160|400:116,1,99.7499958904268,8|0,0:0|0:0,0:0:0:0:
412,108,43449,1,0,0:0:0:0:
432,84,43527,2,0,P|408:40|352:0,1,99.7499958904268,8|0,0:0|0:0,0:0:0:0:
216,40,43841,5,10,0:0:0:0:
96,320,44077,1,2,0:0:0:0:
64,108,44312,1,2,0:0:0:0:
13,265,44470,5,10,0:0:0:0:
320,188,44705,1,2,0:0:0:0:
156,348,44941,1,2,0:0:0:0:
208,248,45098,5,10,0:0:0:0:
484,352,45333,1,2,0:0:0:0:
352,128,45569,1,2,0:0:0:0:
274,49,45726,6,0,P|246:97|266:197,1,149.62499383564,8|0,0:0|0:0,0:0:0:0:
294,249,46040,2,0,P|273:197|163:163,1,149.62499383564,8|0,0:0|0:0,0:0:0:0:
111,164,46354,5,10,0:0:0:0:
308,368,46590,1,2,0:0:0:0:
432,124,46826,1,2,0:0:0:0:
388,272,46983,5,10,0:0:0:0:
200,68,47218,1,2,0:0:0:0:
98,323,47454,1,2,0:0:0:0:
230,218,47611,6,2,L|234:185,7,24.9374989726067
223,257,47925,6,2,P|273:230|335:222,1,99.7499958904268
463,255,48239,1,8,0:0:0:0:
468,142,48396,1,2,0:0:0:0:
233,23,48553,1,0,0:0:0:0:
282,121,48710,1,2,0:0:0:0:
72,177,48867,6,0,P|106:133|121:75,1,99.7499958904268,2|0,0:0|0:0,0:0:0:0:
119,91,49103,2,0,L|192:171,1,99.7499958904268,2|0,0:0|0:0,0:0:0:0:
172,235,49339,1,2,0:0:0:0:
293,315,49496,6,0,P|321:275|371:250,1,99.7499958904268,10|0,0:0|0:0,0:0:0:0:
365,251,49731,2,0,L|290:157,1,99.7499958904268,2|0,0:0|0:0,0:0:0:0:
329,103,49967,1,2,0:0:0:0:
147,156,50124,6,2,B|88:155|79:68|14:66,2,149.62499383564
275,98,50752,5,8,0:0:0:0:
224,213,50909,1,2,0:0:0:0:
411,320,51066,1,2,0:0:0:0:
370,190,51223,1,2,0:0:0:0:
272,305,51381,6,0,P|212:315|156:295,1,99.7499958904268,2|0,0:0|0:0,0:0:0:0:
175,305,51616,2,0,L|121:196,1,99.7499958904268,2|0,0:0|0:0,0:0:0:0:
139,143,51852,1,2,0:0:0:0:
201,38,52009,5,2,0:0:0:0:
303,87,52166,2,0,L|356:60,1,49.8749979452134,2|0,0:0|0:0,0:0:0:0:
474,117,52401,2,0,L|479:173,1,49.8749979452134,2|0,0:0|0:0,0:0:0:0:
448,314,52637,5,0,0:0:0:0:
418,319,52716,1,0,0:0:0:0:
388,317,52794,1,0,0:0:0:0:
358,309,52873,1,0,0:0:0:0:
331,295,52951,1,0,0:0:0:0:
310,272,53030,1,0,0:0:0:0:
284,256,53108,1,0,0:0:0:0:
254,251,53187,1,0,0:0:0:0:
222,261,53265,6,0,P|159:278|92:257,1,112.500004291535,8|0,0:0|0:0,0:0:0:0:
130,55,53580,2,0,P|156:111|157:173,1,112.500004291535,8|0,0:0|0:0,0:0:0:0:
8,270,53894,2,2,P|36:343|137:375,2,168.750006437302,8|0|0,0:0|0:0|0:0,0:0:0:0:
167,149,54522,5,8,0:0:0:0:
67,48,54679,1,0,0:0:0:0:
298,31,54836,1,8,0:0:0:0:
317,170,54993,1,0,0:0:0:0:
206,236,55150,2,0,P|227:304|168:380,2,168.750006437302,8|0|0,0:0|0:0|0:0,0:0:0:0:
40,198,55778,5,8,0:0:0:0:
109,53,55936,1,0,0:0:0:0:
254,150,56093,1,8,0:0:0:0:
399,58,56250,1,0,0:0:0:0:
373,264,56407,5,8,0:0:0:0:
283,84,56564,1,0,0:0:0:0:
356,255,56721,1,8,0:0:0:0:
300,95,56878,1,0,0:0:0:0:
223,228,57035,6,0,P|168:275|128:287,1,112.500004291535,8|0,0:0|0:0,0:0:0:0:
15,95,57349,2,0,P|68:135|96:181,1,112.500004291535,8|0,0:0|0:0,0:0:0:0:
232,337,57663,2,0,P|286:349|358:338,1,112.500004291535,8|0,0:0|0:0,0:0:0:0:
403,142,57977,2,0,P|349:193|330:236,1,112.500004291535,8|0,0:0|0:0,0:0:0:0:
434,296,58292,5,8,0:0:0:0:
503,164,58449,1,0,0:0:0:0:
360,7,58606,1,8,0:0:0:0:
403,142,58763,1,0,0:0:0:0:
215,158,58920,2,0,P|265:103|250:7,2,168.750006437302,8|0|0,0:0|0:0|0:0,0:0:0:0:
159,65,59548,5,8,0:0:0:0:
28,145,59705,1,0,0:0:0:0:
168,322,59862,1,8,0:0:0:0:
142,189,60019,1,0,0:0:0:0:
274,246,60176,2,0,P|334:240|388:136,2,168.750006437302,8|0|0,0:0|0:0|0:0,0:0:0:0:
200,142,60805,6,0,P|144:120|79:118,1,112.500004291535,8|0,0:0|0:0,0:0:0:0:
47,326,61119,2,0,P|102:275|131:218,1,112.500004291535,8|0,0:0|0:0,0:0:0:0:
312,142,61433,2,0,P|368:120|433:118,1,112.500004291535,8|0,0:0|0:0,0:0:0:0:
465,326,61747,2,0,P|410:275|381:218,1,112.500004291535,8|0,0:0|0:0,0:0:0:0:
463,124,62061,5,2,0:0:0:0:
294,253,62218,1,2,0:0:0:0:
421,130,62375,1,2,0:0:0:0:
252,259,62532,1,2,0:0:0:0:
61,182,62689,1,2,0:0:0:0:
86,290,62847,5,2,0:0:0:0:
156,248,63004,1,2,0:0:0:0:
174,168,63161,1,2,0:0:0:0:
136,97,63318,2,0,P|177:51|234:37,1,99.7499958904268,8|0,0:0|0:0,0:0:0:0:
236,54,63553,1,0,0:0:0:0:
260,70,63632,2,0,P|316:85|371:77,1,99.7499958904268,4|0,0:0|0:0,0:0:0:0:
491,47,63946,5,8,0:0:0:0:
492,191,64103,1,0,0:0:0:0:
406,131,64260,1,4,0:0:0:0:
362,275,64417,1,0,0:0:0:0:
218,301,64574,2,0,P|188:245|182:197,1,99.7499958904268,8|0,0:0|0:0,0:0:0:0:
155,360,64888,2,0,P|112:276|103:154,1,199.499991780854,8|0,0:0|0:0,0:0:0:0:
177,42,65360,5,2,0:0:0:0:
256,195,65517,1,2,0:0:0:0:
306,44,65674,1,2,0:0:0:0:
316,254,65831,2,8,P|339:180|228:117,1,199.499991780854,8|4,0:0|0:0,0:0:0:0:
116,200,66302,1,0,0:0:0:0:
163,342,66459,2,0,P|221:315|252:261,1,99.7499958904268,8|0,0:0|0:0,0:0:0:0:
444,209,66773,2,0,P|451:140|428:91,1,99.7499958904268,4|0,0:0|0:0,0:0:0:0:
268,43,67087,5,4,0:0:0:0:
159,208,67244,1,0,0:0:0:0:
165,41,67401,1,4,0:0:0:0:
266,213,67559,1,0,0:0:0:0:
97,140,67716,2,0,P|67:193|148:295,1,199.499991780854,4|0,0:0|0:0,0:0:0:0:
364,287,68187,1,0,0:0:0:0:
422,102,68344,6,0,P|361:89|317:101,1,99.7499958904268,8|0,0:0|0:0,0:0:0:0:
306,120,68580,1,0,0:0:0:0:
288,144,68658,2,0,P|239:152|191:139,1,99.7499958904268,4|0,0:0|0:0,0:0:0:0:
58,32,68972,1,8,0:0:0:0:
37,211,69129,1,0,0:0:0:0:
88,119,69286,1,4,0:0:0:0:
110,277,69443,1,0,0:0:0:0:
284,307,69600,6,0,P|308:251|305:177,1,99.7499958904268,8|0,0:0|0:0,0:0:0:0:
352,366,69915,2,8,P|386:299|386:157,1,199.499991780854,8|0,0:0|0:0,0:0:0:0:
313,29,70386,5,2,0:0:0:0:
243,192,70543,1,2,0:0:0:0:
212,47,70700,1,2,0:0:0:0:
74,104,70857,2,0,P|45:151|57:244,1,149.62499383564,8|0,0:0|0:0,0:0:0:0:
20,290,71171,2,0,P|66:233|147:221,1,149.62499383564,4|0,0:0|0:0,0:0:0:0:
194,268,71485,2,0,P|266:297|303:294,1,99.7499958904268,8|0,0:0|0:0,0:0:0:0:
463,166,71799,2,0,P|397:157|353:176,1,99.7499958904268,4|0,0:0|0:0,0:0:0:0:
416,290,72114,5,2,0:0:0:0:
268,153,72271,1,2,0:0:0:0:
302,337,72428,1,2,0:0:0:0:
374,186,72585,1,2,0:0:0:0:
177,225,72742,1,2,0:0:0:0:
161,107,72899,1,2,0:0:0:0:
268,153,73056,1,2,0:0:0:0:
268,153,73370,5,8,0:0:0:0:
118,184,73527,1,0,0:0:0:0:
265,62,73684,1,0,0:0:0:0:
371,157,73841,1,0,0:0:0:0:
283,250,73998,2,0,L|176:250,1,99.7499958904268,2|0,0:0|0:0,0:0:0:0:
336,355,74312,2,0,L|435:355,1,99.7499958904268,2|0,0:0|0:0,0:0:0:0:
439,181,74627,5,8,0:0:0:0:
353,70,74784,1,0,0:0:0:0:
215,44,74941,1,0,0:0:0:0:
87,100,75098,1,0,0:0:0:0:
143,229,75255,2,0,L|183:131,1,99.7499958904268,2|0,0:0|0:0,0:0:0:0:
253,268,75569,2,0,L|215:360,1,99.7499958904268,2|0,0:0|0:0,0:0:0:0:
374,294,75883,5,8,0:0:0:0:
409,180,76040,1,0,0:0:0:0:
225,106,76197,2,0,P|182:67|149:18,2,99.7499958904268
225,106,76826,2,0,P|268:145|301:194,1,99.7499958904268
267,348,77140,5,0,0:0:0:0:
217,203,77297,1,0,0:0:0:0:
247,342,77454,1,0,0:0:0:0:
197,205,77611,1,0,0:0:0:0:
227,335,77768,1,0,0:0:0:0:
177,207,77925,1,0,0:0:0:0:
207,329,78082,1,0,0:0:0:0:
157,210,78239,1,0,0:0:0:0:
27,144,78396,6,0,B|109:129|133:34|133:34|177:24,1,199.499991780854,8|0,0:0|0:0,0:0:0:0:
285,131,78867,1,0,0:0:0:0:
434,47,79025,2,0,P|457:98|459:157,1,99.7499958904268,2|0,0:0|0:0,0:0:0:0:
310,217,79339,2,0,P|308:282|334:324,1,99.7499958904268,2|0,0:0|0:0,0:0:0:0:
456,246,79653,5,8,0:0:0:0:
456,246,79810,1,0,0:0:0:0:
321,132,79967,2,0,P|265:142|230:192,1,99.7499958904268
223,337,80281,1,2,0:0:0:0:
115,204,80438,1,0,0:0:0:0:
141,329,80595,1,2,0:0:0:0:
124,161,80752,1,0,0:0:0:0:
85,52,80909,6,0,P|151:8|199:4,1,99.7499958904268
353,55,81223,2,0,L|453:117,2,99.7499958904268
241,158,81852,2,0,P|239:226|256:272,1,99.7499958904268
368,343,82166,5,0,0:0:0:0:
384,328,82244,1,0,0:0:0:0:
394,307,82323,1,0,0:0:0:0:
398,285,82401,1,0,0:0:0:0:
394,262,82480,1,0,0:0:0:0:
384,241,82559,1,0,0:0:0:0:
382,218,82637,1,0,0:0:0:0:
388,196,82716,1,0,0:0:0:0:
429,168,82794,5,0,0:0:0:0:
418,135,82873,1,0,0:0:0:0:
400,106,82951,1,0,0:0:0:0:
375,82,83030,1,0,0:0:0:0:
344,67,83108,1,0,0:0:0:0:
310,60,83187,1,0,0:0:0:0:
276,60,83265,1,0,0:0:0:0:
243,70,83344,1,0,0:0:0:0:
217,91,83422,1,4,0:0:0:0:
243,126,105098,6,0,P|247:179|256:208,1,84.3750032186509
256,99,105412,2,0,L|256:188,1,84.3750032186509
269,126,105726,2,0,P|265:179|256:208,1,84.3750032186509
254,253,106040,6,0,P|221:269|191:274,1,56.2500021457673
125,235,106354,2,0,P|113:199|112:159,1,56.2500021457673
60,112,106669,1,0,0:0:0:0:
60,112,106826,1,0,0:0:0:0:
129,64,106983,1,0,0:0:0:0:
129,64,107140,1,0,0:0:0:0:
210,86,107297,6,0,P|252:91|272:86,2,56.2500021457673
186,4,107768,1,0,0:0:0:0:
129,64,107925,2,0,P|124:112|128:131,2,56.2500021457673
186,4,108396,1,0,0:0:0:0:
263,38,108553,6,0,L|312:66,1,56.2500021457673
369,127,108867,2,0,L|436:120,1,56.2500021457673
472,191,109182,5,0,0:0:0:0:
433,265,109339,1,0,0:0:0:0:
358,304,109496,1,0,0:0:0:0:
273,306,109653,1,0,0:0:0:0:
205,255,109810,6,0,P|170:260|134:277,1,56.2500021457673
67,282,110124,1,0,0:0:0:0:
65,197,110281,1,0,0:0:0:0:
285,172,110595,6,0,P|321:179|348:174,2,56.2500021457673
237,102,111066,5,0,0:0:0:0:
179,163,111223,1,0,0:0:0:0:
179,163,111381,1,0,0:0:0:0:
117,105,111538,1,0,0:0:0:0:
49,155,111695,6,0,P|33:198|31:227,1,56.2500021457673
116,272,112009,2,0,P|132:307|152:329,1,56.2500021457673
218,358,112323,5,0,0:0:0:0:
269,291,112480,1,0,0:0:0:0:
239,212,112637,1,0,0:0:0:0:
155,199,112794,1,0,0:0:0:0:
91,143,112951,6,0,P|88:109|106:66,1,56.2500021457673
173,60,113265,2,0,P|176:94|158:137,1,56.2500021457673
155,199,113580,5,0,0:0:0:0:
239,212,113737,2,0,P|278:206|299:193,1,56.2500021457673
345,132,114051,1,0,0:0:0:0:
428,117,114208,6,0,P|448:150|455:182,1,56.2500021457673
380,210,114522,2,0,P|368:242|368:277,1,56.2500021457673
355,347,114836,6,0,L|285:322,1,56.2500021457673
220,307,115150,2,0,L|155:321,1,56.2500021457673
50,178,115778,6,0,P|48:129|54:107,1,56.2500021457673
158,91,116093,6,0,L|191:70,15,28.1250010728836
281,118,117349,6,0,L|327:137,15,28.1250010728836
197,189,118606,6,0,L|180:225,15,28.1250010728836
286,264,119862,6,0,L|294:303,15,28.1250010728836
420,235,121119,6,0,L|418:190,7,37.5
328,140,121747,2,0,L|312:83,7,37.5
200,100,122375,2,0,L|166:69,7,37.5
74,126,123004,2,0,L|32:117,7,37.5
141,217,123632,6,0,P|137:243|121:269,7,37.5
251,263,124260,2,0,P|252:283|246:308,7,37.5
363,264,124888,6,0,L|402:273,3,37.5
379,180,125203,6,0,L|436:176,11,37.5
327,115,126145,6,0,L|359:104,96,18.75
256,192,129993,12,0,131171,0:0:0:0:
152,114,131485,5,2,0:0:0:0:
472,262,131799,1,2,0:0:0:0:
163,251,132114,1,2,0:0:0:0:
314,139,132428,6,0,P|283:85|213:58,1,112.500004291535,8|2,0:0|0:0,0:0:0:0:
201,63,132663,1,2,0:0:0:0:
163,74,132741,1,2,0:0:0:0:
124,69,132820,1,2,0:0:0:0:
90,50,132898,1,0,0:0:0:0:
221,153,133056,6,0,P|185:204|123:224,1,112.500004291535,8|2,0:0|0:0,0:0:0:0:
101,232,133292,1,2,0:0:0:0:
69,263,133370,1,2,0:0:0:0:
54,305,133449,1,2,0:0:0:0:
57,349,133527,1,0,0:0:0:0:
279,344,133684,6,0,P|332:308|366:263,1,112.500004291535,8|0,0:0|0:0,0:0:0:0:
267,142,133998,2,0,P|239:75|236:30,1,112.500004291535,8|0,0:0|0:0,0:0:0:0:
446,52,134312,5,8,0:0:0:0:
235,206,134470,1,8,0:0:0:0:
418,119,134627,1,8,0:0:0:0:
267,142,134784,1,0,0:0:0:0:
401,254,134941,5,8,0:0:0:0:
194,291,135098,2,2,L|154:347,3,56.2500021457673
219,257,135412,1,0,0:0:0:0:
30,215,135569,5,8,0:0:0:0:
212,109,135726,2,2,L|280:117,3,56.2500021457673
169,104,136040,1,0,0:0:0:0:
139,262,136197,5,2,0:0:0:0:
326,309,136354,1,2,0:0:0:0:
373,122,136511,1,2,0:0:0:0:
186,75,136668,1,2,0:0:0:0:
165,65,136983,6,2,B|121:53|86:56|86:56|53:37,2,112.500004291535
256,192,137454,5,8,0:0:0:0:
355,267,137611,1,2,0:0:0:0:
368,230,137689,1,2,0:0:0:0:
382,193,137768,1,2,0:0:0:0:
396,156,137847,1,2,0:0:0:0:
410,119,137925,1,0,0:0:0:0:
256,192,138082,5,8,0:0:0:0:
157,117,138239,1,2,0:0:0:0:
144,154,138317,1,2,0:0:0:0:
130,191,138396,1,2,0:0:0:0:
116,228,138475,1,2,0:0:0:0:
102,265,138553,1,0,0:0:0:0:
355,117,138710,6,0,P|306:67|256:49,1,112.500004291535,8|0,0:0|0:0,0:0:0:0:
157,267,139025,2,2,P|206:317|256:335,1,112.500004291535,10|2,0:0|0:0,0:0:0:0:
157,117,139339,1,8,0:0:0:0:
355,267,139496,1,8,0:0:0:0:
139,153,139653,1,8,0:0:0:0:
373,231,139810,1,0,0:0:0:0:
239,57,139967,6,0,P|185:29|124:36,1,112.500004291535,8|2,0:0|0:0,0:0:0:0:
97,44,140203,1,2,0:0:0:0:
66,68,140281,1,2,0:0:0:0:
47,102,140360,1,2,0:0:0:0:
41,141,140438,1,0,0:0:0:0:
249,163,140595,6,0,P|299:216|306:278,1,112.500004291535,8|2,0:0|0:0,0:0:0:0:
318,291,140831,1,2,0:0:0:0:
342,321,140909,1,2,0:0:0:0:
375,342,140988,1,2,0:0:0:0:
413,351,141066,1,0,0:0:0:0:
417,175,141223,5,6,0:0:0:0:
255,23,141381,1,2,0:0:0:0:
390,164,141538,1,6,0:0:0:0:
285,37,141695,1,6,0:0:0:0:
301,163,141852,5,0,0:0:0:0:
292,183,141930,1,0,0:0:0:0:
279,202,142009,1,0,0:0:0:0:
264,218,142087,1,0,0:0:0:0:
246,232,142166,1,0,0:0:0:0:
226,242,142244,1,0,0:0:0:0:
205,249,142323,1,0,0:0:0:0:
182,252,142401,1,0,0:0:0:0:
157,252,142480,6,0,P|100:226|65:171,1,99.7499958904268,8|0,0:0|0:0,0:0:0:0:
88,148,142716,1,0,0:0:0:0:
88,148,142794,2,0,P|61:85|54:33,1,99.7499958904268
228,103,143108,5,8,0:0:0:0:
413,116,143265,2,0,L|474:110,2,49.8749979452134
330,245,143580,1,0,0:0:0:0:
165,301,143737,2,0,P|180:225|152:156,2,149.62499383564,8|0|0,0:0|0:0|0:0,0:0:0:0:
347,83,144365,2,0,P|332:159|360:228,2,149.62499383564,8|0|0,0:0|0:0|0:0,0:0:0:0:
460,147,144993,5,8,0:0:0:0:
408,289,145150,1,0,0:0:0:0:
221,380,145307,1,2,0:0:0:0:
207,220,145464,1,0,0:0:0:0:
114,102,145621,6,0,P|94:147|102:209,1,99.7499958904268,2|0,0:0|0:0,0:0:0:0:
37,168,145857,2,0,P|54:228|94:267,1,99.7499958904268,2|0,0:0|0:0,0:0:0:0:
98,309,146093,1,2,0:0:0:0:
366,228,146250,6,0,P|339:177|299:147,1,99.7499958904268,2|0,0:0|0:0,0:0:0:0:
366,184,146485,2,0,P|393:133|433:103,1,99.7499958904268,2|0,0:0|0:0,0:0:0:0:
366,137,146721,1,2,0:0:0:0:
216,52,146878,6,0,P|193:104|206:169,1,99.7499958904268
118,319,147192,1,0,0:0:0:0:
270,215,147349,1,0,0:0:0:0:
399,348,147506,6,0,P|420:282|410:232,1,99.7499958904268,8|0,0:0|0:0,0:0:0:0:
433,211,147742,1,0,0:0:0:0:
433,211,147820,2,0,P|404:153|358:121,1,99.7499958904268
221,176,148134,5,8,0:0:0:0:
70,126,148292,2,0,L|15:102,2,49.8749979452134
99,277,148606,1,0,0:0:0:0:
284,280,148763,5,8,0:0:0:0:
400,165,148920,2,0,L|445:138,1,49.8749979452134
254,84,149155,2,0,L|286:135,1,49.8749979452134
346,228,149391,5,8,0:0:0:0:
203,218,149548,2,0,L|146:185,1,49.8749979452134
263,341,149784,2,0,L|210:328,1,49.8749979452134
44,354,150019,5,10,0:0:0:0:
101,223,150176,1,0,0:0:0:0:
13,137,150333,1,2,0:0:0:0:
70,6,150490,1,0,0:0:0:0:
182,116,150648,6,0,B|232:127|276:120|276:120|267:116,1,99.7499958904268,2|0,0:0|0:0,0:0:0:0:
244,35,150883,2,0,B|239:32|239:32|283:25|333:36,1,99.7499958904268,2|0,0:0|0:0,0:0:0:0:
374,113,151119,1,2,0:0:0:0:
401,270,151276,5,0,0:0:0:0:
100,67,151511,1,0,0:0:0:0:
178,293,151747,1,0,0:0:0:0:
287,196,151904,5,0,0:0:0:0:
299,211,151982,1,0,0:0:0:0:
309,228,152061,1,0,0:0:0:0:
317,247,152139,1,0,0:0:0:0:
322,266,152218,1,0,0:0:0:0:
324,286,152296,1,0,0:0:0:0:
324,306,152375,1,0,0:0:0:0:
320,325,152453,1,0,0:0:0:0:
310,345,152532,6,0,P|384:307|434:298,1,112.500004291535,8|0,0:0|0:0,0:0:0:0:
194,286,152847,2,0,P|145:246|91:222,1,112.500004291535,8|0,0:0|0:0,0:0:0:0:
94,60,153161,1,8,0:0:0:0:
232,33,153318,1,2,0:0:0:0:
250,21,153396,1,0,0:0:0:0:
316,138,153553,1,2,0:0:0:0:
337,144,153632,1,0,0:0:0:0:
346,268,153789,6,0,P|294:315|239:324,1,112.500004291535,8|0,0:0|0:0,0:0:0:0:
75,142,154103,2,0,P|140:166|170:201,1,112.500004291535,8|0,0:0|0:0,0:0:0:0:
79,337,154417,1,8,0:0:0:0:
258,384,154574,2,0,L|287:333,1,56.2500021457673,2|0,0:0|0:0,0:0:0:0:
444,284,154810,2,0,L|445:227,1,56.2500021457673,2|0,0:0|0:0,0:0:0:0:
382,42,155045,5,2,0:0:0:0:
246,184,155203,1,0,0:0:0:0:
352,34,155360,1,2,0:0:0:0:
306,238,155517,1,0,0:0:0:0:
225,67,155674,5,2,0:0:0:0:
137,86,155831,1,0,0:0:0:0:
94,165,155988,1,2,0:0:0:0:
116,252,156145,1,0,0:0:0:0:
265,342,156302,6,0,P|268:274|238:215,1,112.500004291535,2|0,0:0|0:0,0:0:0:0:
8,226,156616,2,0,P|60:248|129:250,1,112.500004291535,2|0,0:0|0:0,0:0:0:0:
183,80,156930,1,2,0:0:0:0:
377,165,157087,1,0,0:0:0:0:
200,79,157244,1,2,0:0:0:0:
394,164,157401,1,0,0:0:0:0:
259,193,157559,6,0,P|250:252|267:310,1,112.500004291535,8|0,0:0|0:0,0:0:0:0:
452,214,157873,2,0,P|461:155|444:97,1,112.500004291535,8|0,0:0|0:0,0:0:0:0:
292,57,158187,1,8,0:0:0:0:
52,295,158422,1,2,0:0:0:0:
140,37,158658,1,2,0:0:0:0:
48,157,158815,5,2,0:0:0:0:
67,184,158893,1,0,0:0:0:0:
91,207,158972,1,0,0:0:0:0:
120,225,159050,1,0,0:0:0:0:
152,236,159129,1,2,0:0:0:0:
185,240,159207,1,0,0:0:0:0:
219,237,159286,1,0,0:0:0:0:
250,224,159365,1,0,0:0:0:0:
276,203,159443,6,0,P|343:182|447:211,2,168.750006437302,8|2|2,0:0|0:0|0:0,0:0:0:0:
349,285,160072,5,2,0:0:0:0:
255,324,160229,1,0,0:0:0:0:
162,285,160386,1,2,0:0:0:0:
123,191,160543,1,0,0:0:0:0:
162,98,160700,1,2,0:0:0:0:
256,59,160857,1,2,0:0:0:0:
349,98,161014,1,2,0:0:0:0:
388,192,161171,1,2,0:0:0:0:
162,98,161328,6,0,P|182:157|224:205,1,112.500004291535,2|0,0:0|0:0,0:0:0:0:
349,98,161642,2,0,P|330:157|288:205,1,112.500004291535,2|0,0:0|0:0,0:0:0:0:
116,235,161956,2,0,P|165:275|232:302,1,112.500004291535,2|0,0:0|0:0,0:0:0:0:
396,235,162270,2,0,P|347:275|280:302,1,112.500004291535,2|0,0:0|0:0,0:0:0:0:
256,190,162585,6,0,L|256:59,1,112.500004291535,8|0,0:0|0:0,0:0:0:0:
116,122,162899,2,0,L|116:234,1,112.500004291535,8|0,0:0|0:0,0:0:0:0:
265,350,163213,1,8,0:0:0:0:
430,228,163370,1,0,0:0:0:0:
286,353,163527,1,8,0:0:0:0:
411,225,163684,1,0,0:0:0:0:
270,257,163841,6,0,P|239:197|234:135,1,112.500004291535,8|0,0:0|0:0,0:0:0:0:
89,299,164155,2,0,P|143:188|234:152,1,225.000008583069,8|0,0:0|0:0,0:0:0:0:
408,138,164627,6,0,P|455:98|480:40,2,112.500004291535,0|10|2,0:0|0:0|0:0,0:0:0:0:
323,45,165098,5,8,0:0:0:0:
311,45,165176,1,0,0:0:0:0:
299,45,165255,1,0,0:0:0:0:
287,45,165333,1,0,0:0:0:0:
275,45,165412,1,8,0:0:0:0:
263,45,165490,1,0,0:0:0:0:
251,45,165569,1,0,0:0:0:0:
239,45,165648,1,0,0:0:0:0:
189,26,165726,5,8,0:0:0:0:
176,63,165804,1,0,0:0:0:0:
178,102,165883,1,0,0:0:0:0:
188,140,165961,1,0,0:0:0:0:
200,178,166040,1,8,0:0:0:0:
206,216,166118,1,0,0:0:0:0:
203,256,166197,1,0,0:0:0:0:
190,293,166275,1,0,0:0:0:0:
166,324,166354,6,0,P|96:303|57:275,1,112.500004291535,8|0,0:0|0:0,0:0:0:0:
346,324,166669,2,0,P|416:303|455:275,1,112.500004291535,8|0,0:0|0:0,0:0:0:0:
256,97,166983,2,0,B|191:154|325:233|255:304,1,225.000008583069,8|8,0:0|0:0,0:0:0:0:
56,255,167454,1,0,0:0:0:0:
112,53,167611,5,8,0:0:0:0:
240,215,167768,1,0,0:0:0:0:
223,28,167925,1,8,0:0:0:0:
143,249,168082,1,0,0:0:0:0:
294,118,168239,2,0,P|361:111|414:118,1,112.500004291535,8|0,0:0|0:0,0:0:0:0:
512,293,168553,2,0,P|445:300|392:293,1,112.500004291535,8|0,0:0|0:0,0:0:0:0:
224,362,168867,5,8,0:0:0:0:
407,204,169025,1,0,0:0:0:0:
223,240,169182,2,8,P|144:222|138:93,1,225.000008583069
286,107,169653,5,0,0:0:0:0:
334,306,169810,1,0,0:0:0:0:
396,56,169967,1,0,0:0:0:0:
275,221,170124,6,0,L|205:246,7,56.2500021457673
310,195,170752,5,0,0:0:0:0:
142,45,170909,1,0,0:0:0:0:
396,56,171066,1,0,0:0:0:0:
46,185,171223,1,0,0:0:0:0:
203,173,171381,5,0,0:0:0:0:
216,190,171459,1,0,0:0:0:0:
225,211,171538,1,0,0:0:0:0:
229,233,171616,1,0,0:0:0:0:
228,255,171695,1,0,0:0:0:0:
222,277,171773,1,0,0:0:0:0:
211,296,171852,1,0,0:0:0:0:
195,313,171930,1,0,0:0:0:0:
165,338,172009,5,0,0:0:0:0:
198,357,172087,1,0,0:0:0:0:
236,368,172166,1,0,0:0:0:0:
275,368,172244,1,0,0:0:0:0:
313,357,172323,1,0,0:0:0:0:
347,337,172401,1,0,0:0:0:0:
374,309,172480,1,0,0:0:0:0:
393,275,172558,1,0,0:0:0:0:
403,237,172637,1,4,0:0:0:0:
256,192,172716,12,0,175150,0:0:0:0:
