osu file format v14

[General]
AudioFilename: BLUE DRAGON.mp3
AudioLeadIn: 0
PreviewTime: 131407
Countdown: 2
SampleSet: Soft
StackLeniency: 0.7
Mode: 0
LetterboxInBreaks: 1
WidescreenStoryboard: 0

[Editor]
DistanceSpacing: 1.3
BeatDivisor: 4
GridSize: 4
TimelineZoom: 1.9

[Metadata]
Title:BLUE DRAGON
TitleUnicode:BLUE DRAGON
Artist:Seiryu
ArtistUnicode:青龍
Creator:FaiVillager
Version:Blue-Blade
Source:jubeat sauce fulfill
Tags:
BeatmapID:796485
BeatmapSetID:362648

[Difficulty]
HPDrainRate:6
CircleSize:4
OverallDifficulty:8.2
ApproachRate:9.3
SliderMultiplier:1.5
SliderTickRate:1

[Events]
//Background and Video events
0,0,"1.jpg",0,0
//Break Periods
2,20795,21612
2,85936,103527
//Storyboard Layer 0 (Background)
//Storyboard Layer 1 (Fail)
//Storyboard Layer 2 (Pass)
//Storyboard Layer 3 (Foreground)
//Storyboard Sound Samples

[TimingPoints]
491,314.13612565445,4,2,1,5,1,0
491,-200,4,2,1,5,0,0
3004,-200,4,2,2,5,0,0
3082,-200,4,2,1,5,0,0
5595,-200,4,2,2,5,0,0
5674,-200,4,2,1,5,0,0
8108,-200,4,2,2,5,0,0
8187,-200,4,2,1,5,0,0
9365,-200,4,2,2,5,0,0
9443,-200,4,2,1,5,0,0
10621,-200,4,2,2,5,0,0
10700,-200,4,2,1,5,0,0
13134,-200,4,2,2,5,0,0
13213,-200,4,2,1,5,0,0
22166,-133.333333333333,4,2,1,20,0,0
22401,-133.333333333333,4,2,1,5,0,0
22480,-133.333333333333,4,2,1,20,0,0
22716,-133.333333333333,4,2,1,5,0,0
22794,-133.333333333333,4,2,1,20,0,0
23030,-133.333333333333,4,2,1,5,0,0
23108,-133.333333333333,4,2,1,25,0,0
29391,-133.333333333333,4,2,1,30,0,0
30648,-133.333333333333,4,2,1,5,0,0
31590,-133.333333333333,4,2,1,10,0,0
31904,-133.333333333333,4,2,1,15,0,0
32218,-100,4,2,1,50,0,0
33161,-58.8235294117647,4,2,1,90,0,0
42585,-76.9230769230769,4,2,1,80,0,0
43213,-66.6666666666667,4,2,1,80,0,0
47611,-66.6666666666667,4,2,1,40,0,0
47925,-66.6666666666667,4,2,1,80,0,0
53265,-58.8235294117647,4,2,1,90,0,0
63318,-66.6666666666667,4,2,1,80,0,0
82166,-66.6666666666667,4,2,1,60,0,0
83422,-66.6666666666667,4,2,1,80,0,0
105098,-133.333333333333,4,2,1,25,0,0
105333,-133.333333333333,4,2,1,5,0,0
105412,-133.333333333333,4,2,1,25,0,0
105648,-133.333333333333,4,2,1,5,0,0
105726,-133.333333333333,4,2,1,25,0,0
105962,-133.333333333333,4,2,1,5,0,0
106040,-133.333333333333,4,2,1,25,0,0
116093,-133.333333333333,4,2,1,5,0,0
121119,-100,4,2,1,5,0,0
126459,-95.2380952380952,4,2,1,5,0,0
126773,-90.9090909090909,4,2,1,10,0,0
127087,-86.9565217391304,4,2,1,10,0,0
127401,-83.3333333333333,4,2,1,15,0,0
127716,-80,4,2,1,15,0,0
128030,-76.9230769230769,4,2,1,20,0,0
128344,-74.0740740740741,4,2,1,20,0,0
128658,-71.4285714285714,4,2,1,25,0,0
128972,-68.9655172413793,4,2,1,25,0,0
129286,-66.6666666666667,4,2,1,25,0,0
129915,-66.6666666666667,4,2,1,25,0,0
131485,-100,4,2,1,50,0,0
132428,-58.8235294117647,4,2,1,90,0,0
142480,-66.6666666666667,4,2,1,80,0,0
152532,-58.8235294117647,4,2,1,90,0,0
162585,-58.8235294117647,4,2,1,80,0,0
172716,-58.8235294117647,4,2,1,50,0,0
173894,-58.8235294117647,4,2,1,40,0,0
174365,-58.8235294117647,4,2,1,30,0,0
174679,-58.8235294117647,4,2,1,20,0,0
174993,-58.8235294117647,4,2,1,5,0,0

[Colours]
Combo1 : 3,90,252
Combo2 : 4,196,251
Combo3 : 0,255,255
Combo4 : 128,255,255

[HitObjects]
97,344,491,6,0,B|132:323|145:281|143:236|116:201|92:187|64:191|46:191|28:183|10:158|12:116|37:76|88:56|129:64|160:87|183:109|183:109|217:93|241:87|274:98|290:116|290:116|274:86|257:75,1,600
265,81,3082,6,0,B|226:55|198:47|198:47|227:37|264:37|288:45|315:67|325:86|325:86|339:66|336:32|328:8|328:8|358:70|405:99|468:89|468:89|426:157|423:214,1,600
424,204,5674,6,0,B|428:238|440:270|476:297|476:297|383:238|296:243|296:243|281:246|253:268|226:271|188:260|167:227|167:181|194:147|248:140|287:174|277:222,1,581.25
238,211,8187,6,0,B|184:182|124:187|90:215|73:245|73:245|93:195|80:144,1,281.25
81,151,9443,6,0,B|75:122|59:99|46:91|46:91|88:88|131:75|145:51|153:27|153:27|157:12|192:3|221:28,1,281.25
220,27,10700,6,0,B|252:48|288:58|316:38|316:38|345:48|387:79|408:120|418:174|411:221|411:221|409:230|409:250|420:276|445:294|483:306|504:311|504:311|460:305|426:308|383:325,1,581.25
391,321,13213,6,0,B|364:328|339:345|339:345|347:300|344:246|323:217|282:191|282:191|285:204|286:237|268:268|268:268|273:228|237:191|186:173|137:180|137:180|178:160|213:105,1,600
256,192,15805,12,0,20595,0:0:0:0:
218,147,22166,6,0,P|241:182|256:227,1,84.3750032186509
256,111,22480,2,0,L|256:206,1,84.3750032186509
294,147,22794,2,0,P|271:182|256:227,1,84.3750032186509
255,302,23108,6,0,P|221:327|191:342,1,56.2500021457673
128,309,23422,1,0,0:0:0:0:
128,309,23580,1,0,0:0:0:0:
58,260,23737,1,0,0:0:0:0:
134,224,23894,2,0,P|154:178|156:164,1,56.2500021457673
93,114,24208,1,0,0:0:0:0:
142,45,24365,6,0,P|186:27|201:25,1,56.2500021457673
262,75,24679,2,0,P|294:82|326:81,1,56.2500021457673
421,36,24993,5,0,0:0:0:0:
403,118,25150,1,0,0:0:0:0:
385,200,25307,1,0,0:0:0:0:
368,282,25464,1,0,0:0:0:0:
306,339,25621,6,0,P|285:299|287:267,1,56.2500021457673
288,203,25936,1,0,0:0:0:0:
288,203,26093,1,0,0:0:0:0:
326,127,26250,1,0,0:0:0:0:
241,133,26407,2,0,P|198:124|185:116,1,56.2500021457673
130,55,26721,1,0,0:0:0:0:
51,86,26878,6,0,P|27:121|23:143,2,56.2500021457673
105,150,27349,1,0,0:0:0:0:
125,306,27663,5,0,0:0:0:0:
189,251,27820,1,0,0:0:0:0:
218,171,27977,1,0,0:0:0:0:
213,86,28134,2,0,P|259:98|292:97,1,56.2500021457673
343,61,28449,2,0,P|352:107|348:125,1,56.2500021457673
318,193,28763,5,0,0:0:0:0:
379,251,28920,1,0,0:0:0:0:
379,251,29077,1,0,0:0:0:0:
462,236,29234,1,0,0:0:0:0:
435,316,29391,6,0,P|401:338|366:337,1,56.2500021457673
309,305,29705,2,0,P|262:295|236:300,1,56.2500021457673
178,333,30019,5,0,0:0:0:0:
188,249,30176,1,0,0:0:0:0:
157,170,30333,1,0,0:0:0:0:
82,130,30490,1,0,0:0:0:0:
155,86,30648,6,0,L|173:69,38,14.0625005364418
152,29,32218,6,0,P|212:51|272:42,1,112.5
313,30,32532,2,0,B|328:25|328:25|319:45|314:83|334:134,1,112.5
378,148,32847,2,0,P|327:166|283:217,1,112.5
286,257,33161,5,8,0:0:0:0:
77,338,33318,1,2,0:0:0:0:
108,291,33396,1,2,0:0:0:0:
122,236,33475,1,2,0:0:0:0:
113,180,33553,1,2,0:0:0:0:
167,122,33632,1,0,0:0:0:0:
286,257,33789,5,8,0:0:0:0:
460,217,33946,5,2,0:0:0:0:
441,182,34025,1,2,0:0:0:0:
410,157,34103,1,2,0:0:0:0:
371,146,34182,1,0,0:0:0:0:
343,91,34260,1,0,0:0:0:0:
167,122,34417,6,0,B|96:129|55:98|55:98|75:100,1,127.50000243187,8|0,0:0|0:0,0:0:0:0:
343,91,34731,2,0,B|367:155|346:202|346:202|346:185,1,127.50000243187,8|0,0:0|0:0,0:0:0:0:
144,219,35045,1,8,0:0:0:0:
336,360,35203,1,8,0:0:0:0:
32,280,35360,1,8,0:0:0:0:
254,295,35517,1,0,0:0:0:0:
254,127,35674,5,8,0:0:0:0:
45,126,35831,1,2,0:0:0:0:
76,173,35909,1,2,0:0:0:0:
108,220,35988,1,2,0:0:0:0:
139,267,36066,1,2,0:0:0:0:
219,274,36145,1,0,0:0:0:0:
419,164,36302,5,8,0:0:0:0:
254,127,36459,1,2,0:0:0:0:
270,92,36538,1,2,0:0:0:0:
300,69,36616,1,2,0:0:0:0:
338,63,36695,1,2,0:0:0:0:
380,27,36773,1,0,0:0:0:0:
322,205,36930,5,8,0:0:0:0:
143,52,37087,1,0,0:0:0:0:
85,280,37244,1,8,0:0:0:0:
178,184,37401,1,8,0:0:0:0:
178,184,37716,5,8,0:0:0:0:
276,345,37873,1,0,0:0:0:0:
368,183,38030,1,0,0:0:0:0:
274,242,38187,5,8,0:0:0:0:
242,107,38344,2,2,L|237:36,1,63.7500012159348
107,54,38501,2,2,L|52:9,1,63.7500012159348
125,188,38658,1,0,0:0:0:0:
274,242,38815,5,8,0:0:0:0:
343,179,38972,2,2,L|322:103,1,63.7500012159348
432,151,39129,2,2,L|438:83,1,63.7500012159348
412,236,39286,1,0,0:0:0:0:
281,329,39443,6,0,P|209:300|190:230,1,127.50000243187,8|0,0:0|0:0,0:0:0:0:
417,93,39758,2,0,P|389:161|315:175,1,127.50000243187,8|0,0:0|0:0,0:0:0:0:
206,42,40072,5,8,0:0:0:0:
59,273,40229,1,0,0:0:0:0:
196,146,40386,1,8,0:0:0:0:
97,178,40543,1,0,0:0:0:0:
181,297,40700,5,8,0:0:0:0:
283,145,40857,1,2,0:0:0:0:
310,171,40936,1,2,0:0:0:0:
345,185,41014,1,2,0:0:0:0:
383,182,41093,1,0,0:0:0:0:
429,218,41171,1,0,0:0:0:0:
303,316,41328,5,8,0:0:0:0:
127,335,41485,1,2,0:0:0:0:
101,283,41564,1,2,0:0:0:0:
98,226,41642,1,2,0:0:0:0:
116,171,41721,1,2,0:0:0:0:
96,96,41799,1,0,0:0:0:0:
303,101,41956,5,0,0:0:0:0:
401,0,42114,1,0,0:0:0:0:
365,245,42271,1,0,0:0:0:0:
420,361,42428,1,0,0:0:0:0:
216,309,42585,6,0,P|228:267|215:205,1,97.4999955368044
98,226,42899,2,0,P|81:162|92:122,1,97.4999955368044
210,78,43213,6,0,P|274:83|361:22,1,168.750006437302,8|0,0:0|0:0,0:0:0:0:
295,24,43527,2,0,P|361:77|381:166,1,168.750006437302,8|0,0:0|0:0,0:0:0:0:
295,158,43841,2,0,L|249:271,1,112.500004291535,8|0,0:0|0:0,0:0:0:0:
307,285,44077,2,0,L|188:286,1,112.500004291535,8|0,0:0|0:0,0:0:0:0:
180,222,44312,1,8,0:0:0:0:
31,315,44470,6,0,P|57:251|46:188,1,112.500004291535,8|0,0:0|0:0,0:0:0:0:
15,131,44705,1,8,0:0:0:0:
32,95,44784,2,8,P|108:95|145:75,1,112.500004291535
308,30,45098,6,0,P|331:87|328:159,1,112.500004291535,8|0,0:0|0:0,0:0:0:0:
428,130,45333,2,0,P|403:190|404:260,1,112.500004291535,8|0,0:0|0:0,0:0:0:0:
337,315,45569,1,8,0:0:0:0:
177,306,45726,6,0,P|205:245|192:187,1,112.500004291535,2|0,0:0|0:0,0:0:0:0:
8,183,46040,2,0,P|60:226|122:239,1,112.500004291535,2|0,0:0|0:0,0:0:0:0:
119,89,46354,5,2,0:0:0:0:
301,63,46511,1,2,0:0:0:0:
330,36,46590,1,0,0:0:0:0:
454,139,46747,1,2,0:0:0:0:
462,181,46826,1,0,0:0:0:0:
376,339,46983,6,0,P|339:266|294:234,1,112.500004291535,8|0,0:0|0:0,0:0:0:0:
221,267,47218,1,8,0:0:0:0:
181,273,47297,2,8,P|139:205|137:161,1,112.500004291535
259,64,47611,6,2,L|250:31,7,28.1250010728836
272,106,47925,5,8,0:0:0:0:
483,40,48082,1,8,0:0:0:0:
349,166,48239,2,0,P|346:222|432:322,1,168.750006437302,8|0,0:0|0:0,0:0:0:0:
383,258,48553,2,0,P|304:305|217:295,1,168.750006437302,8|0,0:0|0:0,0:0:0:0:
156,238,48867,6,0,B|173:193|153:139|153:139|170:153,1,112.500004291535,8|0,0:0|0:0,0:0:0:0:
225,171,49103,2,0,B|281:188|326:164|326:164|309:156,1,112.500004291535,8|0,0:0|0:0,0:0:0:0:
266,91,49339,1,8,0:0:0:0:
427,35,49496,6,0,P|461:97|452:158,1,112.500004291535,8|0,0:0|0:0,0:0:0:0:
445,224,49731,1,8,0:0:0:0:
454,262,49810,2,8,P|402:308|373:356,1,112.500004291535
210,354,50124,6,0,B|145:344|114:314|114:314|132:312,1,112.500004291535,8|0,0:0|0:0,0:0:0:0:
205,267,50360,2,0,B|252:271|300:244|300:244|285:240,1,112.500004291535,8|0,0:0|0:0,0:0:0:0:
209,184,50595,1,8,0:0:0:0:
50,51,50752,6,0,P|120:58|183:39,1,112.500004291535,2|0,0:0|0:0,0:0:0:0:
396,18,51066,2,0,P|397:79|374:126,1,112.500004291535,2|0,0:0|0:0,0:0:0:0:
272,287,51381,5,2,0:0:0:0:
69,237,51538,1,2,0:0:0:0:
60,198,51616,1,0,0:0:0:0:
239,191,51773,1,2,0:0:0:0:
246,152,51852,1,0,0:0:0:0:
443,113,52009,6,0,P|421:167|360:208,1,112.500004291535,8|0,0:0|0:0,0:0:0:0:
364,280,52244,1,8,0:0:0:0:
339,311,52323,2,0,P|252:313|218:288,1,112.500004291535,8|0,0:0|0:0,0:0:0:0:
80,227,52637,5,0,0:0:0:0:
121,197,52716,1,0,0:0:0:0:
149,155,52794,1,0,0:0:0:0:
158,105,52873,1,0,0:0:0:0:
146,56,52951,1,0,0:0:0:0:
170,11,53030,1,0,0:0:0:0:
219,3,53108,1,0,0:0:0:0:
261,30,53187,1,0,0:0:0:0:
263,86,53265,5,8,0:0:0:0:
293,299,53422,1,0,0:0:0:0:
376,124,53580,1,8,0:0:0:0:
262,337,53737,1,0,0:0:0:0:
116,204,53894,6,0,P|188:198|240:157,1,127.50000243187,8|0,0:0|0:0,0:0:0:0:
311,45,54129,1,10,0:0:0:0:
311,45,54208,2,8,P|353:99|370:157,1,127.50000243187
370,307,54522,5,8,0:0:0:0:
218,101,54679,1,0,0:0:0:0:
278,325,54836,1,4,0:0:0:0:
222,61,54993,1,0,0:0:0:0:
190,305,55150,2,0,P|223:236|265:204,1,127.50000243187
415,212,55386,1,2,0:0:0:0:
419,216,55464,2,0,P|437:144|419:86,1,127.50000243187,4|0,0:0|0:0,0:0:0:0:
179,84,55778,6,0,P|242:123|303:131,1,127.50000243187,8|0,0:0|0:0,0:0:0:0:
400,25,56093,1,2,0:0:0:0:
306,206,56250,1,0,0:0:0:0:
407,327,56407,1,2,0:0:0:0:
430,108,56564,1,0,0:0:0:0:
511,302,56721,1,2,0:0:0:0:
488,180,56878,1,0,0:0:0:0:
357,93,57035,6,0,B|306:127|304:189|304:189|323:179,1,127.50000243187,2|0,0:0|0:0,0:0:0:0:
204,13,57349,2,0,B|174:62|186:122|186:122|194:109,1,127.50000243187,2|0,0:0|0:0,0:0:0:0:
201,283,57663,2,0,P|130:309|56:307,1,127.50000243187,2|0,0:0|0:0,0:0:0:0:
320,243,57977,2,0,P|386:290|438:309,1,127.50000243187,2|0,0:0|0:0,0:0:0:0:
385,118,58292,5,8,0:0:0:0:
177,197,58449,1,0,0:0:0:0:
17,60,58606,1,8,0:0:0:0:
211,163,58763,1,0,0:0:0:0:
236,33,58920,6,0,P|305:76|357:82,1,127.50000243187,8|0,0:0|0:0,0:0:0:0:
498,51,59155,1,10,0:0:0:0:
498,51,59234,2,8,P|509:118|492:180,1,127.50000243187
394,342,59548,5,8,0:0:0:0:
229,172,59705,1,0,0:0:0:0:
398,235,59862,1,4,0:0:0:0:
159,261,60019,1,0,0:0:0:0:
314,188,60176,6,0,P|297:116|235:84,1,127.50000243187
114,124,60412,1,2,0:0:0:0:
114,124,60491,2,0,P|49:92|26:30,1,127.50000243187,4|0,0:0|0:0,0:0:0:0:
196,37,60805,5,2,0:0:0:0:
345,69,60962,1,0,0:0:0:0:
438,190,61119,1,2,0:0:0:0:
417,341,61276,1,0,0:0:0:0:
331,298,61433,5,2,0:0:0:0:
346,223,61590,1,0,0:0:0:0:
306,157,61747,1,2,0:0:0:0:
235,128,61904,1,0,0:0:0:0:
59,155,62061,6,0,P|82:82|65:19,1,127.50000243187,2|0,0:0|0:0,0:0:0:0:
186,232,62375,2,0,P|166:171|170:91,1,127.50000243187,2|0,0:0|0:0,0:0:0:0:
48,279,62689,2,0,P|65:215|47:127,1,127.50000243187,2|0,0:0|0:0,0:0:0:0:
142,354,63004,5,0,0:0:0:0:
300,238,63161,1,0,0:0:0:0:
417,337,63318,2,0,P|457:266|457:223,1,112.500004291535,8|0,0:0|0:0,0:0:0:0:
392,173,63553,1,0,0:0:0:0:
364,153,63632,2,0,P|334:99|324:38,1,112.500004291535,2|0,0:0|0:0,0:0:0:0:
459,75,63946,5,8,0:0:0:0:
398,221,64103,1,0,0:0:0:0:
188,98,64260,1,2,0:0:0:0:
324,49,64417,1,0,0:0:0:0:
217,220,64574,5,8,0:0:0:0:
134,123,64731,1,0,0:0:0:0:
26,187,64888,2,0,B|50:193|78:181|78:181|71:215|72:259|105:293|149:309|185:299,1,225.000008583069,2|8,0:0|0:0,0:0:0:0:
264,143,65360,5,0,0:0:0:0:
287,355,65517,1,8,0:0:0:0:
349,269,65674,1,0,0:0:0:0:
447,218,65831,2,0,B|444:195|465:177|465:177|440:169|416:142|413:103|438:73,1,168.750006437302,8|0,0:0|0:0,0:0:0:0:
483,25,66145,2,0,B|422:47|346:10|346:10|356:25|357:43,1,168.750006437302,8|0,0:0|0:0,0:0:0:0:
308,83,66459,6,2,P|245:92|186:77,1,112.500004291535
49,22,66773,2,2,P|76:80|71:142,1,112.500004291535
75,285,67087,5,6,0:0:0:0:
225,79,67245,1,2,0:0:0:0:
225,334,67401,1,6,0:0:0:0:
75,127,67559,1,2,0:0:0:0:
317,206,67716,2,0,P|228:190|156:222,1,168.750006437302,6|0,0:0|0:0,0:0:0:0:
83,217,68030,5,2,0:0:0:0:
246,322,68187,1,0,0:0:0:0:
434,258,68344,2,0,P|434:194|406:147,1,112.500004291535,8|0,0:0|0:0,0:0:0:0:
317,206,68580,1,0,0:0:0:0:
286,220,68658,2,0,P|279:154|301:99,1,112.500004291535,2|0,0:0|0:0,0:0:0:0:
436,29,68972,5,2,0:0:0:0:
481,144,69129,1,0,0:0:0:0:
207,56,69286,1,2,0:0:0:0:
320,23,69443,1,0,0:0:0:0:
395,171,69600,2,0,P|384:239|352:288,1,112.500004291535,8|0,0:0|0:0,0:0:0:0:
256,288,69915,2,0,B|234:286|217:295|214:314|214:314|208:282|194:249|173:235|148:243|134:262|134:262|123:238|103:226,1,225.000008583069,8|0,0:0|0:0,0:0:0:0:
40,107,70386,5,0,0:0:0:0:
8,281,70543,1,2,0:0:0:0:
130,104,70700,1,0,0:0:0:0:
245,93,70857,2,0,P|288:72|222:73,1,168.750006437302,8|0,0:0|0:0,0:0:0:0:
254,58,71171,2,0,P|312:93|405:67,1,168.750006437302,8|0,0:0|0:0,0:0:0:0:
464,20,71485,6,0,B|452:68|466:118|466:118|452:109,1,112.500004291535,2|0,0:0|0:0,0:0:0:0:
303,223,71799,2,0,P|290:292|310:369,1,112.500004291535,2|0,0:0|0:0,0:0:0:0:
439,289,72114,5,2,0:0:0:0:
368,149,72271,1,2,0:0:0:0:
127,162,72428,1,2,0:0:0:0:
206,34,72585,1,2,0:0:0:0:
303,223,72742,1,2,0:0:0:0:
104,79,72899,1,2,0:0:0:0:
313,0,73056,2,0,P|284:62|279:121,1,112.500004291535
225,357,73370,6,0,B|172:337|127:341|127:341|143:321,1,112.500004291535,8|0,0:0|0:0,0:0:0:0:
195,156,73684,2,0,B|191:94|172:61|172:61|188:71,1,112.500004291535
328,133,73998,1,2,0:0:0:0:
478,64,74155,1,0,0:0:0:0:
355,138,74312,1,2,0:0:0:0:
452,56,74470,1,0,0:0:0:0:
381,212,74627,6,0,P|379:277|401:326,1,112.500004291535,8|0,0:0|0:0,0:0:0:0:
457,379,74862,1,0,0:0:0:0:
457,379,74941,2,0,P|379:362|323:372,1,112.500004291535
123,322,75255,1,2,0:0:0:0:
183,155,75412,1,0,0:0:0:0:
145,309,75569,1,2,0:0:0:0:
158,167,75726,1,0,0:0:0:0:
361,171,75883,6,0,B|408:157|441:122|441:122|458:140,2,112.500004291535,8|0|2,0:0|0:0|0:0,0:0:0:0:
192,111,76354,1,0,0:0:0:0:
278,206,76511,2,0,B|274:215|292:235|292:235|268:224|236:217|194:219|157:237,1,168.750006437302,2|0,0:0|0:0,0:0:0:0:
103,286,76826,5,0,0:0:0:0:
72,91,76983,1,0,0:0:0:0:
146,191,77140,2,0,P|215:242|254:253,1,112.500004291535
504,157,77454,2,0,P|443:146|385:157,1,112.500004291535
229,118,77768,5,0,0:0:0:0:
361,286,77925,1,0,0:0:0:0:
301,161,78082,1,0,0:0:0:0:
281,304,78239,1,0,0:0:0:0:
159,178,78396,6,0,P|137:115|97:77,1,112.500004291535,8|0,0:0|0:0,0:0:0:0:
46,36,78632,1,0,0:0:0:0:
46,36,78710,2,0,P|119:49|170:42,1,112.500004291535
326,35,79025,1,2,0:0:0:0:
294,209,79182,1,0,0:0:0:0:
353,60,79339,1,2,0:0:0:0:
377,240,79496,1,0,0:0:0:0:
409,156,79653,6,0,P|352:157|296:206,1,112.500004291535,8|0,0:0|0:0,0:0:0:0:
273,255,79888,1,0,0:0:0:0:
277,288,79967,2,0,P|208:265|157:273,1,112.500004291535
30,341,80281,1,2,0:0:0:0:
74,165,80438,1,0,0:0:0:0:
98,302,80595,1,2,0:0:0:0:
5,208,80752,1,0,0:0:0:0:
185,288,80909,6,0,P|256:288|315:264,1,112.500004291535,2|0,0:0|0:0,0:0:0:0:
378,144,81223,1,2,0:0:0:0:
247,107,81381,1,0,0:0:0:0:
437,86,81538,2,0,P|460:146|437:200,1,112.500004291535,2|0,0:0|0:0,0:0:0:0:
271,209,81852,5,0,0:0:0:0:
319,366,82009,1,0,0:0:0:0:
445,308,82166,5,8,0:0:0:0:
447,274,82244,1,0,0:0:0:0:
433,242,82323,1,0,0:0:0:0:
404,223,82401,1,0,0:0:0:0:
370,225,82480,1,8,0:0:0:0:
337,214,82559,1,0,0:0:0:0:
316,187,82637,1,0,0:0:0:0:
307,154,82716,1,0,0:0:0:0:
317,109,82794,5,8,0:0:0:0:
306,59,82873,1,0,0:0:0:0:
267,26,82951,1,0,0:0:0:0:
216,24,83030,1,0,0:0:0:0:
177,56,83108,1,8,0:0:0:0:
174,106,83187,1,0,0:0:0:0:
202,147,83265,1,0,0:0:0:0:
203,197,83344,1,0,0:0:0:0:
172,237,83422,5,4,0:0:0:0:
186,160,105098,6,0,P|184:206|206:248,1,84.3750032186509
228,205,105412,2,0,P|260:238|301:242,1,84.3750032186509
284,215,105726,2,0,P|321:213|358:180,1,84.3750032186509
376,133,106040,6,0,L|452:109,2,56.2500021457673
299,98,106511,1,0,0:0:0:0:
223,59,106669,2,0,L|169:75,2,56.2500021457673
299,98,107140,1,0,0:0:0:0:
303,182,107297,6,0,P|297:215|276:244,1,56.2500021457673
203,215,107611,2,0,P|173:248|164:271,1,56.2500021457673
220,324,107925,5,0,0:0:0:0:
303,331,108082,1,0,0:0:0:0:
384,309,108239,1,0,0:0:0:0:
449,256,108396,1,0,0:0:0:0:
472,174,108553,5,0,0:0:0:0:
389,158,108710,2,0,P|358:128|349:109,1,56.2500021457673
366,33,109025,1,0,0:0:0:0:
284,54,109182,2,0,P|241:57|215:49,1,56.2500021457673
146,35,109496,2,0,P|150:74|146:106,1,56.2500021457673
118,169,109810,5,0,0:0:0:0:
38,197,109967,1,0,0:0:0:0:
103,250,110124,1,0,0:0:0:0:
24,280,110281,1,0,0:0:0:0:
223,324,110595,5,0,0:0:0:0:
255,246,110752,1,0,0:0:0:0:
336,223,110909,1,0,0:0:0:0:
275,164,111066,6,0,P|251:130|243:106,2,56.2500021457673
336,223,111538,1,0,0:0:0:0:
397,280,111695,2,0,P|421:314|429:338,2,56.2500021457673
336,223,112166,1,0,0:0:0:0:
279,285,112323,6,0,L|231:334,1,56.2500021457673
168,280,112637,2,0,L|107:289,1,56.2500021457673
56,224,112951,1,0,0:0:0:0:
55,139,113108,1,0,0:0:0:0:
118,83,113265,1,0,0:0:0:0:
202,87,113422,1,0,0:0:0:0:
269,137,113580,6,0,P|319:144|337:139,1,56.2500021457673
376,76,113894,2,0,P|397:99|409:129,1,56.2500021457673
383,202,114208,2,0,P|388:236|403:268,1,56.2500021457673
436,330,114522,1,0,0:0:0:0:
351,325,114679,1,0,0:0:0:0:
270,350,114836,6,0,P|249:322|238:296,1,56.2500021457673
161,273,115150,2,0,P|159:239|172:198,1,56.2500021457673
88,73,115778,6,0,P|133:65|177:72,1,84.3750032186509
261,87,116093,6,0,L|295:71,7,28.1250010728836
376,118,116721,2,0,L|406:117,7,28.1250010728836
292,172,117349,6,0,L|281:205,3,28.1250010728836
356,252,117663,2,0,L|369:285,3,28.1250010728836
277,313,117977,2,0,L|243:323,3,28.1250010728836
173,269,118292,2,0,L|139:262,3,28.1250010728836
52,220,118606,6,0,P|45:206|43:189,7,28.1250010728836
130,162,119234,2,0,P|139:149|144:133,7,28.1250010728836
124,46,119862,2,0,P|140:37|161:34,15,28.1250010728836
239,77,121119,6,0,L|285:78,7,37.5
364,57,121747,2,0,L|395:105,7,37.5
352,173,122375,6,0,P|350:200|354:219,3,37.5
430,253,122689,2,0,P|433:278|431:298,3,37.5
332,306,123004,2,0,P|310:300|285:300,3,37.5
203,340,123318,2,0,P|179:344|158:342,3,37.5
158,248,123632,6,0,L|189:216,7,37.5
286,193,124260,2,0,L|277:152,7,37.5
239,66,124888,2,0,L|280:67,15,37.5
354,70,126145,6,0,L|374:99,1,18.75
354,70,126223,2,0,L|374:99,1,18.75
354,70,126302,2,0,L|374:99,1,18.75
354,70,126381,2,0,L|374:99,1,18.75
354,70,126459,2,0,L|370:93,1,19.6874993991852
354,70,126538,2,0,L|370:93,1,19.6874993991852
354,70,126616,2,0,L|370:93,1,19.6874993991852
354,70,126695,2,0,L|370:93,1,19.6874993991852
354,70,126773,6,0,L|375:97,1,20.6250006294251
354,70,126852,2,0,L|375:97,1,20.6250006294251
354,70,126930,2,0,L|375:97,1,20.6250006294251
354,70,127009,2,0,L|375:97,1,20.6250006294251
354,70,127087,2,0,L|379:102,1,21.5625004112721
354,70,127166,2,0,L|379:102,1,21.5625004112721
354,70,127244,2,0,L|379:102,1,21.5625004112721
354,70,127323,2,0,L|379:102,1,21.5625004112721
354,70,127401,6,0,L|377:100,1,22.4999993133545
354,70,127480,2,0,L|377:100,1,22.4999993133545
354,70,127559,2,0,L|377:100,1,22.4999993133545
354,70,127637,2,0,L|377:100,1,22.4999993133545
354,70,127716,2,0,L|377:100,1,23.4375
354,70,127794,2,0,L|377:100,1,23.4375
354,70,127873,2,0,L|377:100,1,23.4375
354,70,127951,2,0,L|377:100,1,23.4375
354,70,128030,6,0,L|381:104,1,24.3749988842011
354,70,128108,2,0,L|381:104,1,24.3749988842011
354,70,128187,2,0,L|381:104,1,24.3749988842011
354,70,128265,2,0,L|381:104,1,24.3749988842011
354,70,128344,2,0,L|382:105,1,25.3125000965595
354,70,128422,2,0,L|382:105,1,25.3125000965595
354,70,128501,2,0,L|382:105,1,25.3125000965595
354,70,128580,2,0,L|382:105,1,25.3125000965595
354,70,128658,6,0,L|385:109,1,26.2499991989136
354,70,128737,2,0,L|385:109,1,26.2499991989136
354,70,128815,2,0,L|385:109,1,26.2499991989136
354,70,128894,2,0,L|385:109,1,26.2499991989136
354,70,128972,2,0,L|384:109,1,27.1875008296967
354,70,129051,2,0,L|384:108,1,27.1875008296967
354,70,129129,2,0,L|384:104,1,27.1875008296967
354,70,129208,2,0,L|385:109,1,27.1875008296967
354,70,129286,6,0,L|386:110,1,28.1250010728836
354,70,129365,2,0,L|386:109,1,28.1250010728836
354,70,129443,2,0,L|386:110,1,28.1250010728836
354,70,129522,2,0,L|386:110,1,28.1250010728836
354,70,129600,2,0,L|386:109,1,28.1250010728836
354,70,129679,2,0,L|386:110,1,28.1250010728836
354,70,129758,2,0,L|386:110,1,28.1250010728836
354,70,129836,2,0,L|386:109,1,28.1250010728836
336,85,129915,5,0,0:0:0:0:
256,192,129993,12,0,131171,0:0:0:0:
413,246,131485,6,0,B|359:228|319:237|319:237|336:247,1,112.5
323,322,131799,2,0,B|265:331|225:319|225:319|243:316,1,112.5
247,240,132114,2,0,P|250:187|229:117,1,112.5
207,57,132428,5,8,0:0:0:0:
40,215,132585,1,2,0:0:0:0:
80,197,132663,1,2,0:0:0:0:
124,194,132742,1,2,0:0:0:0:
164,212,132820,1,2,0:0:0:0:
228,177,132899,1,0,0:0:0:0:
168,363,133056,5,8,0:0:0:0:
389,362,133213,1,2,0:0:0:0:
427,310,133292,1,2,0:0:0:0:
433,247,133370,1,2,0:0:0:0:
407,188,133449,1,2,0:0:0:0:
427,105,133527,1,0,0:0:0:0:
234,49,133684,6,0,P|161:57|112:89,1,127.50000243187,8|0,0:0|0:0,0:0:0:0:
303,338,133998,2,0,P|285:268|240:212,1,127.50000243187,8|0,0:0|0:0,0:0:0:0:
95,322,134312,1,8,0:0:0:0:
201,116,134470,1,8,0:0:0:0:
209,374,134627,1,8,0:0:0:0:
30,168,134784,1,0,0:0:0:0:
281,250,134941,5,8,0:0:0:0:
308,122,135098,2,2,P|337:109|374:105,1,63.7500012159348
409,210,135255,2,2,P|429:237|438:283,1,63.7500012159348
281,250,135412,1,0,0:0:0:0:
66,311,135569,5,8,0:0:0:0:
146,258,135726,2,2,P|168:230|177:198,1,63.7500012159348
65,219,135883,2,2,P|58:184|37:151,1,63.7500012159348
66,311,136040,1,0,0:0:0:0:
219,350,136197,5,8,0:0:0:0:
368,104,136354,1,0,0:0:0:0:
336,323,136511,1,8,0:0:0:0:
236,134,136669,2,0,B|188:108|124:105|124:105|139:117,1,127.50000243187
177,271,136983,5,0,0:0:0:0:
389,192,137140,1,0,0:0:0:0:
84,231,137297,1,2,0:0:0:0:
154,48,137454,5,8,0:0:0:0:
260,202,137611,1,2,0:0:0:0:
303,212,137689,1,2,0:0:0:0:
347,208,137768,1,2,0:0:0:0:
389,192,137847,1,2,0:0:0:0:
453,229,137925,1,0,0:0:0:0:
349,79,138082,5,8,0:0:0:0:
169,143,138239,1,2,0:0:0:0:
136,198,138318,1,2,0:0:0:0:
128,260,138396,1,2,0:0:0:0:
142,322,138475,1,2,0:0:0:0:
84,384,138553,1,0,0:0:0:0:
227,253,138710,5,8,0:0:0:0:
273,74,138867,1,0,0:0:0:0:
6,52,139025,1,8,0:0:0:0:
51,232,139182,1,0,0:0:0:0:
263,331,139339,6,0,P|296:310|314:290,1,63.7500012159348,8|0,0:0|0:0,0:0:0:0:
411,126,139496,2,0,P|374:152|358:168,1,63.7500012159348,8|0,0:0|0:0,0:0:0:0:
283,366,139653,2,0,P|313:314|321:289,1,63.7500012159348,8|0,0:0|0:0,0:0:0:0:
390,107,139810,2,0,P|362:150|356:167,1,63.7500012159348
421,322,139967,5,8,0:0:0:0:
238,195,140124,1,2,0:0:0:0:
194,186,140203,1,2,0:0:0:0:
150,177,140281,1,2,0:0:0:0:
106,168,140360,1,2,0:0:0:0:
45,208,140438,1,0,0:0:0:0:
177,368,140595,5,8,0:0:0:0:
381,300,140752,1,2,0:0:0:0:
406,241,140831,1,2,0:0:0:0:
402,177,140909,1,2,0:0:0:0:
366,123,140988,1,2,0:0:0:0:
370,38,141066,1,0,0:0:0:0:
149,80,141223,5,8,0:0:0:0:
307,317,141381,1,0,0:0:0:0:
185,83,141538,1,8,0:0:0:0:
273,316,141695,1,8,0:0:0:0:
272,197,141852,5,0,0:0:0:0:
243,182,141930,1,0,0:0:0:0:
211,178,142009,1,0,0:0:0:0:
179,183,142087,1,0,0:0:0:0:
150,197,142166,1,0,0:0:0:0:
128,220,142244,1,0,0:0:0:0:
114,249,142323,1,0,0:0:0:0:
110,280,142401,1,0,0:0:0:0:
115,323,142480,6,0,P|98:223|35:169,1,168.750006437302,8|0,0:0|0:0,0:0:0:0:
0,53,142794,2,0,P|63:83|161:76,1,168.750006437302,8|0,0:0|0:0,0:0:0:0:
232,20,143108,6,0,L|349:70,1,112.500004291535,8|0,0:0|0:0,0:0:0:0:
282,87,143344,2,0,L|376:171,1,112.500004291535,8|0,0:0|0:0,0:0:0:0:
311,165,143580,1,8,0:0:0:0:
477,289,143737,6,0,P|417:273|339:287,1,112.500004291535,8|0,0:0|0:0,0:0:0:0:
285,333,143972,1,8,0:0:0:0:
252,356,144051,2,8,P|193:351|137:314,1,112.500004291535
37,103,144365,6,0,P|125:118|146:136,1,112.500004291535,8|0,0:0|0:0,0:0:0:0:
217,74,144600,2,0,P|241:142|230:202,1,112.500004291535,8|0,0:0|0:0,0:0:0:0:
152,224,144836,1,8,0:0:0:0:
343,309,144993,5,2,0:0:0:0:
445,138,145150,1,0,0:0:0:0:
399,374,145307,1,2,0:0:0:0:
362,144,145464,1,0,0:0:0:0:
246,235,145621,5,2,0:0:0:0:
103,137,145778,1,2,0:0:0:0:
81,103,145857,1,0,0:0:0:0:
265,71,146014,1,2,0:0:0:0:
252,108,146093,1,0,0:0:0:0:
185,309,146250,6,0,P|165:247|128:208,1,112.500004291535,10|0,0:0|0:0,0:0:0:0:
47,246,146485,1,10,0:0:0:0:
31,209,146564,2,8,P|37:133|72:86,1,112.500004291535,10|8,0:0|0:0,0:0:0:0:
195,44,146878,5,10,0:0:0:0:
336,238,147035,1,0,0:0:0:0:
330,42,147192,1,10,0:0:0:0:
379,251,147349,1,0,0:0:0:0:
241,153,147506,6,0,B|182:162|108:127|108:127|128:157,1,168.750006437302,8|0,0:0|0:0,0:0:0:0:
172,235,147820,2,0,B|193:300|185:368|185:368|210:337,1,168.750006437302,8|0,0:0|0:0,0:0:0:0:
281,300,148134,6,0,P|343:288|402:300,1,112.500004291535,8|0,0:0|0:0,0:0:0:0:
465,324,148370,2,0,P|439:273|429:206,1,112.500004291535,8|0,0:0|0:0,0:0:0:0:
355,209,148606,1,8,0:0:0:0:
409,24,148763,6,0,P|328:14|276:27,1,112.500004291535,8|0,0:0|0:0,0:0:0:0:
239,121,148998,1,8,0:0:0:0:
201,133,149077,2,8,P|115:136|81:122,1,112.500004291535
376,111,149391,6,0,B|377:148|405:201|405:201|389:193,1,112.500004291535,8|0,0:0|0:0,0:0:0:0:
310,192,149627,2,0,B|303:242|277:277|277:277|300:261,1,112.500004291535,8|0,0:0|0:0,0:0:0:0:
360,320,149862,1,8,0:0:0:0:
128,337,150019,5,2,0:0:0:0:
122,127,150176,1,0,0:0:0:0:
165,341,150333,1,2,0:0:0:0:
82,120,150490,1,0,0:0:0:0:
196,248,150648,5,2,0:0:0:0:
386,184,150805,1,0,0:0:0:0:
364,151,150883,1,2,0:0:0:0:
186,46,151040,1,2,0:0:0:0:
209,77,151119,1,0,0:0:0:0:
306,255,151276,6,0,P|228:242|184:251,1,112.500004291535,8|0,0:0|0:0,0:0:0:0:
114,280,151511,1,8,0:0:0:0:
85,307,151590,2,8,P|96:245|82:172,1,112.500004291535
33,30,151904,5,2,0:0:0:0:
257,122,152061,1,0,0:0:0:0:
61,19,152218,1,2,0:0:0:0:
285,111,152375,1,0,0:0:0:0:
158,43,152532,5,8,0:0:0:0:
114,236,152689,1,0,0:0:0:0:
397,221,152847,1,8,0:0:0:0:
353,28,153004,1,0,0:0:0:0:
181,162,153161,6,0,B|172:234|206:268|206:268|210:249,1,127.50000243187,8|0,0:0|0:0,0:0:0:0:
314,182,153396,1,10,0:0:0:0:
314,182,153475,2,8,B|372:166|427:178|427:178|407:185,1,127.50000243187
319,338,153789,5,8,0:0:0:0:
269,309,153867,1,0,0:0:0:0:
212,298,153946,1,0,0:0:0:0:
155,307,154025,1,0,0:0:0:0:
101,326,154103,1,8,0:0:0:0:
44,313,154182,1,0,0:0:0:0:
22,260,154260,1,0,0:0:0:0:
36,204,154339,1,0,0:0:0:0:
85,176,154417,6,8,B|144:226|206:114|281:169,2,191.250003647804
116,27,155045,5,8,0:0:0:0:
343,113,155203,1,0,0:0:0:0:
150,18,155360,1,4,0:0:0:0:
265,233,155517,1,0,0:0:0:0:
190,22,155674,5,0,0:0:0:0:
78,136,155831,1,0,0:0:0:0:
105,293,155988,1,4,0:0:0:0:
249,363,156145,1,0,0:0:0:0:
370,235,156302,6,0,P|314:184|255:173,1,127.50000243187,8|0,0:0|0:0,0:0:0:0:
157,196,156538,1,0,0:0:0:0:
116,214,156616,2,0,P|57:171|34:111,1,127.50000243187,8|0,0:0|0:0,0:0:0:0:
363,16,156930,2,0,P|341:77|298:123,1,127.50000243187,8|0,0:0|0:0,0:0:0:0:
252,371,157244,2,0,P|235:288|248:220,1,127.50000243187,8|0,0:0|0:0,0:0:0:0:
425,155,157559,5,8,0:0:0:0:
204,116,157716,1,0,0:0:0:0:
409,157,157873,1,8,0:0:0:0:
188,118,158030,1,0,0:0:0:0:
265,203,158187,6,0,P|290:134|279:73,1,127.50000243187,8|0,0:0|0:0,0:0:0:0:
125,39,158422,1,8,0:0:0:0:
125,39,158501,2,8,P|100:108|111:169,1,127.50000243187
54,354,158815,5,8,0:0:0:0:
108,335,158894,1,0,0:0:0:0:
164,325,158972,1,0,0:0:0:0:
221,325,159051,1,0,0:0:0:0:
273,346,159129,1,8,0:0:0:0:
330,344,159208,1,0,0:0:0:0:
374,307,159286,1,0,0:0:0:0:
380,249,159365,1,0,0:0:0:0:
347,201,159443,6,8,B|300:142|212:240|154:171,2,191.250003647804
321,24,160072,5,2,0:0:0:0:
321,24,160229,1,0,0:0:0:0:
81,126,160386,1,2,0:0:0:0:
81,126,160543,1,0,0:0:0:0:
319,207,160700,5,2,0:0:0:0:
177,41,160857,1,0,0:0:0:0:
0,185,161014,1,2,0:0:0:0:
142,351,161171,1,0,0:0:0:0:
321,282,161328,5,0,0:0:0:0:
337,292,161407,1,0,0:0:0:0:
352,302,161485,1,0,0:0:0:0:
367,253,161564,1,0,0:0:0:0:
391,208,161642,1,0,0:0:0:0:
433,179,161721,1,0,0:0:0:0:
472,147,161799,1,0,0:0:0:0:
485,97,161878,1,0,0:0:0:0:
461,52,161956,5,0,0:0:0:0:
411,39,162035,1,0,0:0:0:0:
371,71,162114,1,2,0:0:0:0:
363,121,162192,1,0,0:0:0:0:
321,151,162271,1,2,0:0:0:0:
270,149,162349,1,0,0:0:0:0:
232,114,162428,1,2,0:0:0:0:
185,94,162506,1,0,0:0:0:0:
130,89,162585,6,0,P|62:114|12:174,1,127.50000243187,8|0,0:0|0:0,0:0:0:0:
169,246,162820,1,0,0:0:0:0:
217,261,162899,2,0,P|283:246|345:207,1,127.50000243187,8|0,0:0|0:0,0:0:0:0:
239,53,163213,1,8,0:0:0:0:
92,235,163370,1,2,0:0:0:0:
94,196,163449,1,2,0:0:0:0:
96,158,163527,1,8,0:0:0:0:
308,289,163684,1,0,0:0:0:0:
437,148,163841,6,0,B|377:151|334:107|334:107|363:108,1,127.50000243187,8|0,0:0|0:0,0:0:0:0:
443,258,164155,2,0,B|419:263|412:280|412:280|390:236|356:209|299:202|256:219|240:271,1,255.000004863739,8|0,0:0|0:0,0:0:0:0:
374,363,164627,5,0,0:0:0:0:
205,169,164784,1,8,0:0:0:0:
163,305,164941,1,0,0:0:0:0:
50,193,165098,5,8,0:0:0:0:
47,180,165176,1,0,0:0:0:0:
44,167,165255,1,0,0:0:0:0:
41,154,165333,1,0,0:0:0:0:
38,141,165412,1,8,0:0:0:0:
35,128,165490,1,0,0:0:0:0:
32,115,165569,1,0,0:0:0:0:
29,102,165648,1,0,0:0:0:0:
6,57,165726,5,8,0:0:0:0:
51,80,165805,1,0,0:0:0:0:
101,82,165883,1,0,0:0:0:0:
151,73,165962,1,0,0:0:0:0:
198,55,166040,1,8,0:0:0:0:
248,47,166119,1,0,0:0:0:0:
297,59,166197,1,0,0:0:0:0:
337,90,166276,1,0,0:0:0:0:
350,138,166354,6,0,P|334:220|297:271,1,127.50000243187,4|0,0:0|0:0,0:0:0:0:
132,39,166669,1,4,0:0:0:0:
199,266,166826,1,0,0:0:0:0:
32,115,166983,2,0,P|97:158|160:161,1,127.50000243187,4|0,0:0|0:0,0:0:0:0:
359,35,167297,5,8,0:0:0:0:
281,275,167454,1,0,0:0:0:0:
416,243,167611,2,0,B|385:215|374:166|374:166|358:182|316:190|289:172|289:172|260:184,1,191.250003647804,8|8,0:0|0:0,0:0:0:0:
205,206,167925,2,0,B|231:137|185:53|185:53|221:72,1,191.250003647804,8|0,0:0|0:0,0:0:0:0:
296,102,168239,5,8,0:0:0:0:
74,182,168396,1,0,0:0:0:0:
301,135,168553,1,8,0:0:0:0:
74,275,168710,1,0,0:0:0:0:
215,238,168867,2,0,B|228:193|209:133|209:133|237:158,1,127.50000243187,8|0,0:0|0:0,0:0:0:0:
328,251,169182,2,0,B|344:263|379:261|379:261|361:227|354:173|399:133|452:137|489:175,1,255.000004863739,8|8,0:0|0:0,0:0:0:0:
472,314,169653,5,0,0:0:0:0:
352,362,169810,1,8,0:0:0:0:
285,129,169967,1,0,0:0:0:0:
168,147,170124,5,4,0:0:0:0:
170,159,170203,1,0,0:0:0:0:
172,171,170281,1,0,0:0:0:0:
174,183,170360,1,0,0:0:0:0:
176,195,170438,1,0,0:0:0:0:
178,207,170517,1,0,0:0:0:0:
181,219,170595,1,0,0:0:0:0:
183,231,170674,1,0,0:0:0:0:
197,259,170752,5,0,0:0:0:0:
141,269,170830,1,0,0:0:0:0:
87,249,170909,1,0,0:0:0:0:
51,205,170987,1,0,0:0:0:0:
42,150,171066,1,0,0:0:0:0:
62,97,171144,1,0,0:0:0:0:
106,61,171223,1,0,0:0:0:0:
162,52,171301,1,0,0:0:0:0:
217,70,171381,5,0,0:0:0:0:
212,126,171459,1,0,0:0:0:0:
245,171,171538,1,0,0:0:0:0:
299,185,171616,1,0,0:0:0:0:
350,161,171695,1,0,0:0:0:0:
373,110,171773,1,0,0:0:0:0:
358,55,171852,1,0,0:0:0:0:
311,24,171930,1,0,0:0:0:0:
292,103,172009,6,0,L|327:123,1,31.8750006079674
293,128,172087,2,0,L|328:148,1,31.8750006079674
293,157,172166,2,0,L|328:177,1,31.8750006079674
294,182,172244,2,0,L|329:202,1,31.8750006079674
291,212,172323,2,0,L|326:232,1,31.8750006079674
292,237,172401,2,0,L|327:257,1,31.8750006079674
292,266,172480,2,0,L|327:286,1,31.8750006079674
293,291,172558,2,0,L|328:311,1,31.8750006079674
306,352,172637,1,4,0:0:0:0:
256,192,172716,12,0,175150,0:0:0:0:
