osu file format v5

[General]
AudioFilename: Super Special.mp3
AudioLeadIn: 1015
PreviewTime: -1
Countdown: 0
SampleSet: Normal
StackLeniency: 0.9
Mode: 0
LetterboxInBreaks: 1

[Editor]
Bookmarks: 66221,110506
DistanceSpacing: 1
BeatDivisor: 4
GridSize: 8

[Metadata]
Title:Super Special (TV Size)
Artist:Seira Kagami
Creator:Mystearica
Version:Normal
Source:
Tags:chaos head anime j-pop opening theme op

[Difficulty]
HPDrainRate:2
CircleSize:4
OverallDifficulty:3
SliderMultiplier:1.3
SliderTickRate:1

[Events]
//Background and Video events
0,0,"ch.jpg"
//Break Periods
2,6063,8471
2,19635,33709
//Storyboard Layer 0 (Background)
//Storyboard Layer 1 (Fail)
//Storyboard Layer 2 (Pass)
//Storyboard Layer 3 (Foreground)
//Storyboard Sound Samples
//Background Colour Transformations
3,100,0,0,0

[TimingPoints]
864,476.190476190476,4,2,0,100,1,0
17292,-100,4,2,0,50,0,0
19435,-100,4,1,0,60,0,0
35149,-100,4,1,0,80,0,0
79197,-100,4,1,0,70,0,0
80387,-100,4,1,0,70,0,1
110506,-100,4,1,0,20,0,1
112530,-100,4,1,0,0,0,0

[Colours]
Combo1 : 140,122,111
Combo2 : 87,203,84
Combo3 : 36,79,149
Combo4 : 190,16,16
Combo5 : 247,103,62

[HitObjects]
120,192,1102,1,0
120,192,1340,2,0,B|264:192,1,130
376,192,2292,1,0
376,256,2530,2,0,B|232:256,1,130
112,256,3483,1,0
112,256,3959,6,0,B|112:112,1,130
168,88,4673,2,0,B|248:88,1,65
240,152,5149,2,0,B|328:152,1,65
368,152,5625,1,0
400,208,5863,1,0
136,120,9911,5,0
136,120,10149,1,0
168,216,10625,2,0,B|328:216,1,130
400,216,11578,5,0
448,120,12054,1,0
344,120,12530,1,0
344,120,12768,2,0,B|192:120,1,130
256,200,13721,5,0
256,200,14197,1,0
152,200,14673,1,0
152,200,15149,1,0
208,112,15625,1,0
208,112,16102,2,0,B|208:248,1,130
208,296,16816,1,0
256,192,17292,12,4,19435
128,112,35149,5,0
232,112,35625,1,0
176,200,36102,1,0
232,288,36578,1,0
128,288,37054,1,0
128,288,37530,1,4
296,192,38721,6,0,B|376:192,2,65,0|0|0
232,192,39435,2,0,B|136:192,1,65
112,160,39911,1,0
168,128,40149,2,0,B|256:128,1,65
296,128,40625,1,0
360,128,40863,2,0,B|496:128,1,130,0|4
136,192,42768,5,0
184,128,43244,1,0
256,104,43721,1,0
328,128,44197,1,0
376,192,44673,1,0
376,192,45149,1,4
120,304,46340,6,0,B|152:240,1,65
176,200,46816,1,0
200,152,47054,2,0,B|237:80,1,65
256,48,47530,1,0
280,95,47768,2,0,B|310:153,1,65
336,200,48244,1,0
360,248,48483,2,0,B|424:376,1,130,0|4
184,192,50387,5,0
256,264,50863,1,0
328,192,51340,1,0
256,120,51816,1,0
184,192,52292,1,0
256,264,52768,1,4
88,72,53959,6,0,B|88:168,1,65
88,200,54435,1,0
144,160,54673,2,0,B|144:256,1,65
144,288,55149,5,0
200,320,55387,2,0,B|200:224,1,65
200,192,55863,1,0
256,224,56102,2,0,B|256:88,1,130,0|4
128,192,58006,5,0
216,248,58483,1,0
312,280,58959,1,0
368,192,59435,1,0
312,104,59911,1,0
216,136,60387,1,4
80,72,61578,6,0,B|168:72,1,65
120,136,62054,1,0
120,136,62292,2,0,B|216:136,1,65
160,200,62768,5,0
160,200,63006,2,0,B|240:200,1,65
200,264,63483,1,0
200,264,63721,2,0,B|296:264,1,65
248,328,64197,1,0
248,328,64435,5,0
248,328,64673,2,0,B|344:328,1,65
360,328,65149,5,0
432,256,65625,1,0
432,152,66102,1,0
360,72,66578,1,0
288,152,67054,1,0
288,256,67530,1,0
360,328,68006,1,4
352,208,68483,5,0
352,208,68721,2,0,B|296:176|224:248|152:200,1,195
112,200,69673,1,0
224,128,70149,5,0
224,128,70625,1,0
328,128,71102,1,0
328,128,71340,2,0,B|408:128,1,65
264,208,72054,6,0,B|224:216|224:216|184:192|184:192|128:208,1,130
144,136,72768,2,0,B|192:120|192:120|248:152|248:152|288:128,1,130
328,144,73483,1,0
328,256,74197,5,0
232,224,74673,1,0
136,184,75149,1,0
232,144,75625,1,4
328,112,76102,5,0
328,112,76340,2,0,B|360:160|272:216|328:320,1,195
384,296,77292,2,0,B|360:240|416:200|392:160,1,130
464,168,78006,2,0,B|496:216|408:272|464:376,1,195
384,192,79197,5,0
384,192,79435,2,0,B|232:192,1,130
368,280,80387,5,4
368,280,80863,1,0
264,280,81340,1,0
264,280,81816,1,0
160,280,82292,1,0
160,280,82768,1,0
208,184,83244,2,0,B|264:160|296:200|408:176,1,195
424,240,84197,5,0
360,240,84435,1,0
296,240,84673,1,0
232,240,84911,2,0,B|192:256|144:224|96:240,1,130
40,184,85625,5,0
104,184,85863,2,0,B|144:168|208:200|256:176,1,130
296,184,86578,1,0
360,184,86816,2,0,B|400:168|464:200|512:176,1,130
384,112,87768,6,0,B|272:56|200:144|272:200|392:240|248:328|168:264,1,390,0|4
80,120,89673,6,0,B|128:144|168:96|224:120,1,130
272,120,90387,1,0
272,120,90625,1,0
336,120,90863,2,0,B|384:104|424:144|472:120,1,130
464,184,91578,1,0
464,248,91816,5,0
464,248,92054,2,0,B|392:280|328:216|264:248,1,195
208,248,93006,1,0
208,248,93244,2,0,B|136:280|72:216|8:248,1,195
88,192,94197,6,0,B|176:192,1,65
280,192,94911,1,0
384,120,95387,6,0,B|264:80|216:120|216:208|344:208|376:280|296:376|160:248,1,455,0|4
240,192,97530,5,0
240,192,98006,1,0
344,192,98483,1,0
344,192,98959,1,0
296,280,99435,5,0
192,280,99911,1,0
192,280,100149,2,0,B|168:248|120:240|88:184,1,130
88,128,100863,6,0,B|136:104|152:64|216:56,1,130
208,120,101578,1,0
272,120,101816,1,0
336,120,102054,2,0,B|416:120|408:112,1,65
400,184,102530,6,0,B|360:216|320:160|248:192,1,130
208,184,103244,1,0
104,184,103721,1,0
152,272,104197,1,0
256,160,104911,6,0,B|272:208|336:208|368:264,1,130
408,280,105625,1,0
408,280,105863,1,0
416,216,106102,2,0,B|416:160|464:144|472:80,1,130
466,33,106816,1,0
408,64,107054,6,0,B|360:80|328:48|248:64,1,130
216,64,107768,2,0,B|176:48|136:80,1,65
96,104,108244,1,0
120,168,108483,6,0,B|168:192|208:152|272:168,1,130
312,176,109197,1,0
312,176,109435,2,0,B|360:160|392:192|448:176,1,130
504,184,110149,1,0
256,192,110625,12,0,112530
