osu file format v12

[General]
AudioFilename: seikon ed 1.mp3
AudioLeadIn: 0
PreviewTime: 55165
Countdown: 0
SampleSet: Normal
StackLeniency: 0.7
Mode: 0
LetterboxInBreaks: 0
WidescreenStoryboard: 0

[Editor]
DistanceSpacing: 1.4
BeatDivisor: 4
GridSize: 4

[Metadata]
Title:Passionate squall (TV Size)
TitleUnicode:Passionate squall (TV Size)
Artist:Seikon no Qwaser Cast
ArtistUnicode:藤村歩, 豊崎愛生, 茅原実里, 平野綾, 日笠陽子
Creator:suzutsukikanade
Version:Insane
Source:Seikon no Qwaser
Tags:
BeatmapID:328012
BeatmapSetID:129902

[Difficulty]
HPDrainRate:7
CircleSize:4
OverallDifficulty:8
ApproachRate:9
SliderMultiplier:2.4
SliderTickRate:2

[Events]
//Background and Video events
0,0,"478455.jpg",0,0
//Break Periods
2,49115,98815
//Storyboard Layer 0 (Background)
//Storyboard Layer 1 (Fail)
//Storyboard Layer 2 (Pass)
//Storyboard Layer 3 (Foreground)
//Storyboard Sound Samples
//Background Colour Transformations
3,100,163,162,255

[TimingPoints]
7165.24363200203,500,4,1,1,75,1,0
72165,-100,4,1,1,75,0,1
79915,-100,4,1,1,75,0,0
80165,-100,4,1,1,75,0,1
86165,-100,4,1,1,75,0,0
88165,-100,4,1,1,75,0,1
88415,-100,4,1,1,75,0,0

[HitObjects]
56,112,7165,2,0,P|88:120|136:152,1,60,0|0,0:0|0:0,0:0:0:0:
168,196,7415,2,0,P|198:206|228:208,1,60
308,192,7665,1,0,0:0:0:0:
388,164,7790,2,0,P|424:152|492:212,2,120
388,164,8540,5,0,0:0:0:0:
304,152,8665,2,0,L|276:92,1,60
232,28,8915,1,0,0:0:0:0:
196,104,9040,2,0,L|248:228,1,120
400,276,9540,5,0,0:0:0:0:
504,144,9790,1,0,0:0:0:0:
424,116,9915,1,0,0:0:0:0:
348,152,10040,2,0,P|300:172|224:136,1,120
124,28,10540,1,0,0:0:0:0:
156,192,10790,5,0,0:0:0:0:
220,36,11040,1,0,0:0:0:0:
76,124,11290,5,0,0:0:0:0:
160,112,11415,1,0,0:0:0:0:
232,152,11540,2,0,P|264:164|308:160,1,60
372,152,11790,2,0,P|432:152|484:212,2,120
228,240,12540,5,0,0:0:0:0:
148,220,12665,2,0,L|120:164,1,60
148,88,12915,2,0,P|189:53|257:48,1,120,0|4,0:0|0:3,0:0:0:0:
264,48,13290,1,0,0:0:0:0:
275,48,13415,1,0,0:0:0:0:
286,49,13540,1,4,0:3:0:0:
420,148,13790,5,8,0:0:0:0:
276,232,14040,1,8,0:0:0:0:
160,108,14290,1,8,0:0:0:0:
160,108,14415,2,0,P|116:128|72:128,1,60
44,188,14665,6,0,P|32:224|32:268,1,60,8|8,0:0|0:0,0:0:0:0:
64,320,14915,2,0,P|94:316|152:324,1,60,8|8,0:0|0:0,0:0:0:0:
208,312,15165,6,0,B|248:256|156:208|224:128,1,180,4|0,0:0|0:0,0:0:0:0:
268,72,15665,2,0,P|311:61|388:73,1,120,8|0,0:0|0:0,0:0:0:0:
460,112,16040,2,0,P|432:144|420:196,1,60,0|4,0:0|0:3,0:0:0:0:
396,236,16290,2,0,P|348:264|276:248,1,120,4|0,0:3|0:0,0:0:0:0:
212,212,16665,2,0,P|172:212|96:260,1,120,0|8,0:0|0:0,0:0:0:0:
48,316,17040,1,8,0:0:0:0:
56,176,17165,6,0,P|112:132|168:132,1,120,4|0,0:3|0:0,0:0:0:0:
244,132,17540,1,0,0:0:0:0:
244,132,17665,2,0,L|388:112,1,120,8|0,0:0|0:0,0:0:0:0:
448,104,18040,1,8,0:0:0:0:
488,180,18165,6,0,L|480:264,1,60,4|0,0:3|0:0,0:0:0:0:
404,208,18415,2,0,L|352:264,1,60
320,180,18665,2,0,L|188:168,1,120,8|8,0:0|0:0,0:0:0:0:
188,169,19040,1,0,0:0:0:0:
176,168,19165,5,0,0:0:0:0:
77,31,19415,1,0,0:0:0:0:
91,198,19665,1,8,0:0:0:0:
166,47,19915,5,0,0:0:0:0:
102,102,20040,1,8,0:0:0:0:
18,98,20165,2,0,L|-10:198,1,60
48,226,20415,6,0,L|62:300,1,60
130,329,20665,2,0,P|190:310|274:310,1,120,8|8,0:0|0:0,0:0:0:0:
329,322,21040,1,8,0:0:0:0:
394,269,21165,6,0,L|409:199,1,60,4|0,0:0|0:0,0:0:0:0:
473,158,21415,2,0,L|449:83,1,60
375,129,21665,2,0,L|343:58,1,60,8|0,0:0|0:0,0:0:0:0:
268,51,21915,2,0,P|205:52|150:104,1,120,0|4,0:0|0:3,0:0:0:0:
72,228,22415,5,8,0:0:0:0:
28,65,22665,1,0,0:0:0:0:
153,176,22915,1,8,0:0:0:0:
234,154,23040,1,8,0:0:0:0:
301,204,23165,6,0,P|346:219|377:108,1,180,4|0,0:0|0:0,0:0:0:0:
390,120,23665,2,0,P|443:104|510:124,1,120,8|0,0:0|0:0,0:0:0:0:
456,189,24040,2,0,L|437:247,1,60,0|4,0:0|0:3,0:0:0:0:
497,291,24290,2,0,L|448:355,1,60,4|0,0:3|0:0,0:0:0:0:
376,325,24540,2,0,L|283:318,1,60,0|8,0:0|0:0,0:0:0:0:
216,184,24915,1,8,0:0:0:0:
189,104,25040,1,8,0:0:0:0:
250,46,25165,6,0,P|179:63|112:38,1,120,4|0,0:0|0:0,0:0:0:0:
52,36,25540,1,0,0:0:0:0:
33,117,25665,2,0,B|45:170|45:170|18:249,1,120,8|0,0:0|0:0,0:0:0:0:
23,232,26040,1,8,0:0:0:0:
23,232,26290,1,0,0:0:0:0:
95,275,26415,1,0,0:0:0:0:
175,250,26540,1,0,0:0:0:0:
246,294,26665,6,0,P|295:280|375:290,1,120,8|8,0:0|0:0,0:0:0:0:
444,305,27040,1,8,0:0:0:0:
428,222,27165,6,0,P|419:156|453:75,1,120,4|0,0:0|0:0,0:0:0:0:
439,94,27540,1,0,0:0:0:0:
445,83,27665,5,8,0:0:0:0:
452,73,27790,2,0,L|312:61,1,120,8|8,0:0|0:0,0:0:0:0:
248,56,28165,5,4,0:0:0:0:
248,56,28415,1,0,0:0:0:0:
176,100,28540,1,8,0:0:0:0:
96,72,28665,2,0,P|56:68|0:132,1,120,0|0,0:0|0:0,0:0:0:0:
256,192,29165,12,4,31165,0:0:0:0:
128,80,31415,5,0,0:0:0:0:
128,248,31665,1,8,0:0:0:0:
272,164,31915,1,0,0:0:0:0:
272,164,32040,6,0,P|312:152|408:176,1,120,0|0,0:0|0:0,0:0:0:0:
388,164,32540,1,0,0:0:0:0:
452,220,32665,6,0,L|436:360,1,120,12|0,0:0|0:0,0:0:0:0:
364,304,33040,2,0,P|308:288|232:300,1,120
180,244,33415,2,0,P|168:192|196:128,1,120,8|8,0:0|0:0,0:0:0:0:
256,72,33790,2,0,L|384:60,1,120
460,56,34165,5,0,0:0:0:0:
458,67,34290,1,0,0:0:0:0:
456,78,34415,2,0,P|433:133|486:184,1,120,0|8,0:0|0:0,0:0:0:0:
496,255,34790,2,0,L|477:326,1,60,0|0,0:0|0:0,0:0:0:0:
402,342,35040,1,0,0:0:0:0:
333,293,35165,6,0,P|294:270|185:271,3,120,4|0|8|0,0:0|0:0|0:0|0:0,0:0:0:0:
150,215,36040,6,0,P|137:163|162:104,1,120
326,69,36540,1,0,0:0:0:0:
244,91,36665,2,0,L|121:85,1,120,8|0,0:0|0:0,0:0:0:0:
40,81,37040,5,0,0:0:0:0:
102,236,37290,1,0,0:0:0:0:
178,200,37415,6,0,P|225:195|269:206,1,60,0|0,0:0|0:0,0:0:0:0:
316,224,37665,2,0,P|366:240|399:237,1,60,0|8,0:0|0:0,0:0:0:0:
456,229,37915,1,0,0:0:0:0:
507,162,38040,1,8,0:0:0:0:
475,84,38165,6,0,L|412:57,3,60
344,98,38665,2,0,L|256:115,1,60,8|0,0:0|0:0,0:0:0:0:
219,56,38915,2,0,L|128:47,1,60,0|8,0:0|0:0,0:0:0:0:
82,84,39165,6,0,P|29:118|4:179,1,120,4|0,0:0|0:0,0:0:0:0:
19,252,39540,1,0,0:0:0:0:
79,310,39665,2,0,P|135:285|206:295,1,120,8|8,0:0|0:0,0:0:0:0:
272,317,40040,1,0,0:0:0:0:
339,267,40165,6,0,L|344:202,1,60
403,148,40415,2,0,P|436:143|479:161,2,60,0|0|8,0:0|0:0|0:0,0:0:0:0:
240,191,40915,1,8,0:0:0:0:
160,162,41040,1,8,0:0:0:0:
83,196,41165,6,0,P|58:214|3:213,1,60
36,134,41415,2,0,P|65:116|117:121,1,60
160,162,41665,2,0,P|219:176|305:153,1,120,8|0,0:0|0:0,0:0:0:0:
354,133,42040,2,0,P|409:115|502:131,1,120
467,202,42415,1,0,0:0:0:0:
420,40,42665,5,8,0:0:0:0:
415,51,42790,1,0,0:0:0:0:
410,62,42915,2,0,L|394:137,1,60
323,160,43165,6,0,L|253:171,1,60
168,308,43540,1,0,0:0:0:0:
88,336,43665,1,8,0:0:0:0:
7,317,43790,2,0,P|-14:262|30:190,1,120
70,151,44165,6,0,L|66:77,1,60
151,90,44415,2,0,L|169:24,1,60
237,77,44665,2,0,P|285:76|352:124,1,120,8|8,0:0|0:0,0:0:0:0:
401,174,45040,1,0,0:0:0:0:
483,156,45165,5,8,0:0:0:0:
483,156,45290,2,0,L|467:284,1,120
395,318,45665,2,0,P|337:328|270:308,1,120,8|0,0:0|0:0,0:0:0:0:
207,266,46040,2,0,L|145:280,1,60
92,215,46290,6,0,L|32:199,2,60
74,125,46665,2,0,L|44:66,1,60
130,62,46915,2,0,L|165:-4,1,60
214,72,47165,6,0,P|272:72|344:107,1,120
400,140,47540,1,0,0:0:0:0:
460,200,47665,2,0,L|452:296,1,60
308,340,48040,1,0,0:0:0:0:
236,296,48165,6,0,L|164:288,1,60
108,240,48415,2,0,P|104:204|116:172,1,60
152,108,48665,2,0,P|188:72|272:72,1,120
256,156,99415,5,8,0:0:0:0:
