osu file format v5

[General]
AudioFilename: kokoroscan.mp3
AudioLeadIn: 0
PreviewTime: -1
Countdown: 1
SampleSet: Normal

[Metadata]
Title:Kokoro Scan
Artist:Sega
Creator:sinxtanx
Version:Normal

[Difficulty]
HPDrainRate:5
CircleSize:5
OverallDifficulty:5
SliderMultiplier:1.5
SliderTickRate:1

[Events]
//Background and Video events
1,0,"kokoroscan.flv"
//Break Periods
2,27100,37326
2,75573,84715
2,123455,136045
2,142470,158016
2,196952,214567
2,234096,253582
2,276263,277228
2,280992,281957
2,285721,286686
2,292519,317425
//Storyboard Layer 0 (Background)
//Storyboard Layer 1 (Failing)
//Storyboard Layer 2 (Passing)
//Storyboard Layer 3 (Foreground)
//Storyboard Sound Samples
//Background Colour Transformations
3,100,163,162,255

[TimingPoints]
300,591.133004926108,4,1,0,100

[HitObjects]
128,192,19511,1,0
176,192,19807,1,0
224,192,20102,1,0
320,192,20694,1,0
400,192,21186,1,0
256,144,21876,5,0
256,224,22467,1,0
256,304,23058,2,2,B|256:128,1,150
160,208,24240,5,0
160,208,24536,1,0
208,272,25029,1,0
272,224,26309,1,0
224,176,26605,1,0
224,112,26900,1,0
208,288,38428,6,0,B|384:288|368:192|368:128|366:132|288:128,1,300
112,176,40792,6,2,B|320:96|320:176,2,225
208,288,43157,6,0,B|384:288|368:192|368:128|366:132|288:128,1,300
112,176,45521,6,2,B|320:96|320:176,2,225
128,224,48181,5,0
176,224,48477,1,0
224,224,48772,1,0
272,224,49068,1,0
304,192,49364,1,0
304,144,49659,1,0
272,112,49955,1,0
224,96,50250,1,0
176,96,50546,1,0
128,160,52910,5,0
160,208,53206,1,0
192,256,53501,1,0
240,224,53797,1,0
208,176,54093,1,0
176,128,54388,1,0
224,128,54684,1,0
272,128,54979,1,0
320,128,55275,1,0
176,208,57344,6,2,B|226:273|289:272|256:176,2,150
176,128,58822,6,0,B|226:193|289:192|368:112,1,225
160,160,62073,2,2,B|160:16|514:27|465:320|160:368|160:208,1,600
192,144,66802,5,0
240,144,67098,1,0
288,144,67393,1,0
288,192,67689,1,0
240,192,67984,1,0
192,192,68280,1,0
192,240,68575,1,0
240,240,68871,1,0
288,240,69166,2,2,B|288:152|207:263|176:144,1,150
336,144,70349,6,2,B|336:56|255:167|224:48,1,150
256,192,71531,12,0,75373
272,192,85718,5,0
272,192,86014,1,0
272,192,86309,1,0
208,192,86900,1,0
208,192,87295,1,0
208,128,88083,2,0,B|368:128,1,150
358,128,89265,1,0
256,144,90152,6,2,B|176:144,2,75
192,192,91334,6,2,B|272:192,2,75
272,240,92516,6,2,B|192:240,2,75
32,192,95176,6,0,B|32:368|256:368|256:16|400:16|496:16|480:336|288:336,1,800
240,320,98723,1,0
208,320,98920,1,0
160,336,99216,1,0
128,272,99905,5,0
128,272,100201,1,0
112,224,100792,1,0
208,224,101974,1,0
208,224,102270,1,0
208,224,102566,1,0
32,192,104634,6,2,B|208:192,1,150
224,192,105521,1,2
272,192,105817,1,2
320,256,106999,6,2,B|80:256,1,225
48,256,108182,1,2
128,160,109364,6,0,B|193:192|256:144,1,125
304,144,110250,1,0
304,96,110546,1,0
384,96,111137,1,0
384,144,111433,1,0
384,192,111728,1,0
320,176,112319,1,0
320,224,112615,1,0
320,272,112910,1,0
160,192,114388,6,0,B|256:192,1,75
235,192,114979,2,0,B|240:112,1,75
239,117,115570,2,0,B|336:144,1,75
311,137,116162,2,0,B|336:224,1,75
331,209,116753,1,0
240,240,117639,5,0
176,240,118132,1,0
112,240,118526,1,0
112,176,119117,6,0,B|144:144|192:176,1,75
180,169,119708,2,0,B|240:160|224:112,1,75
226,122,120299,2,0,B|144:112|192:64,1,75
177,83,120891,2,0,B|224:16|240:64,1,75
233,50,121482,1,0
256,192,122368,5,0
320,192,122763,2,0,B|320:336,1,125
32,32,137738,6,2,B|480:352,1,525
384,336,140102,2,2,B|288:288|352:208|304:144|208:224|160:192|240:96|176:48|320:80|352:160,1,450
384,208,142270,1,6
256,192,159019,5,2
320,192,159314,1,2
320,128,159610,1,0
320,64,159905,1,2
384,64,160201,1,2
384,128,160497,1,0
384,192,160792,1,2
384,256,161088,2,2,B|144:256,1,225
112,224,162270,1,0
160,192,162566,1,0
224,192,162861,1,2
288,192,163157,1,2
256,128,163748,5,0
256,128,164043,1,0
320,128,164634,1,2
320,192,165226,1,2
320,256,165521,1,2
224,256,166112,5,0
224,256,166408,1,0
224,144,166999,1,2
304,144,167590,1,2
304,144,167886,1,2
352,224,168477,6,2,B|192:208,7,150
144,112,173206,6,0,B|224:112,1,75
192,176,174093,1,2
192,256,174684,1,4
288,288,175275,2,0,B|288:208,1,75
288,176,175866,1,2
256,192,177935,6,4,B|360:158|317:113|201:43|129:96|59:163|111:315|253:382|495:364|487:156|445:1|223:-12|142:30|112:128,1,900
112,192,182073,6,2,B|112:384|256:384|480:384|480:192|480:128|464:64|416:16|368:16|272:16|208:48|160:96|160:176|208:256|256:272|320:240|368:176|320:144,1,1050
128,96,187689,5,0
192,96,187984,1,4
160,144,188280,1,2
224,144,188575,1,4
288,144,188871,1,0
256,192,189166,1,4
192,192,189462,1,2
224,240,189758,1,2
272,240,190053,1,6
112,304,192418,5,2
144,256,192713,1,0
176,208,193009,1,4
208,160,193304,1,2
240,112,193600,1,2
288,112,193896,1,4
336,112,194191,1,4
304,160,194487,1,6
272,208,194782,1,6
80,192,195965,5,0
144,192,196260,2,0,B|272:192,1,125
240,192,215472,5,0
320,192,215767,2,0,B|320:0|112:0|160:160,1,350
176,224,217836,2,0,B|416:240,1,225
448,208,218920,5,0
416,176,219216,1,0
400,176,219314,1,4
352,128,219905,5,0
304,128,220201,1,0
272,128,220398,1,4
224,96,220792,1,0
192,128,221088,1,0
160,160,221383,1,0
160,176,221482,1,4
160,224,221876,1,0
208,224,222270,1,4
272,160,222861,1,0
272,208,223157,1,0
320,208,223452,1,0
368,176,223846,1,0
352,128,224240,1,0
304,128,224634,1,4
160,144,225226,6,2,B|160:-48|320:-48|320:240|496:240|480:16,1,550
416,48,227886,1,0
384,80,228181,1,0
352,112,228477,1,2
320,144,228772,1,2
288,176,229068,1,6
256,208,229364,1,6
256,192,229955,12,0,233896
240,192,254782,5,0
320,192,255669,1,0
320,192,255965,1,4
320,272,256851,1,0
320,272,257147,1,4
240,272,258033,1,0
240,272,258329,1,4
240,208,258822,1,2
240,144,259216,1,4
144,176,260398,5,0
144,176,260694,1,4
208,112,261580,1,0
208,112,261876,1,4
288,64,262763,1,2
288,64,263058,1,4
304,192,264536,6,2,B|272:144|240:208,8,75
336,224,267787,5,0
272,224,268181,1,0
208,224,268575,1,0
240,272,269265,6,6,B|272:320|304:256,8,75
256,192,272812,5,0
256,144,273107,2,0,B|256:48,1,75
256,192,273699,12,0,276063
256,192,278428,12,0,280792
256,192,283157,12,0,285521
256,192,287886,12,0,292319
80,112,318625,5,2
128,112,318920,1,0
176,112,319216,1,2
224,112,319511,1,4
272,112,319807,2,2,B|352:112,1,75
352,160,320398,1,0
304,160,320694,1,2
256,160,320989,1,4
208,160,321285,2,2,B|128:160,1,75
128,208,321876,1,4
176,208,322171,1,0
224,208,322467,1,4
272,208,322763,1,2
320,208,323058,1,2
320,256,323354,6,2,B|80:256,1,225
96,208,324536,2,2,B|96:48,1,150
144,64,325423,2,6,B|192:128,1,75
256,192,326309,1,6
304,192,326605,1,6
304,144,326900,1,6
256,144,327196,1,6
256,96,327492,1,6
304,96,327787,1,6
368,96,328083,6,2,B|400:192|352:256,5,150
304,240,331334,1,6
240,224,331630,2,6,B|304:176,1,75
304,128,332221,2,6,B|224:112,1,75
256,192,332812,12,4,337541
