osu file format v5

[General]
AudioFilename: kokoroscan.mp3
AudioLeadIn: 0
PreviewTime: -1
Countdown: 1
SampleSet: Normal
EditorBookmarks: 19511,27098,37344,75570,84832,123846,136063,142566,158920,197048,214487,234191,253501,292516,317344,337541

[Metadata]
Title:Kokoro Scan
Artist:Sega
Creator:sinxtanx
Version:Easy

[Difficulty]
HPDrainRate:3
CircleSize:2
OverallDifficulty:0
SliderMultiplier:0.7
SliderTickRate:1

[Events]
//Background and Video events
1,0,"kokoroscan.flv"
//Break Periods
2,27100,37326
2,75573,84715
2,123454,135938
2,142470,157219
2,197051,213672
2,234096,253582
2,276263,277228
2,280992,281957
2,285721,286686
2,292519,317425
//Storyboard Layer 0 (Background)
//Storyboard Layer 1 (Failing)
//Storyboard Layer 2 (Passing)
//Storyboard Layer 3 (Foreground)
//Storyboard Sound Samples
//Background Colour Transformations
3,100,163,162,255

[TimingPoints]
300,591.133004926108,4,1,0,100

[HitObjects]
192,192,19511,1,0
320,192,20694,1,0
256,144,21876,5,0
320,192,23058,2,2,B|176:192,1,140
192,224,26309,5,0
288,224,26900,1,0
208,288,38428,6,0,B|254:275|300:279|274:270|296:261|304:208,1,140
320,160,40792,6,2,B|215:178|176:192,1,140
224,224,43157,6,0,B|273:262|303:158|299:181|292:212|336:240,1,140
320,208,45521,6,2,B|226:212|176:208,1,140
336,224,48181,5,0
272,224,48772,1,0
208,224,49364,1,0
144,224,49955,1,0
80,224,50546,1,0
128,160,52910,5,0
160,208,53501,1,0
208,176,54093,1,0
224,128,54684,1,0
288,128,55275,1,0
128,192,57344,5,2
176,128,58822,6,0,B|226:193|289:192|368:128,1,210
160,160,62073,2,2,B|154:98|302:93|325:249|161:278|160:208,1,280
192,144,66802,5,0
288,144,67393,1,0
240,192,67984,1,0
192,240,68575,1,0
288,240,69166,2,2,B|288:152|207:263|240:192,1,105
256,144,70644,6,2,B|278:137|298:142|288:144,1,35
256,192,71531,12,0,75373
272,192,85718,5,0
208,192,86900,1,0
208,128,88083,2,0,B|352:128,1,140
288,192,90152,6,2,B|208:192,7,70
128,128,95176,6,0,B|327:130|320:113|196:144|216:189|278:150|318:185|384:272,1,350
256,272,99905,1,0
128,128,102270,1,0
208,144,104634,6,2,B|352:144,1,140
336,224,106999,6,2,B|192:224,1,140
128,160,109364,6,0,B|193:192|272:176,1,140
288,112,111137,1,0
352,160,111728,1,0
304,208,112319,1,0
256,256,112910,1,0
160,192,114388,6,0,B|240:192,1,70
224,192,115570,2,0,B|304:192,1,70
304,192,116753,1,0
208,240,117639,5,0
112,176,119117,6,0,B|144:144|176:160,1,70
176,160,120299,2,0,B|136:135|142:102,1,70
144,96,121482,1,0
256,96,122368,6,0,B|256:208,1,105
32,32,137738,6,2,B|480:352,1,536.666666666666
64,304,159019,5,2
128,256,159610,1,0
192,208,160201,1,2
256,176,161383,2,2,B|336:176,1,70
384,176,162566,1,0
432,224,163157,1,2
368,272,163748,5,0
256,272,164634,1,2
256,176,165226,1,2
256,288,165817,5,0
256,176,166999,1,2
256,80,167590,1,2
320,160,168477,6,2,B|176:160,3,140
144,112,173206,6,0,B|176:128,1,35
192,224,174684,1,4
288,160,175275,2,0,B|288:80,1,70
256,224,177935,6,4,C|320:176|272:128|208:144|160:192|176:288|208:304,1,420
288,304,182073,6,2,C|288:224|368:224|368:144|192:144|208:192,1,490
128,96,187689,5,0
160,144,188280,1,2
208,192,188871,1,0
256,240,189462,1,2
320,272,190053,1,6
144,272,192418,5,2
176,208,193009,1,4
208,144,193600,1,2
272,144,194191,1,4
240,208,194782,1,6
144,192,195965,6,0,B|256:192,1,105
240,192,215472,5,0
320,192,215767,1,0
256,192,217541,5,0
320,272,218723,1,0
320,272,219019,1,0
352,160,219905,5,0
352,160,220201,1,0
240,160,220792,1,0
240,160,221088,1,0
240,160,221383,1,0
240,256,221876,1,0
240,256,222270,1,4
336,256,222861,1,0
336,256,223157,1,0
336,256,223452,1,0
400,176,223846,1,0
384,160,224240,1,0
368,144,224634,1,4
288,144,225226,6,2,B|241:284|310:247|326:289|353:288|384:208,1,245
320,208,227886,1,0
320,208,228181,1,0
320,208,228477,1,2
320,208,228772,1,2
320,208,229068,1,6
320,208,229364,1,6
256,192,229955,12,0,233896
240,192,254782,5,0
320,192,255965,1,4
320,272,257147,1,4
240,272,258329,1,4
240,240,258822,1,2
240,208,259216,1,4
144,176,260694,5,4
208,112,261876,1,4
288,64,263058,1,4
304,192,264536,6,2,B|270:161|240:208,4,70
336,224,267787,5,0
208,224,268674,1,0
240,272,269265,6,6,B|275:295|304:256,4,70
256,192,272812,5,0
256,192,273107,2,0,B|272:160,1,35
256,192,273699,12,0,276063
256,192,278428,12,0,280792
256,192,283157,12,0,285521
256,192,287886,12,0,292319
80,112,318625,5,2
176,112,319216,1,2
272,112,319807,2,2,B|352:112,1,70
256,160,320989,1,4
128,208,321876,1,4
224,208,322467,1,4
320,208,323058,1,2
320,208,323354,6,2,B|32:208,1,280
112,160,326309,1,6
192,112,326900,1,6
288,112,327492,1,6
384,128,328083,6,2,B|283:126|224:304,2,245
256,192,332812,12,4,337541
