osu file format v5

[General]
AudioFilename: Streets_of_Rage_2_-_01_Intro_(S.O.R._Super_Mix).mp3
AudioLeadIn: 0
PreviewTime: -1
Countdown: 1
SampleSet: Normal
StackLeniency: 0.7
Mode: 0
LetterboxInBreaks: 1
EditorBookmarks: 45147,57704,96218,134622,139427,149036,151438,153841,163450,168245,170002

[Metadata]
Title:Intro (Streets Of Rage. Super Mix)
Artist:Sega
Creator:Shinkosai
Version:Hard
Source:
Tags:Streets of Rage

[Difficulty]
HPDrainRate:6
CircleSize:5
OverallDifficulty:8
SliderMultiplier:2.6
SliderTickRate:2

[Events]
//Background and Video events
0,0,"sor.jpg"
//Break Periods
2,43387,49345
2,96347,104998
2,124221,133332
//Storyboard Layer 0 (Background)
//Storyboard Layer 1 (Failing)
//Storyboard Layer 2 (Passing)
//Storyboard Layer 3 (Foreground)
//Storyboard Sound Samples
//Background Colour Transformations
3,100,255,0,0

[TimingPoints]
0,599.990600600601,4,1,0,31,1,0

[Colours]
Combo1 : 0,0,0
Combo2 : 0,128,0
Combo3 : 0,0,128
Combo4 : 255,0,0
Combo5 : 255,255,0

[HitObjects]
255,194,19199,5,0
59,192,19649,1,0
62,127,19799,1,0
61,256,20099,1,0
59,192,20699,2,2,B|204:192,1,130
253,194,21599,1,0
447,186,22049,1,0
447,250,22199,1,0
443,119,22499,1,0
447,185,23099,2,2,B|287:185,1,130
255,249,23999,5,0
252,53,24449,1,0
187,53,24599,1,0
316,54,24899,1,0
314,54,25499,2,2,B|314:192,1,130,2|2
255,191,26399,1,0
88,88,26849,1,0
88,152,26999,1,0
92,213,27299,1,0
224,224,27899,2,2,B|320:128,1,130
352,96,28799,6,0,B|320:-32|0:32|96:192|192:192|320:192|448:288|320:320|288:384|96:288,1,715
224,320,31199,2,0,B|96:319|96:127|96:-33|256:-33|416:-33|416:127|416:319|238:319,1,845
160,352,33599,2,0,B|160:32|160:32|384:32|384:128|384:192|160:192|160:192|393:369,1,1040
256,192,36599,12,0,43056
256,32,50399,6,0,B|224:160|224:160|96:160|96:160|224:224|224:224|160:352|160:352|256:256|256:256|352:352|352:352|288:224|288:224|416:160|416:160|288:160|288:160|256:32,2,1300
256,32,56699,1,0
320,32,56999,1,0
320,291,57749,5,8
205,136,58199,1,0
156,92,58349,1,8
38,35,58649,1,0
32,128,59249,1,0
96,126,59399,1,0
160,131,59549,1,0
192,224,60149,1,8
288,224,60599,1,0
352,224,60749,1,8
481,218,61049,1,0
448,96,61649,1,4
397,55,61799,1,4
334,38,61949,1,4
73,34,62549,1,8
49,227,62999,1,0
98,269,63149,1,8
212,330,63449,1,0
451,228,64048,1,0
386,215,64198,1,0
329,203,64348,1,0
69,196,64948,1,8
220,72,65398,1,0
284,80,65548,1,8
413,80,65848,1,0
152,85,66448,1,4
149,149,66598,1,4
142,213,66748,1,4
256,192,67348,5,0
297,142,67498,1,0
343,96,67648,1,0
391,138,67798,1,0
338,175,67948,1,0
305,225,68248,1,0
258,192,68848,1,12
258,192,69148,1,12
256,192,69748,5,0
212,143,69898,1,0
166,96,70048,1,0
120,142,70198,1,0
168,185,70348,1,0
207,232,70648,1,0
254,192,71248,1,12
254,192,71548,1,12
256,192,72148,5,0
298,241,72298,1,0
344,286,72448,1,0
391,241,72598,1,0
342,197,72748,1,0
302,152,73048,1,0
258,192,73648,1,12
258,192,73948,1,12
256,192,74548,5,0
214,241,74698,1,0
163,281,74848,1,0
119,232,74998,1,0
166,191,75148,1,0
211,152,75448,1,0
254,192,76048,1,12
254,192,76348,1,12
256,192,76948,5,0
350,280,77248,1,0
452,199,77548,1,0
352,192,78448,1,8
349,62,78748,1,8
256,192,79348,1,0
161,281,79648,1,0
68,188,79948,1,0
160,192,80848,1,8
160,128,81148,1,8
160,128,81748,5,0
224,128,82048,1,0
288,128,82348,1,0
288,64,82648,1,0
224,64,82948,1,0
224,128,83248,1,0
224,192,83548,1,2
224,192,84148,5,0
224,256,84448,1,0
224,320,84748,1,0
160,320,85048,1,0
160,256,85348,1,0
224,256,85648,1,0
288,256,85948,1,2
288,256,86548,5,0
352,256,86848,1,0
416,256,87148,1,0
416,320,87448,1,0
352,320,87748,1,0
352,256,88048,1,0
352,192,88348,1,2
352,192,88948,5,0
352,128,89248,1,0
352,64,89548,1,0
288,64,89848,1,0
288,128,90148,1,0
352,128,90448,1,0
416,128,90748,1,2
256,192,91348,12,0,96147
384,352,105748,5,0
384,352,106348,2,4,B|384:32|384:32|256:192|256:192|128:32|128:32|128:352,1,1040
128,342,109198,1,2
128,342,109348,1,2
128,342,109498,1,4
128,342,109648,1,4
160,352,111148,2,0,B|160:32|160:32|384:32|384:128|384:192|160:192|160:192|393:369,1,1040
380,362,114148,1,4
380,362,114298,1,4
416,384,114448,1,4
416,384,114598,1,4
416,384,114748,1,4
416,384,115048,1,4
416,384,115348,2,0,B|256:224|256:224|256:224|256:224|96:384|96:384|64:352|64:352|224:192|224:192|64:32|64:32|96:0|96:0|256:160|256:160|256:160|256:160|416:0|416:0|448:32|448:32|288:192|288:192|448:352,2,1885
256,192,134547,6,0,B|192:128,4,65
159,193,135447,1,0
96,192,135897,1,0
96,288,136347,2,6,B|256:288,1,130
256,224,136947,6,0,B|320:288,4,65
345,223,137847,1,0
416,224,138297,1,0
448,128,138747,2,6,B|288:128,1,130
256,160,139347,6,0,B|192:224,4,65
258,225,140247,1,0
160,224,140697,1,0
96,160,141147,2,6,B|96:0,1,130
160,64,141747,6,0,B|224:128,4,65
224,64,142647,1,0
320,96,143097,1,0
384,160,143547,2,6,B|288:256,1,130
256,192,144147,5,0
208,147,144297,2,0,B|144:83,1,65
66,11,144747,1,0
9,128,145047,1,0
128,192,145497,1,4
128,192,145947,2,4,B|288:192,1,130
256,192,146547,5,0
296,242,146697,2,0,B|360:306,1,65
463,334,147147,1,0
464,204,147447,1,0
383,191,147897,1,4
384,192,148347,2,6,B|224:192,1,130
254,192,148947,5,0
212,142,149097,1,0
160,102,149247,1,0
110,59,149397,1,0
70,111,149547,1,0
166,198,149847,1,0
224,224,150297,1,0
256,192,150447,1,0
256,192,150747,1,4
256,192,151047,1,4
258,192,151347,5,0
300,241,151497,1,0
348,281,151647,1,0
400,319,151797,1,0
449,275,151947,1,0
342,200,152247,1,0
288,160,152697,1,0
256,192,152847,1,0
256,192,153147,1,4
256,192,153447,1,4
224,224,153747,5,0
178,269,153897,1,0
113,273,154047,2,0,B|17:273,1,65
48,193,154647,2,0,B|48:97,1,65,0|0
112,126,154947,2,0,B|208:126,1,65
256,160,155547,2,0,B|256:256,3,65
321,226,156147,5,0
360,277,156297,1,0
424,278,156447,2,0,B|520:278,1,65
487,192,157047,2,0,B|487:96,1,65,0|0
422,126,157347,2,0,B|326:126,1,65
256,160,157947,2,6,B|256:256,3,65
215,174,158547,5,0
181,118,158697,1,0
116,113,158847,2,0,B|20:113,1,65
53,186,159447,2,0,B|53:282,1,65,0|0
128,256,159747,2,0,B|224:256,1,65
256,224,160347,2,0,B|256:128,3,65
288,160,160947,5,0
327,108,161097,1,0
391,100,161247,2,0,B|487:100,1,65
461,183,161847,2,0,B|461:279,1,65,0|0
396,245,162147,2,0,B|300:245,1,65
256,224,162747,2,6,B|256:128,3,65
256,126,163347,6,2,B|320:190,1,65
302,172,163647,1,2
302,172,163797,1,2
302,172,163947,2,0,B|302:329|302:329|302:328,1,130
302,302,164397,1,0
302,302,164547,1,0
302,302,164697,1,0
204,302,165147,2,0,B|204:156,1,130
203,171,165747,6,2,B|267:107,1,65
249,125,166047,1,2
249,125,166197,1,2
249,125,166347,2,0,B|406:125|406:125|405:125,1,130
379,125,166797,1,0
379,125,166947,1,0
379,125,167097,1,0
374,320,167547,2,0,B|274:207,1,130,0|0
254,131,168147,6,0,B|254:35,2,65
299,177,168597,6,0,B|395:177,2,65
257,227,169047,6,0,B|257:323,2,65
210,181,169497,6,0,B|114:181,2,65
256,135,169947,6,0,B|256:39,2,65
256,192,170547,1,4
256,192,170997,12,4,172949
