osu file format v5

[General]
AudioFilename: Streets_of_Rage_2_-_01_Intro_(S.O.R._Super_Mix).mp3
AudioLeadIn: 0
PreviewTime: -1
Countdown: 1
SampleSet: Normal
StackLeniency: 0.7
Mode: 0
LetterboxInBreaks: 1
EditorBookmarks: 45147,57704,96218,134461,168245,170002

[Metadata]
Title:Intro (Streets Of Rage. Super Mix)
Artist:Sega
Creator:Shinkosai
Version:Easy
Source:
Tags:Streets of Rage

[Difficulty]
HPDrainRate:5
CircleSize:4
OverallDifficulty:6
SliderMultiplier:1.4
SliderTickRate:2

[Events]
//Background and Video events
0,0,"sor.jpg"
//Break Periods
2,43400,49350
2,96349,104700
2,123350,133350
//Storyboard Layer 0 (Background)
//Storyboard Layer 1 (Failing)
//Storyboard Layer 2 (Passing)
//Storyboard Layer 3 (Foreground)
//Storyboard Sound Samples
//Background Colour Transformations
3,100,255,0,0

[TimingPoints]
0,600.000600600601,4,1,0,31,1,0

[Colours]
Combo1 : 0,0,0
Combo2 : 0,128,0
Combo3 : 0,0,128
Combo4 : 255,0,0
Combo5 : 255,255,0

[HitObjects]
224,96,19200,5,0
20,43,20100,1,0
21,147,20550,2,2,B|21:307,1,140
103,319,21600,1,0
194,319,22500,1,0
332,315,23100,2,2,B|492:315,1,140
474,250,24000,5,0
475,39,24900,1,0
334,44,25500,2,2,B|174:44,1,140
133,77,26400,1,0
65,276,27300,1,0
207,251,27900,2,2,B|298:180,1,105
352,128,28800,6,0,B|320:32|0:64|96:192|192:192|320:192|448:256|320:320|288:352|128:288,1,665
224,320,32400,2,0,B|96:320|96:192|96:64|224:64|384:64|384:192|384:320|241:320,1,665
160,320,36000,2,0,B|160:64|160:64|352:64|352:128|352:192|160:192|160:192|352:352,1,840
256,192,39900,12,0,43200
256,192,50400,12,0,54600
297,127,55800,6,8,B|201:127,3,105,8|8|8|8
86,111,57750,1,8
119,247,58200,1,8
292,247,59100,2,4,B|292:375|292:375,1,105
381,242,60150,1,8
431,111,60600,1,8
258,132,61500,2,4,B|190:108|204:23,1,105
79,123,62550,5,8
76,263,63000,1,8
183,267,63900,2,4,B|321:266,1,105,4|4
391,227,64950,1,8
452,103,65400,1,8
277,92,66300,2,4,B|336:207|336:207,1,105
256,192,67350,6,0,B|192:128|96:32,2,210
254,192,69750,6,0,B|318:128|414:32,2,210
256,192,72150,6,0,B|320:256|416:352,2,210
257,193,74550,6,0,B|193:257|97:353,2,210
256,192,76950,5,8
350,295,77550,1,8
343,86,78450,1,0
343,87,78750,1,8
256,192,79350,1,8
152,285,79950,1,8
152,76,80850,1,0
152,76,81150,1,4
246,178,81750,5,0
348,82,82350,1,0
485,82,82950,2,2,B|485:242,1,140
351,265,84150,1,0
214,295,84750,1,0
194,156,85350,2,6,B|354:156,1,140
193,156,86550,5,0
193,296,87150,1,0
332,298,87750,2,2,B|332:138,1,140
217,77,88950,1,0
217,77,89550,1,0
88,133,90150,2,6,B|91:281,1,140
256,192,91350,12,0,96149
352,288,105750,5,0
352,288,106350,2,0,B|352:96|352:96|256:192|256:192|160:96|160:96|160:320,1,665
160,320,110550,1,0
160,320,111150,2,0,B|160:64|160:64|352:64|352:128|352:192|160:192|160:192|352:352,1,840
320,288,115350,1,0
320,288,115950,2,0,B|256:224|256:224|256:224|256:224|192:288|192:288|160:256|160:256|224:192|224:192|160:128|160:128|192:96|192:96|256:160|256:160|256:160|256:160|320:96|320:96|352:128|352:128|288:192|288:192|352:256,2,840
192,128,134550,5,0
53,149,135150,1,0
51,218,135450,1,0
46,284,135750,1,0
187,302,136350,1,8
256,295,136650,1,8
441,203,137550,1,0
437,133,137850,1,0
428,63,138150,1,0
256,96,138750,1,8
185,97,139050,1,8
10,213,139950,5,0
64,256,140250,1,0
114,304,140550,1,0
236,236,141150,1,8
287,188,141450,1,8
443,53,142350,1,0
446,122,142650,1,0
446,195,142950,1,0
309,209,143550,1,8
238,209,143850,1,8
256,96,144750,5,0
258,165,145050,1,0
191,167,145350,1,0
49,174,145950,2,2,B|49:14,1,140
185,42,147150,1,0
254,38,147450,1,0
323,41,147750,1,0
265,168,148350,2,2,B|393:104,1,140,2|2
417,246,149550,5,0
363,290,149850,1,0
307,326,150150,1,0
251,193,150750,2,2,B|140:66,1,140
294,122,151950,1,0
329,65,152250,1,0
259,65,152550,1,0
181,185,153150,2,2,B|181:25,1,140
68,122,154350,5,0
36,154,154650,1,0
4,186,154950,1,0
138,206,155550,2,0,B|202:142,1,70
397,164,156750,1,0
356,225,157050,1,0
307,276,157350,1,0
192,202,157950,2,4,B|128:202,2,35
256,192,158550,5,0
352,160,159450,1,0
353,90,159750,1,0
256,192,160950,1,0
192,256,161850,1,0
190,186,162150,1,0
256,192,162750,6,2,B|256:128|224:64|192:64|96:64|128:192|128:192|128:192|128:224,2,280
192,192,165750,6,8,B|96:192|96:288|96:384|256:384|416:384|416:288|416:192|288:192,2,560
256,192,171000,12,4,172800
