osu file format v9

[General]
AudioFilename: [SeeU] Falling Rain (fan PV).mp3
AudioLeadIn: 3000
PreviewTime: -1
Countdown: 1
SampleSet: Normal
StackLeniency: 0.7
Mode: 0
LetterboxInBreaks: 1
SkinPreference:Flowering

[Editor]
DistanceSpacing: 0.8
BeatDivisor: 1
GridSize: 32

[Metadata]
Title:Falling rain
Artist:Seeu
Creator:nizidafabie
Version:Mini Cake
Source:
Tags:Seeu fallling rain

[Difficulty]
HPDrainRate:5
CircleSize:5
OverallDifficulty:2
ApproachRate:5
SliderMultiplier:1.4
SliderTickRate:1

[Events]
//Background and Video events
0,0,"760679.jpg"
//Break Periods
2,24999,25174
2,66805,70330
2,124237,133339
//Storyboard Layer 0 (Background)
//Storyboard Layer 1 (Fail)
//Storyboard Layer 2 (Pass)
//Storyboard Layer 3 (Foreground)
//Storyboard Sound Samples
//Background Colour Transformations
3,100,128,128,255

[TimingPoints]
2221.13274336283,525.073451327432,4,1,0,100,1,0

[Colours]
Combo1 : 255,128,0
Combo2 : 255,236,146
Combo3 : 145,245,235
Combo4 : 255,0,128
Combo5 : 105,200,65

[HitObjects]
186,157,6421,1,0
186,157,6946,1,0
186,157,7471,1,0
186,157,7996,1,0
186,157,8522,1,0
186,157,9047,1,0
186,157,9572,1,0
283,176,10622,1,0
283,176,11147,1,0
283,176,11672,1,0
283,176,12197,1,0
283,176,12722,1,0
283,176,13247,1,0
283,176,13772,1,0
71,95,14822,1,0
71,95,15347,1,0
71,95,15873,1,0
71,95,16398,1,0
71,95,16923,1,0
71,95,17448,1,0
71,95,17973,1,0
368,109,19023,5,0
368,109,19548,1,0
368,109,20073,1,0
368,109,20598,1,0
368,109,21123,1,0
368,109,21648,1,0
368,109,22173,1,0
96,160,23224,2,0,B|288:160|256:160,1,140
256,160,24274,2,0,B|384:160,1,140
96,160,26374,6,0,B|256:160,1,140
96,224,27949,2,0,B|256:224,1,140
160,256,29524,2,0,B|320:256,1,140
256,192,31100,12,0,32675
192,224,33200,6,0,B|352:224,1,140
146,137,35300,5,0
229,139,36350,1,0
178,209,37401,1,0
274,185,38451,1,0
186,98,40026,1,0
186,98,40551,1,0
269,99,42126,1,0
269,99,42651,1,0
269,99,43176,1,0
367,103,44227,1,0
367,103,44752,1,0
367,103,45277,1,0
297,257,46327,1,0
297,257,46852,1,0
297,257,47377,1,0
185,241,48427,1,0
185,241,48952,1,0
185,241,49477,1,0
281,122,50527,1,0
281,122,51052,1,0
281,122,51578,1,0
132,135,52628,1,0
132,135,53153,1,0
132,135,53678,1,0
242,192,54728,1,0
242,192,55253,1,0
242,192,55778,1,0
122,125,56303,1,0
303,128,57353,1,0
198,228,58403,1,0
128,160,59454,2,0,B|288:160,2,140
128,192,61029,2,0,B|256:192|288:192,2,140
192,256,62604,2,0,B|320:256|352:256,2,140
160,224,64179,2,0,B|320:224,2,140
96,192,71530,6,0,B|256:192,1,140
160,288,72580,2,0,B|448:288|384:128,2,280
151,94,75206,5,0
313,132,76256,1,0
168,232,77306,1,0
319,244,78356,1,0
144,100,79406,1,0
227,153,79932,1,0
123,236,80457,1,0
362,132,81507,1,0
362,132,82032,1,0
362,132,82557,1,0
362,132,83082,1,0
246,138,83607,1,0
246,138,84132,1,0
246,138,84657,1,0
246,138,85182,1,0
386,97,86757,5,0
257,161,87808,1,0
120,193,88333,1,0
198,212,88858,1,0
288,220,89383,1,0
255,147,90958,1,0
93,150,92008,1,0
239,117,93058,1,0
264,206,94108,1,0
158,109,95159,1,0
165,218,96209,1,0
259,107,97259,1,0
242,230,97784,1,0
161,183,99359,1,0
105,252,99884,1,0
96,160,103035,2,0,B|256:160,2,140
128,160,104610,2,0,B|256:160|288:160,2,140
128,224,106185,2,0,B|288:224,2,140
160,160,111961,1,0
192,256,113536,1,0
288,224,115636,1,0
256,256,116687,1,0
128,160,120362,2,0,B|288:160,3,140
128,224,122462,2,0,B|288:224,3,140
117,158,134539,5,0
206,174,135064,1,0
165,254,135589,1,0
201,307,136639,1,0
308,233,137165,1,0
165,193,137690,1,0
216,150,138740,1,0
252,230,139265,1,0
256,192,140315,12,0,143990
180,166,145041,5,0
211,240,146091,1,0
261,158,147141,1,0
261,158,147666,1,0
261,158,148191,1,0
122,113,149241,1,0
122,113,149766,1,0
122,113,150291,1,0
252,181,151341,1,0
83,158,153442,1,0
150,128,153967,1,0
219,164,154492,1,0
141,228,156067,1,0
232,229,157117,1,0
303,242,158167,1,0
308,182,158693,1,0
133,150,159743,1,0
298,152,160268,1,0
144,190,161843,1,0
209,185,162368,1,0
230,127,162893,1,0
151,251,163943,1,0
264,295,164468,1,0
302,149,166044,1,0
384,121,166569,1,0
375,202,167094,1,0
189,169,168144,1,0
243,261,168669,1,0
332,188,169719,1,0
216,150,170244,1,0
270,217,170769,1,0
121,192,172344,1,0
121,192,172870,1,0
267,133,173920,1,0
305,194,174445,1,0
349,118,174970,1,0
216,185,176545,1,0
68,272,177595,1,0
276,193,178645,1,0
298,283,179695,1,0
324,168,180746,1,8
153,199,181796,1,8
384,192,182846,1,8
288,224,183371,1,8
224,160,183896,1,8
384,96,184946,1,8
288,192,185471,1,8
160,224,185996,1,8
288,128,188097,1,10
192,224,189147,1,10
320,224,190197,1,10
256,128,192297,1,14
320,192,193347,1,14
192,256,194398,1,14
224,160,196498,1,14
288,160,197548,1,14
256,160,199648,1,4
256,256,200698,1,4
128,96,202274,2,4,B|288:96,3,140
256,352,205746,1,0
