osu file format v3

[General]
AudioFilename: 02-Seether-Remedy-HHI.mp3
AudioLeadIn: 0
AudioHash: 5c43c69e8117e1e2dfc6d70788affa47
PreviewTime: -1
SampleSet: Normal

[Metadata]
Title:Remedy
Artist:Seether
Creator:Bonesnake
Version:Hard

[Difficulty]
HPDrainRate:5
CircleSize:6
OverallDifficulty:5
SliderMultiplier: 2.1
SliderTickRate: 2

[Events]
0,0,"1.jpg"
2,72406,79019
2,146089,157883
3,0,163,162,255

[TimingPoints]
384,469.373386528984

[HitObjects]
64,32,16342,5,0,
160,32,17046,1,0,
224,160,17750,1,0,
288,96,18220,5,0,
384,96,18924,1,0,
448,256,19628,1,0,
480,352,20097,5,0,
384,352,20801,1,0,
256,352,21505,1,0,
256,256,21975,1,0,
32,32,23863,5,0,
32,128,24322,1,0,
32,224,24791,2,2,B|32:224|34:338|320:288,1,315
448,352,26668,5,0,
448,256,27138,1,0,
448,192,27394,1,0,
448,96,27842,2,0,B|448:96|0:160,1,420
64,192,29021,1,0,
64,256,29271,1,0,
64,352,29754,1,0,
480,352,31362,5,0,
480,256,31832,1,0,
480,160,32301,2,2,B|480:160|478:46|288:64,1,210
256,64,33005,1,2,
96,32,34178,5,0,
96,128,34648,1,0,
96,192,34904,1,0,
96,256,35352,2,0,B|96:256|448:256,1,315
416,192,36291,1,0,
416,96,36760,1,0,
416,0,37229,1,0,
320,0,37699,1,0,
224,0,38168,1,4,
256,352,38872,5,0,
256,224,39811,2,2,B|256:224|256:192|288:160|320:128|384:128|416:128|448:128,1,210
480,128,40515,1,2,
480,128,41688,6,2,B|480:128|480:96|448:64|416:32|352:32|320:32|288:32,1,210
256,32,42392,1,2,
224,128,43331,5,0,
160,128,43566,1,0,
64,128,44035,2,0,B|64:128|0:192|0:256|0:352|177:307|416:320,1,525
288,32,45913,5,0,
288,128,46382,2,2,B|288:128|288:192|256:192|256:224|224:224|192:224|0:224,1,315
32,288,47321,1,0,
128,288,47769,1,0,
128,288,48040,1,0,
160,320,49201,5,0,
256,320,49668,1,0,
320,320,49934,1,0,
448,32,51076,5,0,
448,96,51311,1,0,
448,192,51780,1,0,
448,288,52249,1,0,
448,384,52700,1,0,
64,64,53898,5,0,
128,192,54366,1,0,
192,64,54831,1,0,
256,192,55300,1,0,
320,64,55770,1,0,
384,192,56239,1,0,
448,64,56708,1,0,
256,128,57664,5,0,
224,64,58351,6,0,B|224:64|192:96|192:192|192:160,5,105
256,128,59759,1,4,
288,64,60229,6,0,B|288:64|320:96|320:192|320:160,5,105
256,128,61637,1,4,
224,192,62106,5,0,
288,224,62345,1,0,
224,256,62575,1,0,
288,288,62810,1,0,
416,320,63280,5,0,
416,224,63749,2,0,B|416:224|416:96,4,105
256,256,65157,5,0,
288,320,65861,6,0,B|288:320|320:288|320:192|320:224,5,105
256,256,67269,1,4,
224,320,67739,6,0,B|224:320|192:288|192:192|192:224,5,105
256,256,69147,1,4,
288,192,69599,5,0,
224,160,69851,1,0,
288,128,70068,1,0,
224,96,70303,1,0,
96,64,70790,5,0,
96,160,71259,2,0,B|96:160|96:288,4,105
96,32,79942,5,0,
160,32,80177,2,0,B|160:32|256:192|423:34|512:256,1,420
480,352,81585,1,0,
416,352,81834,1,0,
64,32,82993,5,0,
64,128,83463,1,0,
64,192,83697,1,0,
160,352,84636,5,0,
160,288,84871,1,0,
160,224,85105,1,0,
160,96,85575,1,0,
256,192,86044,1,0,
256,96,86514,1,0,
160,192,86983,1,0,
416,352,87452,5,0,
352,352,87687,2,0,B|352:352|256:192|89:350|32:96,1,420
32,32,89095,1,0,
96,32,89330,1,0,
448,352,90269,5,0,
448,288,90503,1,0,
448,192,90973,1,0,
448,128,91207,1,0,
352,32,92146,5,0,
352,96,92381,1,0,
352,192,92850,1,0,
352,256,93085,2,2,B|352:256|256:359|288:0,1,315
128,256,94728,5,0,
192,320,95197,1,0,
320,320,95666,1,0,
384,256,96136,1,0,
256,224,96627,1,0,
256,224,96840,1,0,
64,64,97778,5,0,
64,128,98013,1,0,
64,224,98483,1,0,
64,224,98717,1,0,
64,320,99187,1,0,
416,320,99891,5,0,
416,224,100360,1,0,
416,160,100595,1,0,
416,64,101075,1,0,
416,64,101533,1,0,
160,32,102707,5,0,
320,96,103176,1,0,
160,128,103646,1,0,
320,192,104115,1,0,
160,224,104584,1,0,
320,288,105054,1,0,
160,320,105523,1,0,
256,128,106462,5,0,
224,64,107166,1,0,
192,96,107401,1,0,
160,128,107635,1,0,
160,160,107870,1,0,
192,192,108105,1,0,
224,224,108339,1,0,
256,128,108574,5,4,
288,64,109043,5,0,
320,96,109287,1,0,
352,128,109513,1,0,
352,160,109747,1,0,
320,192,109982,1,0,
288,224,110217,1,0,
128,320,110921,5,0,
64,288,111156,1,0,
128,256,111369,1,0,
64,224,111625,1,0,
64,128,112094,5,0,
128,64,112564,1,0,
192,64,112798,1,0,
160,128,113033,1,0,
224,128,113268,1,0,
192,192,113502,1,0,
256,256,113972,5,0,
288,320,114676,1,0,
320,288,114911,1,0,
352,256,115145,1,0,
352,224,115380,1,0,
320,192,115615,1,0,
288,160,115849,1,0,
256,224,116084,5,4,
224,320,116553,5,0,
192,288,116788,1,0,
160,256,117023,1,0,
160,224,117257,1,0,
192,192,117492,1,0,
224,160,117727,1,0,
384,64,118431,5,0,
448,96,118666,1,0,
384,128,118886,1,0,
448,160,119135,1,0,
448,256,119604,5,0,
384,320,120074,1,0,
320,320,120308,1,0,
352,256,120543,1,0,
288,256,120778,1,0,
320,192,121012,1,0,
256,192,121482,5,4,
224,128,122186,6,0,B|224:128|192:160|192:256|192:224,5,105
256,192,123594,1,4,
288,128,124063,6,0,B|288:128|320:160|320:256|320:224,5,105
256,192,125472,1,4,
224,256,125941,5,0,
288,288,126176,1,0,
224,320,126410,1,0,
288,352,126645,1,0,
416,384,127114,5,0,
416,288,127584,2,0,B|416:288|416:160,4,105
256,32,128992,5,0,
320,96,129696,1,0,
320,96,129931,1,0,
352,128,130165,1,0,
352,128,130400,1,0,
384,160,130635,1,0,
384,160,130869,1,0,
288,192,131573,5,0,
288,192,131808,1,0,
256,160,132043,1,0,
256,160,132277,1,0,
224,128,132512,1,0,
224,128,132747,1,0,
96,96,133451,5,0,
32,128,133686,1,0,
96,160,133920,1,0,
32,192,134155,1,0,
32,352,134624,5,0,
128,288,135094,1,0,
192,256,135328,1,0,
192,256,135563,1,0,
192,256,135798,1,0,
256,224,136032,1,0,
320,192,136502,6,0,B|320:192|384:160|416:128|416:64|384:0|352:0|288:32|256:32|224:64|192:96|160:128,2,420
256,192,139318,6,0,B|256:192|192:224|160:256|160:320|192:384|224:384|288:352|320:352|352:320|384:288|416:256,2,420
256,192,142134,12,0,143542
256,192,144012,12,0,145889
128,32,159032,5,0,
256,32,159736,1,0,
256,160,160440,1,0,
352,160,160909,1,0,
480,256,161613,5,0,
352,256,162317,1,0,
256,256,162799,1,0,
128,256,163491,5,0,
224,352,164195,1,0,
256,256,164664,1,0,
224,160,165134,5,2,
192,96,165368,1,2,
256,64,165603,1,2,
320,96,165837,1,2,
288,160,166072,1,2,
256,192,166542,5,0,
256,256,167246,1,0,
256,256,167480,1,0,
160,256,167950,1,0,
160,160,168419,1,0,
256,256,169123,5,0,
256,256,169358,1,0,
352,256,169827,1,0,
352,160,170297,1,0,
256,128,171001,5,0,
256,128,171235,1,0,
256,224,171705,1,0,
256,320,172174,1,0,
256,352,174052,5,0,
320,288,174756,1,0,
320,288,174991,1,0,
352,256,175225,1,0,
352,256,175460,1,0,
384,224,175695,1,0,
384,224,175929,1,0,
288,192,176633,5,0,
288,192,176868,1,0,
256,224,177103,1,0,
256,224,177337,1,0,
224,256,177572,1,0,
224,256,177807,1,0,
96,288,178511,5,0,
32,256,178746,1,0,
96,224,178980,1,0,
32,192,179215,1,0,
32,64,179684,5,0,
128,96,180154,1,0,
192,128,180388,1,0,
192,128,180623,1,0,
192,128,180858,1,0,
256,160,181092,1,0,
256,352,181562,5,0,
416,224,182265,1,0,
352,192,182500,1,0,
288,160,182735,1,0,
224,160,182970,1,0,
160,192,183204,1,0,
96,224,183439,1,0,
96,128,184143,5,0,
160,160,184378,1,0,
224,192,184613,1,0,
288,192,184847,1,0,
352,160,185082,1,0,
416,128,185317,1,0,
288,32,186021,5,0,
224,64,186255,1,0,
288,96,186490,1,0,
224,128,186725,1,0,
160,256,187194,5,0,
224,320,187663,1,0,
288,320,187898,1,0,
320,256,188133,1,0,
288,192,188368,1,0,
224,192,188602,1,0,
256,32,189052,5,0,
224,128,190010,5,0,
192,192,190245,1,0,
224,256,190480,1,0,
288,256,190714,1,0,
320,192,190949,1,0,
288,128,191184,1,0,
256,352,191888,5,0,
256,352,192123,1,0,
256,288,192358,1,0,
256,288,192592,1,0,
256,224,192827,1,0,
256,224,193062,1,0,
160,32,193765,5,0,
192,96,194000,1,0,
224,160,194235,1,0,
288,160,194469,1,0,
320,96,194704,1,0,
352,32,194939,1,0,
256,128,196582,5,0,
224,64,197286,6,0,B|224:64|192:96|192:192|192:160,5,105
256,128,198694,1,4,
288,64,199163,6,0,B|288:64|320:96|320:192|320:160,5,105
256,128,200571,1,4,
224,192,201041,5,0,
288,224,201275,1,0,
224,256,201510,1,0,
288,288,201745,1,0,
256,128,202214,5,0,
204,35,202683,2,0,B|204:35|332:35,4,105
