osu file format v3

[General]
AudioFilename: 02-Seether-Remedy-HHI.mp3
AudioLeadIn: 0
AudioHash: 5c43c69e8117e1e2dfc6d70788affa47
PreviewTime: -1
SampleSet: Normal

[Metadata]
Title:Remedy
Artist:Seether
Creator:Bonesnake
Version:Easy

[Difficulty]
HPDrainRate:4
CircleSize:5
OverallDifficulty:4
SliderMultiplier: 2.1
SliderTickRate: 2

[Events]
0,0,"1.jpg"
2,72406,79019
2,146089,157883
3,0,163,162,255

[TimingPoints]
384,469.373386528984

[HitObjects]
256,32,16342,5,0,
256,160,17750,1,0,
256,224,18220,5,0,
256,352,19628,1,0,
256,288,20097,5,0,
256,96,21505,1,0,
32,96,23852,6,2,B|32:96|249:622|512:0,1,735
416,352,26668,5,0,
512,320,27372,2,0,B|512:320|32:32,1,525
32,128,29015,1,0,
32,128,29250,1,0,
480,352,31362,5,0,
480,288,31832,1,0,
480,224,32301,2,2,B|480:224|478:110|64:128,1,420
256,32,34178,5,0,
256,96,34904,1,0,
192,64,35352,2,0,B|192:64|192:384,1,315
288,352,36760,1,0,
480,352,37699,1,0,
32,352,38872,5,0,
32,224,39811,6,2,B|32:224|32:192|64:160|96:128|160:128|192:128|320:128,1,315
384,128,41688,6,2,B|384:128|384:96|352:64|320:32|256:32|224:32|96:32,1,315
128,128,43566,5,0,
64,128,44035,2,0,B|64:128|0:192|0:256|0:352|177:307|512:320,1,630
480,224,45913,5,0,
480,160,46382,2,2,B|480:160|480:96|448:96|448:64|416:64|384:64|64:64,1,420
32,64,48025,1,0,
192,320,49201,5,0,
320,320,49934,1,0,
352,192,51076,5,0,
256,192,51780,1,0,
96,192,52700,1,0,
64,64,53898,5,0,
192,64,54831,1,0,
320,64,55770,1,0,
448,64,56708,1,0,
288,160,57664,5,0,
192,160,58351,6,0,B|192:160|192:416,3,210
128,352,60229,6,0,B|128:352|128:96,3,210
224,160,62341,5,0,
288,160,62810,1,0,
256,224,63280,5,0,
256,288,63749,2,0,B|256:288|448:288|448:224|480:32|256:128,1,420
224,224,65157,5,0,
320,224,65844,6,0,B|320:224|320:-32,3,210
384,32,67722,6,0,B|384:32|384:288,3,210
288,224,69851,5,0,
224,224,70320,1,0,
256,160,70773,5,0,
256,96,71242,2,0,B|256:96|64:96|64:160|32:352|0:384,1,420
160,32,80177,6,0,B|160:32|256:192|423:34|480:288,1,420
384,288,81834,1,0,
64,32,82993,5,0,
64,192,83697,1,0,
160,320,85105,5,0,
160,256,85575,1,0,
160,192,86044,1,0,
160,128,86514,1,0,
352,352,87687,6,0,B|352:352|256:192|89:350|32:96,1,420
96,32,89330,1,0,
448,256,90503,5,0,
448,192,90973,1,0,
448,192,91207,1,0,
352,288,92381,5,0,
352,352,92850,2,2,B|352:352|256:455|288:-32,1,420
160,256,94728,5,0,
224,320,95197,1,0,
288,320,95666,1,0,
352,256,96136,1,0,
256,224,96840,1,0,
64,64,98013,5,0,
64,224,98717,1,0,
64,288,99187,1,0,
416,320,99891,5,0,
416,192,100595,1,0,
416,32,101533,1,0,
256,32,102707,5,0,
256,128,103646,1,0,
256,224,104584,1,0,
256,320,105523,1,0,
224,224,106462,5,0,
160,224,106931,5,0,
160,160,107400,1,0,
160,96,107870,1,0,
160,32,108339,1,0,
96,32,108809,5,0,
96,96,109279,1,0,
96,160,109748,1,0,
96,224,110218,1,0,
128,320,111156,5,0,
128,256,111625,1,0,
64,128,112094,5,0,
128,64,112564,1,0,
160,128,113033,1,0,
192,192,113502,1,0,
288,128,113972,5,0,
352,128,114441,5,0,
352,192,114910,1,0,
352,256,115380,1,0,
352,320,115849,1,0,
416,320,116318,5,0,
416,256,116788,1,0,
416,192,117257,1,0,
416,128,117727,1,0,
384,64,118666,5,0,
384,128,119135,1,0,
448,256,119604,5,0,
384,320,120074,1,0,
352,256,120543,1,0,
320,192,121012,1,0,
256,160,121482,5,0,
320,160,122169,6,0,B|320:160|320:416,3,210
384,352,124047,6,0,B|384:352|384:96,3,210
288,160,126176,5,0,
224,160,126645,1,0,
256,224,127098,5,0,
256,288,127567,2,0,B|256:288|64:288|64:224|32:32|256:128,1,420
288,224,128975,5,0,
192,224,129662,6,0,B|192:224|192:-32,3,210
128,32,131540,6,0,B|128:32|128:288,3,210
224,224,133686,5,0,
288,224,134155,1,0,
256,160,134624,5,0,
256,96,135060,2,0,B|256:96|448:96|448:160|480:352|512:384,1,420
320,224,136502,6,0,B|320:224|288:288|256:320|192:320|128:288|128:256|160:192|160:160|192:128|224:96|256:64,2,420
224,224,139318,6,0,B|224:224|256:160|288:128|352:128|416:160|416:192|384:256|384:288|352:320|320:352|288:384,2,420
256,192,142134,12,0,145889
32,32,159032,1,0,
128,32,159970,1,0,
192,32,160440,1,0,
256,32,160909,1,0,
352,64,161848,5,0,
352,128,162317,1,0,
352,192,162787,1,0,
320,320,163725,5,0,
256,320,164194,1,0,
192,320,164664,1,0,
192,256,165134,5,2,
192,192,165603,1,2,
192,128,166072,1,2,
256,256,167246,5,0,
352,256,167950,1,0,
352,192,168419,1,0,
256,256,169123,5,0,
160,256,169827,1,0,
160,192,170297,1,0,
256,128,171001,5,0,
256,224,171705,1,0,
256,288,172174,1,0,
288,160,174052,5,0,
352,160,174521,5,0,
352,224,174990,1,0,
352,288,175460,1,0,
352,352,175929,1,0,
416,352,176398,5,0,
416,288,176868,1,0,
416,224,177337,1,0,
416,160,177807,1,0,
384,64,178746,5,0,
384,128,179215,1,0,
448,256,179684,5,0,
384,320,180154,1,0,
352,256,180623,1,0,
320,192,181092,1,0,
256,128,181562,5,0,
320,64,182265,5,0,
256,32,182735,1,0,
256,32,182970,1,0,
192,64,183439,1,0,
192,160,184143,5,0,
256,192,184613,1,0,
256,192,184847,1,0,
320,160,185317,1,0,
288,352,186255,5,0,
224,352,186725,1,0,
256,288,187194,5,0,
256,224,187663,1,0,
256,160,188133,1,0,
256,96,188602,1,0,
256,32,189052,5,0,
352,32,190010,5,0,
352,96,190480,1,0,
352,160,190949,1,0,
448,352,191888,5,0,
448,288,192358,1,0,
448,224,192827,1,0,
256,352,193765,5,0,
256,288,194235,1,0,
256,224,194704,1,0,
224,160,196582,5,0,
320,160,197269,6,0,B|320:160|320:416,3,210
384,352,199147,6,0,B|384:352|384:96,3,210
288,160,201259,5,0,
224,160,201728,1,0,
256,224,202198,5,0,
256,288,202667,2,0,B|256:288|64:288|129:220|32:32|288:64,1,420
