osu file format v9

[General]
AudioFilename: RUN.mp3
AudioLeadIn: 0
PreviewTime: 61259
Countdown: 0
SampleSet: Normal
StackLeniency: 0.7
Mode: 0
LetterboxInBreaks: 1

[Editor]
Bookmarks: 13028,16720,31951,46259,53643,57335,61028,75797,83182,90566,98412,105335,112720,116412,120105,134874,142259,149643,160720,164412
DistanceSpacing: 1.5
BeatDivisor: 4
GridSize: 8

[Metadata]
Title:RUN
Artist:SeeU
Creator:aston
Version:Insane
Source:Vocaloid3
Tags:SeeU Korean Vocaloid K-Pop pumpkin JNAME CHRIS KBSB kakiman ShuPing NicoNicoDouga Sanjenin Nagi -U

[Difficulty]
HPDrainRate:8
CircleSize:4
OverallDifficulty:7
ApproachRate:8
SliderMultiplier:2
SliderTickRate:2

[Events]
//Background and Video events
Video,0,"SeeU - RUN (1).avi"
0,0,"Konachan.com - 114478 seeu vocaloid zenyu.jpg"
//Break Periods
2,46528,52963
2,105605,112040
//Storyboard Layer 0 (Background)
//Storyboard Layer 1 (Fail)
//Storyboard Layer 2 (Pass)
//Storyboard Layer 3 (Foreground)
//Storyboard Sound Samples
//Background Colour Transformations
3,100,0,0,0

[TimingPoints]
175,461.538461538462,4,1,0,30,1,0
13027,-100,4,1,0,30,0,1
13143,-100,4,1,0,30,0,0
16720,-100,4,1,0,30,0,1
23989,-100,4,1,0,30,0,0
24104,-100,4,1,0,30,0,1
31489,-100,4,1,0,30,0,0
46258,-100,4,1,0,30,0,1
46316,-100,4,1,0,30,0,0
57335,-100,4,1,0,30,0,1
57451,-100,4,1,0,30,0,0
61027,-100,4,1,0,30,0,1
68297,-100,4,1,0,30,0,0
68412,-100,4,1,0,30,0,1
75104,-100,4,1,0,30,0,0
105335,-100,4,1,0,30,0,1
105393,-100,4,1,0,30,0,0
116412,-100,4,1,0,30,0,1
116527,-100,4,1,0,30,0,0
120104,-100,4,1,0,30,0,1
127374,-100,4,1,0,30,0,0
127489,-100,4,1,0,30,0,1
134181,-100,4,1,0,30,0,0
160720,-100,4,1,0,30,0,1
160835,-100,4,1,0,30,0,0
164412,-100,4,1,0,30,0,1
171681,-100,4,1,0,30,0,0
171797,-100,4,1,0,30,0,1
178489,-100,4,1,0,30,0,0
192104,-100,4,1,0,30,0,1
193720,-100,4,1,0,30,0,0
193835,-100,4,2,0,5,0,0

[Colours]
Combo1 : 255,255,255
Combo2 : 255,128,0
Combo3 : 83,169,255

[HitObjects]
160,224,2021,1,0
224,96,2251,1,0
352,160,2482,1,0
288,288,2712,1,0
156,171,2944,5,0
276,92,3174,1,0
355,212,3405,1,0
235,291,3635,1,0
180,124,3867,5,0
323,116,4097,1,0
331,259,4328,1,0
188,267,4558,1,0
331,259,4790,5,0
323,116,5021,1,0
180,124,5251,1,0
64,32,5482,1,0
32,176,5713,5,0
56,328,5944,1,0
168,224,6174,2,0,B|136:104,1,100
288,104,6636,2,0,B|408:72,1,100
344,224,7097,2,0,B|376:344,1,100
224,280,7559,6,0,B|104:312,1,100
168,160,8021,2,0,B|136:40,3,100
296,40,8944,1,0
432,112,9174,1,0
472,256,9405,1,0
16,192,10328,5,2
256,16,10790,1,2
496,192,11251,1,2
256,368,11713,1,2
256,139,13097,5,0
307,191,13328,1,0
256,244,13559,1,0
203,191,13790,1,0
256,87,14021,1,0
359,191,14252,1,0
256,296,14483,1,0
151,191,14714,1,0
128,32,14944,6,0,B|64:152,1,100
88,272,15405,2,0,B|176:328,1,100
320,336,15867,5,0
352,328,15982,1,0
384,312,16097,1,0
408,288,16213,1,0
432,256,16328,1,0
448,224,16444,1,0
456,192,16559,1,0
456,160,16674,1,0
448,128,16790,1,4
328,40,17136,5,0
328,40,17251,2,0,B|224:48,1,100,8|0
80,72,17713,1,0
224,112,17944,1,0
80,136,18174,1,8
224,176,18405,1,0
376,184,18636,1,0
232,336,18981,5,0
232,336,19097,2,0,B|352:280,1,100,8|2
464,240,19559,1,0
368,352,19790,1,0
288,224,20021,1,8
280,64,20251,2,0,B|160:0,1,100
280,71,20713,2,0,B|149:111,1,100,0|8
184,104,21174,1,0
24,352,21636,1,0
248,152,22097,1,0
400,152,22328,6,0,B|408:208|400:272,1,100
288,352,22790,2,2,B|280:296|288:232,1,100,8|0
312,104,23251,2,2,B|320:160|312:224,1,100,2|0
176,256,23713,2,2,B|168:200|176:136,1,100,8|6
64,56,24174,5,0
48,208,24405,1,0
48,240,24521,1,0
64,272,24636,1,8
200,336,24867,1,0
312,56,25328,1,0
464,32,25559,5,8
400,168,25790,1,0
312,56,26021,1,0
168,24,26251,1,0
136,24,26367,1,0
104,40,26482,1,8
216,136,26713,1,0
456,312,27174,5,0
336,224,27405,1,8
208,304,27636,1,0
336,384,27867,1,0
208,304,28097,5,0
56,304,28328,1,8
56,152,28559,1,0
360,152,29021,5,0
64,88,29482,1,0
208,56,29713,1,0
352,88,29944,1,0
448,200,30174,1,8
352,320,30405,1,0
256,200,30636,5,0
200,344,30867,1,0
280,216,31097,1,8
176,328,31328,1,0
304,248,31559,1,0
160,296,31790,5,0
88,288,32021,1,8
64,224,32251,1,0
40,160,32482,1,0
64,96,32713,1,0
64,96,32944,2,2,B|112:16|208:16|296:64|336:88,1,300,8|0
400,104,33867,5,8
448,248,34097,1,0
312,320,34328,1,0
160,328,34559,1,0
160,328,34790,2,0,B|94:358|-23:104|160:328|41:74,1,300,8|0
104,48,35713,5,8
144,104,35944,1,0
176,48,36174,1,0
248,40,36405,1,0
320,48,36636,1,8
360,104,36867,1,0
392,40,37097,5,0
200,272,37559,1,8
440,88,38021,1,0
168,216,38482,2,2,B|176:160|232:144|296:128|296:72,1,200,8|0
224,64,39174,5,0
344,152,39405,1,8
280,16,39636,1,0
272,168,39867,1,0
352,40,40097,1,0
472,128,40328,2,2,B|480:264|304:368,1,300,8|0
264,312,41251,5,8
200,336,41482,1,0
128,336,41713,1,0
72,296,41944,1,0
32,240,42174,2,0,B|160:144|80:88|240:32,1,300,8|0
304,40,43097,5,8
328,192,43328,1,0
376,48,43559,1,0
440,72,43790,5,0
304,136,44021,1,8
456,144,44251,1,0
448,216,44482,5,0
184,352,44944,1,8
184,352,45174,1,2
80,72,45636,6,2,B|56:168|200:112|120:248|296:192|264:320,1,300,2|4
264,184,53713,5,0
288,216,54174,1,8
232,272,54636,1,0
112,296,55097,1,8
48,144,55559,1,0
208,32,56021,5,8
448,64,56482,1,0
432,360,56944,1,8
320,80,57405,6,0,B|392:184,1,100
248,240,57867,2,0,B|144:312,1,100
312,320,58328,2,0,B|416:248,1,100
280,160,58790,2,0,B|208:56,1,100
128,192,59251,5,0
104,40,59482,1,0
80,192,59713,1,0
104,344,59944,1,0
256,344,60174,1,0
408,344,60405,5,0
376,320,60521,1,0
360,288,60636,1,0
344,256,60751,1,0
336,224,60867,1,0
336,192,60982,1,0
344,160,61097,1,4
456,56,61328,1,0
464,88,61444,1,0
440,112,61559,1,8
304,40,61790,5,0
256,184,62021,1,0
256,336,62251,1,0
120,272,62482,1,8
40,144,62713,1,0
144,32,62944,1,0
88,168,63174,1,0
120,184,63289,1,0
152,176,63404,1,8
280,96,63636,5,0
200,224,63867,1,0
328,152,64097,1,0
248,280,64328,1,8
400,296,64559,2,0,B|424:240|392:176,1,100
464,64,65021,2,0,B|440:120|472:184,1,100,0|8
488,312,65482,1,0
400,24,65944,1,0
104,40,66405,1,0
104,192,66636,6,0,B|248:192,1,100
72,264,67097,2,2,B|216:264,1,100,8|0
160,112,67559,2,2,B|304:112,1,100,2|0
248,264,68021,2,2,B|248:408,1,100,8|6
392,312,68482,5,0
472,184,68713,1,0
456,152,68828,1,0
424,136,68944,1,8
304,48,69174,1,0
208,336,69636,1,0
208,40,70097,1,0
56,56,70328,5,0
176,144,70559,1,0
144,152,70674,1,0
112,144,70790,1,8
48,280,71021,1,0
336,352,71482,1,0
448,72,71944,2,0,B|496:200,1,100
384,48,72405,2,0,B|336:176,1,100,0|8
248,32,72867,2,0,B|248:128|320:256,1,200
56,56,73790,5,0
88,200,74021,1,0
120,344,74251,1,0
272,344,74482,1,8
424,344,74713,2,2,B|456:280|360:208|272:232,1,200,2|0
208,112,75405,5,8
296,0,75636,1,0
360,136,75867,5,0
344,168,75982,1,0
312,184,76097,1,0
280,168,76213,1,0
264,136,76328,1,8
312,80,76559,1,0
80,120,77021,5,0
64,192,77251,1,8
80,264,77482,1,0
152,264,77713,1,0
216,296,77944,5,0
280,320,78174,1,8
312,256,78405,1,0
424,336,78867,5,0
464,192,79097,1,8
416,48,79328,1,0
264,48,79559,1,0
264,120,79790,1,0
128,88,80251,5,0
80,192,80713,2,2,B|56:248|96:248|80:320,1,100,0|8
200,192,81174,2,2,B|224:136|184:136|200:64,1,100
392,328,81867,1,8
288,48,82328,1,0
328,104,82559,1,0
472,136,82790,5,8
360,240,83021,1,0
216,280,83251,1,0
72,240,83482,1,0
48,216,83597,1,0
40,184,83713,1,8
128,64,83944,1,0
424,40,84405,6,2,B|448:88|424:136,1,100,0|8
272,136,84867,2,2,B|248:184|272:232,1,100
416,264,85328,1,0
288,336,85559,1,8
136,344,85790,1,0
56,56,86251,6,2,B|104:32|152:56,1,100,0|8
304,24,86713,2,2,B|256:48|208:24,1,100
104,128,87174,1,0
392,48,87636,1,0
440,344,88097,5,0
288,360,88328,1,8
176,256,88559,1,0
32,288,88790,1,0
440,96,89482,2,2,B|384:8|320:48,1,100,2|2
96,160,90174,1,8
392,224,90636,1,0
360,160,90867,5,0
288,152,91097,1,8
256,88,91328,1,0
184,80,91559,1,0
136,32,91790,1,0
64,40,92021,2,2,B|8:128|152:320,1,300,8|0
200,360,92944,2,0,B|248:328|304:360,1,100,8|0
360,344,93405,1,0
432,352,93636,2,0,B|464:304|432:248,1,100,0|8
440,104,94097,5,8
440,104,94328,1,8
304,40,94559,1,0
232,32,94790,2,0,B|216:80|232:136,1,100,8|0
160,120,95251,2,0,B|112:136|56:120,1,100
64,192,95713,1,8
88,256,95944,1,0
152,288,96174,2,2,B|256:304|368:288,3,200,0|8|0|10
48,304,98021,5,0
160,208,98251,1,0
200,152,98482,1,8
248,104,98713,1,2
304,64,98944,1,2
368,40,99174,2,2,B|384:96|368:152,1,100,0|10
480,32,99636,5,8
480,32,99867,1,8
472,184,100097,1,0
488,256,100328,1,8
472,328,100559,2,2,B|416:344|360:328,1,100,2|2
376,264,101021,2,2,B|320:248|264:264,1,100,0|10
384,152,101482,5,8
384,152,101713,1,8
240,184,101944,1,0
272,328,102174,5,8
240,184,102405,1,0
208,328,102636,1,0
144,296,102867,5,0
240,184,103097,1,8
104,240,103328,1,0
200,120,103559,6,0,B|210:70|256:23,1,100
400,32,104021,2,2,B|437:65|456:128,1,100,8|2
376,248,104482,2,2,B|328:264|264:248,1,100,2|2
328,112,104944,2,2,B|256:208,1,100,10|2
120,152,105405,5,4
64,192,112790,5,0
128,56,113021,1,0
160,80,113136,1,0
176,112,113251,1,8
136,256,113482,5,0
248,352,113713,1,0
400,344,113944,1,0
376,312,114059,1,0
344,296,114174,1,8
256,176,114405,5,0
368,80,114636,1,0
256,176,114867,1,0
152,288,115097,1,8
256,176,115328,1,0
392,56,115559,5,0
392,256,115790,1,0
192,256,116021,1,8
224,256,116136,1,0
248,248,116251,1,0
440,88,116482,5,0
136,96,116713,1,0
472,184,116943,1,8
120,160,117175,1,0
440,280,117405,1,0
128,224,117635,1,0
256,192,117867,5,8
152,296,118097,1,0
360,80,118328,1,0
216,120,118559,5,0
232,88,118674,1,0
264,72,118790,1,0
384,160,119021,5,0
400,192,119136,1,0
384,224,119251,1,0
272,328,119482,5,0
240,312,119597,1,0
208,296,119713,1,0
176,280,119828,1,0
152,256,119944,1,0
128,232,120059,1,0
104,208,120174,1,4
144,64,120405,5,0
176,48,120521,1,0
208,64,120636,1,8
352,104,120867,5,0
416,240,121097,1,0
296,144,121329,1,0
440,184,121558,1,8
304,248,121790,1,0
168,304,122021,5,0
40,224,122251,1,0
16,200,122367,1,0
0,168,122482,1,8
152,176,122713,1,0
184,160,122828,1,0
200,128,122944,1,0
64,64,123174,1,0
96,48,123290,1,0
128,32,123405,1,8
280,48,123636,5,0
400,56,123867,2,2,B|424:56|464:112|408:128|376:128,1,100
328,128,124328,2,2,B|304:128|264:184|320:200|352:200,1,100,8|2
472,192,125021,1,2
368,288,125482,5,0
224,248,125713,5,0
88,192,125944,1,0
224,136,126174,1,8
360,192,126405,1,0
224,248,126636,5,0
88,192,126867,1,0
224,136,127097,1,8
360,192,127328,1,0
424,328,127559,5,0
488,192,127790,1,0
472,160,127905,1,0
440,144,128021,1,8
320,56,128251,2,0,B|184:40,1,100
192,192,128713,2,2,B|328:176,1,100,0|8
312,328,129174,2,2,B|176:344,1,100,2|2
72,288,129636,5,0
40,272,129751,1,0
24,240,129867,1,8
56,96,130097,5,0
80,72,130213,1,0
112,56,130328,1,0
144,40,130444,1,0
176,32,130559,1,0
208,32,130674,1,0
240,48,130790,1,8
256,80,130905,1,0
288,104,131021,1,0
320,112,131136,1,0
352,104,131251,1,0
480,24,131482,5,0
440,168,131713,2,0,B|392:280,1,100,8|0
128,136,132405,1,0
368,320,132867,1,0
224,352,133097,2,0,B|176:240,1,100
56,336,133559,2,2,B|104:224,1,100,8|0
240,208,134021,2,2,B|128:160,1,100
32,72,134482,2,2,B|144:24,1,100,8|2
256,104,134944,5,0
456,104,135174,1,0
456,304,135405,1,8
256,304,135636,1,0
136,24,136097,5,0
16,120,136328,1,8
16,264,136559,1,0
136,360,136790,1,0
376,360,137944,5,0
496,264,138175,1,8
496,120,138406,1,0
376,24,138637,1,0
496,120,138867,1,0
376,24,139790,5,0
256,120,140021,1,8
256,264,140252,1,0
376,360,140483,1,0
256,120,140944,1,8
480,120,141405,1,0
480,120,141636,1,0
352,200,141867,6,0,B|304:336,1,100,8|0
176,352,142328,1,0
120,216,142559,2,0,B|-16:168,1,100,0|8
152,96,143021,2,2,B|352:32,1,200
456,136,143713,1,8
440,288,143944,1,0
296,328,144174,1,0
256,32,144636,5,8
256,32,144867,1,0
216,328,145328,5,0
72,288,145559,1,8
56,136,145790,1,0
208,120,146021,2,0,B|344:72,1,100
440,72,146713,5,0
256,304,147174,5,0
328,168,147405,1,8
256,304,147636,1,0
184,168,147867,1,0
256,304,148097,1,0
328,168,148328,1,8
200,88,148559,1,0
328,168,148790,1,8
256,40,149021,1,0
184,168,149251,1,8
312,88,149482,1,0
256,224,149713,1,8
408,224,149944,6,0,B|488:320,1,100,0|8
328,344,150405,2,2,B|424:264,1,100
288,376,150867,2,2,B|208:280,1,100,0|8
344,216,151328,2,2,B|248:296,1,100,2|2
120,320,152021,5,8
32,192,152482,1,0
120,72,152943,1,8
120,72,153175,1,0
416,72,153636,5,0
280,136,153867,1,8
432,136,154097,1,2
296,200,154328,1,2
448,200,154559,2,2,B|480:304,1,100,0|8
336,352,155021,2,2,B|304:240,1,100,2|2
176,336,155713,6,2,B|96:360|40:304|88:224,1,200,8|0
320,32,156636,1,8
24,64,157097,2,0,B|136:16,1,100
80,168,157559,1,8
208,88,157790,1,0
424,296,158251,5,0
488,160,158482,1,8
352,88,158713,1,0
288,224,158944,1,0
200,344,159405,6,0,B|96:256,1,100,8|0
128,232,159751,1,0
144,184,159867,2,0,B|248:96,1,100
256,88,160213,1,0
304,80,160328,2,0,B|408:168,1,100,8|0
376,296,160790,5,0
496,208,161021,1,0
352,232,161251,1,0
48,240,161713,5,0
32,88,161944,1,0
112,216,162174,1,0
352,40,162636,5,0
216,96,162867,1,0
200,128,162982,1,0
216,160,163097,1,0
368,168,163329,1,0
384,136,163444,1,0
368,104,163559,1,0
288,232,163790,5,0
304,264,163905,1,0
304,296,164021,1,0
280,328,164136,1,0
248,336,164251,1,0
216,336,164367,1,0
184,328,164482,1,4
184,176,164713,1,0
200,208,164828,1,0
184,240,164944,1,8
72,336,165174,6,0,B|16:240,1,100
80,112,165636,2,0,B|136:16,1,100,0|8
280,40,166097,1,0
424,88,166328,1,0
472,232,166559,5,0
472,264,166674,1,0
456,296,166790,1,8
368,232,167021,1,0
384,200,167136,1,0
384,168,167251,1,0
368,136,167367,1,0
344,112,167482,1,0
312,104,167597,1,0
280,112,167713,1,8
232,256,167944,5,0
96,320,168174,2,0,B|160:216,1,100
88,96,168636,1,8
40,240,168867,1,0
256,32,169328,1,0
256,336,169790,1,0
400,296,170021,6,0,B|472:216,1,100,0|0
320,248,170482,2,2,B|248:168,1,100,8|0
400,144,170944,2,2,B|472:64,1,100,0|0
320,96,171405,2,2,B|248:16,1,100,8|2
104,56,171867,5,0
56,200,172097,1,0
72,232,172213,1,0
104,248,172328,1,8
152,104,172559,1,0
168,256,172790,1,0
296,328,173021,1,0
264,184,173251,1,8
280,32,173482,1,0
416,88,173713,5,0
448,232,173944,1,0
456,264,174059,1,0
448,296,174174,1,8
344,192,174405,1,0
336,160,174521,1,0
320,128,174636,1,0
288,112,174751,1,0
256,96,174867,1,0
224,112,174982,1,0
192,128,175097,1,8
176,160,175213,1,0
168,192,175328,1,0
256,312,175559,5,0
256,312,175789,1,0
256,160,176021,1,8
256,160,176251,1,0
32,360,176713,2,0,B|112:296|80:176,1,200
152,48,177405,5,0
296,80,177636,1,0
328,224,177867,1,8
200,304,178097,1,0
416,96,178559,1,0
416,96,178790,1,8
416,96,179021,1,0
416,248,179251,5,0
264,248,179482,1,0
264,96,179713,1,8
112,96,179944,1,0
112,248,180405,6,0,B|104:320|192:344,1,100,0|8
184,264,180867,2,0,B|280:192,1,100
472,256,182251,6,0,B|480:184|392:160,1,100,0|8
400,240,182713,2,0,B|304:312,2,100
416,104,184097,5,0
352,72,184328,1,8
280,56,184558,1,0
216,88,184789,1,0
304,192,185251,1,8
208,296,185712,1,0
272,328,185943,1,0
136,256,186174,5,8
24,152,186405,1,0
132,45,186636,1,0
239,153,186867,1,0
347,45,187098,1,8
456,152,187328,1,0
408,296,187790,6,0,B|336:192,1,100,0|8
104,296,188252,2,0,B|176:192,1,100
256,312,188944,1,8
256,312,189174,1,0
72,88,189636,6,0,B|192:64,1,100,0|8
296,152,190097,2,0,B|176:128,1,100
344,88,190559,2,0,B|464:64,1,100,0|8
432,216,191482,5,0
296,152,191712,5,8
168,72,191943,5,0
192,224,192174,6,4,B|144:208|104:216|48:264|80:360|128:368|184:376|224:320,1,300
304,224,193097,6,4,B|283:270|304:328|328:368|424:368|440:304|456:232|402:202,1,300
256,192,194021,12,0,195174
