osu file format v9

[General]
AudioFilename: RUN.mp3
AudioLeadIn: 0
PreviewTime: 61259
Countdown: 0
SampleSet: Normal
StackLeniency: 0.7
Mode: 0
LetterboxInBreaks: 1

[Editor]
Bookmarks: 10259,13028,16720,24105,31489,46259,57335,61028,68412,75797,82951,90566,98412,105335,116412,120105,127489,134874,142259,149643,160720,164412,171797,179182,186566
DistanceSpacing: 1
BeatDivisor: 4
GridSize: 8

[Metadata]
Title:RUN
Artist:SeeU
Creator:aston
Version:Easy
Source:Vocaloid3
Tags:SeeU Korean Vocaloid K-Pop pumpkin JNAME CHRIS KBSB kakiman ShuPing NicoNicoDouga Sanjenin Nagi -U

[Difficulty]
HPDrainRate:2
CircleSize:3
OverallDifficulty:1
ApproachRate:2
SliderMultiplier:0.8
SliderTickRate:1

[Events]
//Background and Video events
0,0,"Konachan.com - 114478 seeu vocaloid zenyu.jpg"
Video,0,"SeeU - RUN (1).avi"
//Break Periods
2,52989,55845
2,112066,114922
//Storyboard Layer 0 (Background)
//Storyboard Layer 1 (Fail)
//Storyboard Layer 2 (Pass)
//Storyboard Layer 3 (Foreground)
//Storyboard Sound Samples
//Background Colour Transformations
3,100,0,0,0

[TimingPoints]
175,461.538461538462,4,1,0,30,1,0
16720,-100,4,1,0,30,0,1
16835,-100,4,1,0,30,0,0
24104,-100,4,1,0,30,0,1
24220,-100,4,1,0,30,0,0
61027,-100,4,1,0,30,0,1
67951,-100,4,1,0,30,0,0
68412,-100,4,1,0,30,0,1
75335,-100,4,1,0,30,0,0
120104,-100,4,1,0,30,0,1
127027,-100,4,1,0,30,0,0
127489,-100,4,1,0,30,0,1
134412,-100,4,1,0,30,0,0
164412,-100,4,1,0,30,0,1
171335,-100,4,1,0,30,0,0
171797,-100,4,1,0,30,0,1
178720,-100,4,1,0,30,0,0
192819,-100,4,1,0,30,0,1
193489,-100,4,1,0,30,0,0
193835,-100,4,2,0,5,0,0

[Colours]
Combo1 : 255,255,255
Combo2 : 255,128,0
Combo3 : 0,128,192

[HitObjects]
16,184,2021,2,0,B|96:128,1,80
144,192,2944,2,0,B|224:136,1,80
272,200,3867,2,0,B|352:144,1,80
400,208,4790,2,0,B|480:152,2,80
432,280,6175,5,0
360,320,6636,1,0
288,352,7098,2,0,B|224:288,1,80
152,296,8021,5,0
80,328,8482,1,0
64,248,8944,1,0
64,168,9405,2,0,B|88:136|152:136,1,80,0|0
216,160,10329,6,6,B|240:120|304:120|384:176|384:208|304:272|240:272|216:232,1,320,2|6
320,344,13098,5,0
384,304,13559,1,0
448,256,14021,6,0,B|392:200,1,80
448,144,14944,5,0
400,80,15405,1,0
328,48,15867,1,0
248,56,16329,6,0,B|200:32|176:80,1,80,0|4
104,40,17252,1,8
32,72,17713,1,0
96,120,18175,1,8
152,176,18636,1,0
72,200,19098,6,0,B|40:232|72:288,3,80,8|0|8|0
136,312,20944,1,8
200,264,21405,2,0,B|232:232|288:264,1,80,0|8
344,224,22329,6,0,B|383:246|429:201,3,80,0|8|0|8
400,136,24175,1,0
352,72,24636,1,8
272,96,25098,1,0
256,176,25559,2,0,B|176:208,1,80,8|0
176,128,26482,2,0,B|104:88,1,80,8|0
104,168,27405,2,0,B|40:224,1,80,8|0
96,280,28329,5,8
160,328,28790,2,0,B|200:360|240:328,1,80,0|8
224,256,29713,2,8,B|256:216|224:176,1,80,0|8
192,112,30636,2,0,B|232:80|272:112,1,80,0|8
344,88,31559,5,4
392,152,32021,1,8
312,168,32482,1,0
248,216,32944,1,8
304,272,33405,1,0
376,304,33867,6,0,B|432:296|464:264,1,80,8|0
464,200,34790,1,0
408,144,35252,1,0
336,112,35713,2,0,B|328:56|360:32,2,80
256,96,37098,5,0
224,168,37559,1,8
256,240,38021,1,0
176,240,38482,2,2,B|120:240|120:288,1,80,8|0
48,248,39405,1,8
80,176,39867,1,0
120,104,40329,6,0,B|176:104|176:56,1,80,8|0
248,96,41252,1,8
208,168,41713,1,0
168,240,42175,6,2,B|168:296|216:296,1,80,8|0
288,312,43098,1,8
360,280,43559,1,0
416,224,44021,1,8
416,144,44482,6,0,B|416:88|368:88,3,80,0|8|0|8
336,160,46329,1,4
160,320,47713,5,0
80,320,48175,1,0
96,240,48636,2,0,B|152:240|152:272|216:272,1,120
280,224,49790,6,6,B|192:200|192:112|200:64|296:48|296:32|328:32|328:48|424:64|432:112|432:200|344:224,1,520
424,192,57405,5,0
408,272,57866,1,0
328,272,58328,5,0
312,192,58789,1,0
232,192,59251,5,0
216,272,59712,1,0
200,352,60174,1,0
128,312,60636,6,0,B|72:336|56:288,1,80,0|4
96,224,61559,1,8
88,144,62020,1,0
136,80,62482,1,8
216,80,62943,1,0
296,72,63405,6,0,B|328:104|296:160,3,80,8|0|8|0
384,136,65251,1,8
416,208,65712,2,0,B|376:240|328:208,1,80,0|8
264,232,66636,6,0,B|240:184|287:146,3,80,0|8|0|8
208,112,68482,1,0
144,64,68943,1,8
144,144,69405,1,0
64,136,69866,2,0,B|96:216,1,80,8|0
32,256,70789,2,0,B|8:336,1,80,8|0
80,296,71712,2,0,B|136:352,1,80,8|0
192,288,72636,5,8
264,256,73097,2,0,B|296:216|264:176,1,80,0|8
232,112,74020,2,0,B|272:80|312:112,1,80,0|8
384,88,74943,2,0,B|416:128|384:168,1,80,0|8
424,232,75867,6,0,B|472:264|488:304,1,80
408,328,76790,1,0
336,280,77252,1,8
352,200,77713,1,0
272,192,78175,1,8
272,272,78636,1,0
192,280,79098,6,0,B|160:264|136:224,2,80
128,328,80482,1,0
64,280,80944,1,8
56,200,81405,1,0
64,120,81867,1,8
128,72,82328,1,0
208,96,82790,6,0,B|240:64|232:24,3,80
312,40,84636,1,8
384,80,85098,1,0
336,144,85559,1,8
392,200,86021,1,0
456,248,86482,1,8
392,296,86944,2,0,B|344:360,1,80
288,304,87867,6,0,B|248:336|208:304,1,80,0|8
240,232,88790,2,0,B|200:200|160:232,1,80,0|8
96,264,89713,2,0,B|64:224|96:184,1,80,0|8
168,160,90636,5,4
224,104,91098,2,0,B|264:72|304:104,1,80,8|0
376,96,92021,6,0,B|408:176|376:256,1,160,8|8
440,304,93405,1,0
360,320,93867,6,8,B|280:352|200:320,1,160
208,240,95252,1,0
288,224,95713,1,8
328,152,96175,1,0
368,80,96636,1,8
288,72,97098,6,2,B|208:40|128:72,1,160
56,40,98482,1,8
64,120,98944,6,0,B|32:200|72:280,1,160
128,216,100329,1,8
208,200,100790,6,0,B|176:280|216:360,1,160
280,320,102175,1,8
312,248,102636,1,0
360,184,103098,1,8
440,176,103559,2,2,B|472:136|440:96,1,80,0|8
376,64,104482,2,2,B|336:32|296:64,1,80,0|8
336,128,105405,5,0
184,176,106329,1,0
104,176,106790,1,0
104,256,107252,1,0
152,320,107713,1,0
192,320,107944,2,0,B|232:296|264:264,1,80
304,208,108867,6,6,B|216:184|216:96|224:48|320:32|320:16|352:16|352:32|448:48|456:96|456:184|368:208,1,520
256,144,116482,5,0
320,192,116943,1,0
256,240,117405,5,0
192,192,117866,1,0
256,144,118328,5,0
320,96,118789,1,0
384,48,119251,1,0
448,96,119713,6,0,B|472:144|424:168,1,80
456,240,120636,1,8
408,304,121097,1,0
360,240,121559,1,8
312,304,122020,1,0
264,240,122482,6,0,B|224:208|176:240,3,80,8|0|8|0
192,312,124328,1,8
112,312,124789,2,0,B|80:280|112:224,1,80,0|8
120,160,125713,6,0,B|160:136|208:144,3,80,0|8|0|8
160,72,127559,1,0
232,40,128020,1,8
280,104,128482,1,0
360,104,128943,2,0,B|328:184,1,80,8|0
408,160,129866,2,0,B|440:240,1,80,8|0
360,248,130789,2,0,B|328:328,1,80,8|0
256,288,131713,5,8
256,288,132174,2,0,B|216:320|176:288,1,80,0|8
152,216,133097,2,0,B|112:248|72:216,1,80,0|8
104,144,134020,2,0,B|144:112|184:144,1,80,0|8
208,64,134944,6,0,B|224:24|280:16,1,80
288,96,135867,1,0
360,64,136329,1,8
416,120,136790,1,0
360,176,137252,1,8
280,176,137713,1,0
320,248,138175,6,0,B|344:288|392:296,2,80
288,320,139559,1,0
240,256,140021,1,8
208,328,140482,1,0
160,264,140944,1,8
112,200,141405,1,0
64,136,141867,6,0,B|32:104|48:56,3,80
128,72,143713,1,8
208,64,144175,1,0
288,56,144636,1,8
256,128,145098,1,0
224,200,145559,1,8
304,208,146021,2,0,B|288:256,1,40
192,304,146944,6,0,B|224:344|272:320,1,80,0|8
344,312,147867,2,0,B|384:280|424:312,1,80,0|8
448,232,148790,2,0,B|480:192|448:152,1,80,0|8
392,104,149713,5,0
328,56,150174,2,0,B|272:40|232:48,2,80
296,128,151559,1,0
264,200,152021,1,10
208,144,152482,1,0
176,216,152944,1,0
128,160,153405,6,0,B|48:144,3,80
64,224,155252,1,2
112,288,155713,1,8
192,272,156175,1,0
272,288,156636,1,8
352,272,157097,5,0
432,288,157559,1,0
472,216,158021,1,0
440,144,158482,1,8
408,72,158944,6,2,B|328:40,1,80,0|8
272,96,159867,1,0
224,160,160329,1,8
240,240,160790,5,0
272,312,161252,1,0
312,240,161713,5,0
344,168,162175,1,0
384,240,162636,5,0
416,168,163098,1,0
384,96,163559,6,0,B|376:40|336:32,2,80
304,104,164944,5,8
224,112,165405,2,0,B|232:168|272:176,1,80
232,248,166329,6,0,B|248:296|200:320,3,80,0|8|0|8
128,304,168175,1,0
96,232,168636,1,8
64,160,169098,1,0
144,144,169559,1,8
144,64,170021,6,0,B|192:48|216:88,3,80,0|8|0|8
248,160,171867,1,0
288,232,172329,1,8
288,312,172790,1,0
360,272,173252,1,8
440,256,173713,6,0,B|408:176,1,80,0|8
472,200,174636,2,0,B|504:120,1,80,0|8
440,144,175559,2,0,B|408:64,1,80,0|8
352,128,176482,1,0
320,56,176944,6,0,B|232:56,1,80,8|0
256,136,177867,1,8
256,216,178329,1,0
256,296,178790,1,8
176,304,179252,6,0,B|136:336,3,40,0|0|8|0
88,224,180636,1,8
32,168,181098,1,0
88,112,181559,1,8
168,112,182021,1,0
200,40,182482,1,8
264,88,182944,2,0,B|320:96,1,40
232,192,183867,5,0
176,248,184329,1,8
232,304,184790,1,0
312,296,185252,1,8
384,264,185713,2,0,B|352:216,1,40
384,112,186636,6,0,B|360:80,3,40,0|0|8|0
240,80,188021,1,8
288,144,188482,1,0
336,208,188944,1,8
272,256,189405,2,0,B|216:184,1,80,0|8
152,232,190329,5,0
80,208,190790,1,8
136,160,191252,1,0
64,136,191713,1,8
120,88,192175,1,4
240,96,192867,6,4,B|360:96,1,120
256,192,194021,12,0,195867
