osu file format v9

[General]
AudioFilename: SeeU - I=Nightmare.mp3
AudioLeadIn: 0
PreviewTime: 41902
Countdown: 0
SampleSet: Soft
StackLeniency: 0.7
Mode: 0
LetterboxInBreaks: 1

[Editor]
DistanceSpacing: 0.8
BeatDivisor: 4
GridSize: 8

[Metadata]
Title:I=Nightmare
Artist:SeeU
Creator:[Ranger]
Version:Normal
Source:VOCALOID
Tags:S o N g Ho-Ong-I,sindemondragon13

[Difficulty]
HPDrainRate:3
CircleSize:3
OverallDifficulty:3
ApproachRate:4
SliderMultiplier:1.2
SliderTickRate:1

[Events]
//Background and Video events
0,0,"I=NightMare.jpg"
Video,1799,"I=Nightmare.avi"
//Break Periods
2,89607,96587
//Storyboard Layer 0 (Background)
//Storyboard Layer 1 (Fail)
//Storyboard Layer 2 (Pass)
//Storyboard Layer 3 (Foreground)
//Storyboard Sound Samples
//Background Colour Transformations
3,100,163,162,255

[TimingPoints]
17907,500,4,2,0,50,1,0
17907,-100,4,2,0,50,0,0
33907,-100,4,2,0,60,0,1
41907,-100,4,2,0,65,0,0
45907,-100,4,2,0,70,0,0
65907,-100,4,2,0,80,0,0
73907,-100,4,2,0,60,0,0
81907,-100,4,2,0,80,0,0
105907,-100,4,2,0,70,0,0
113907,-100,4,2,0,90,0,1
121907,-100,4,2,0,60,0,0
129907,-100,4,2,0,5,0,0

[Colours]
Combo1 : 81,0,202
Combo2 : 215,218,82
Combo3 : 78,0,111

[HitObjects]
80,192,17907,2,0,B|80:72,3,120,0|8|0|8
176,72,19907,1,0
272,72,20407,1,8
368,72,20907,2,0,B|368:0,2,60,8|0|0
440,136,21907,6,0,B|440:256,3,120,0|8|0|8
344,256,23907,1,0
248,256,24407,1,8
152,256,24907,2,0,B|152:320,2,60,8|0|0
80,192,25907,5,0
80,96,26407,1,8
176,96,26907,1,0
176,192,27407,1,8
272,192,27907,1,0
368,192,28407,1,8
368,96,28907,1,0
272,96,29407,1,8
176,96,29907,6,0,B|176:224,1,120,4|0
176,312,30907,2,0,B|296:312,1,120,8|0
392,312,31907,2,0,B|392:192,1,120,4|0
392,96,32907,2,0,B|456:96,2,60,8|0|8
296,96,33907,5,4
248,96,34157,2,0,B|248:160,1,60,2|0
248,156,34657,2,0,B|248:216,1,60,2|0
248,216,35157,2,0,B|208:272,1,60,2|2
120,264,35907,5,0
72,264,36157,2,0,B|72:200,1,60,2|0
72,204,36657,2,0,B|72:136,1,60,2|0
72,144,37157,2,0,B|112:88,1,60,2|2
192,56,37907,6,0,B|264:56,3,60,4|0|0|0
296,56,38907,1,8
296,152,39407,1,2
392,152,39907,6,0,B|392:216,3,60
392,256,40907,1,8
296,256,41407,1,2
296,160,41907,5,0
200,160,42407,1,8
200,256,42907,1,0
200,352,43407,1,8
200,352,43907,5,0
112,304,44407,1,2
48,232,44907,1,0
112,160,45407,1,4
112,64,45907,5,0
200,64,46407,2,8,B|264:64,2,60,0|0|0
200,160,47407,2,0,B|264:160,2,60
200,256,48407,2,0,B|264:256,2,60
200,352,49407,1,4
296,352,49907,6,0,B|360:352,1,60
356,352,50407,1,8
448,352,50907,2,0,B|448:288,1,60
448,292,51407,1,8
448,200,51907,6,0,B|384:200,1,60
388,200,52407,1,8
296,200,52907,2,0,B|296:136,1,60
296,140,53407,1,4
376,80,53907,6,2,B|256:24|144:80,1,240
144,272,55907,2,2,B|256:328|376:272,1,240
256,120,57907,5,0
192,192,58407,2,0,B|128:192,2,60,0|2|0
192,288,59407,2,0,B|192:352,2,60,0|2|0
288,288,60407,2,0,B|352:288,2,60,0|2|0
288,192,61407,1,8
288,96,61907,6,0,B|48:96,1,240,0|0
48,288,63907,2,0,B|288:288,1,240
256,96,65907,6,0,B|80:96|80:96|112:152|112:152|240:152,1,360,4|0
256,248,67907,2,0,B|440:248|440:248|416:304|416:304|288:304,1,360,0|4
256,368,69907,5,0
160,368,70407,2,0,B|96:368,1,60,0|8
32,296,71157,1,8
32,296,71407,1,8
32,200,71907,5,0
32,104,72407,2,0,B|96:104,1,60,0|8
176,56,73157,1,8
176,56,73407,1,4
272,56,73907,6,0,B|360:136,1,120,4|2
440,192,74907,2,2,B|368:288,1,120,0|2
304,360,75907,2,2,B|216:272,1,120,0|2
152,200,76907,1,8
152,200,77157,1,0
152,200,77407,1,4
152,104,77907,6,2,B|272:104,1,120,4|0
272,200,78907,2,2,B|272:320,1,120,0|2
368,328,79907,2,2,B|368:208,1,120,0|2
368,112,80907,1,8
368,112,81157,1,0
368,112,81407,1,4
320,32,81907,6,2,B|384:32,2,60,4|2|2
224,32,82907,1,8
224,32,83157,1,0
224,32,83407,1,8
224,128,83907,2,2,B|288:128,2,60
128,128,84907,1,8
128,128,85157,1,0
128,128,85407,1,4
128,224,85907,6,0,B|128:288|80:336,2,120,4|0|0
224,200,87407,1,0
320,224,87907,2,0,B|320:288|376:336,2,120
224,200,89407,1,4
120,232,97907,5,0
120,328,98407,1,0
200,280,98907,2,2,B|320:280,1,120
400,328,99907,1,0
496,328,100407,1,0
448,248,100907,2,2,B|448:128,1,120,0|4
448,32,101907,6,0,B|512:32,2,60
400,32,102657,1,8
352,32,102907,2,2,B|352:152,1,120
264,184,103907,2,0,B|264:248,2,60
264,136,104657,1,8
264,88,104907,2,2,B|144:88,1,120,2|4
56,48,105907,5,0
56,144,106407,1,2
56,240,106907,1,0
56,336,107407,1,2
152,336,107907,1,0
248,336,108407,1,2
344,336,108907,1,0
440,336,109407,1,4
488,256,109907,5,0
440,176,110407,1,2
488,96,110907,1,0
440,16,111407,1,2
392,96,111907,1,0
304,64,112407,1,2
216,96,112907,1,0
128,64,113407,1,4
40,96,113907,5,4
40,192,114407,2,2,B|40:312|40:312|160:312,1,240
256,312,115907,1,4
352,312,116407,2,2,B|472:312|472:312|472:192,1,240,2|4
472,96,117907,5,4
376,96,118407,2,0,B|320:56|264:96,2,120,2|2|8
376,192,119907,1,4
280,192,120407,2,0,B|224:232|168:192,2,120,2|2|4
280,96,121907,5,4
280,96,122157,1,0
280,96,122407,1,8
184,96,122907,1,0
184,96,123157,1,0
184,96,123407,1,2
88,96,123907,5,0
88,96,124157,1,0
88,96,124407,1,8
88,192,124907,1,0
88,192,125157,1,0
88,192,125407,1,4
88,288,125907,6,0,B|16:288,2,60,4|0|8
184,288,126907,2,0,B|184:352,2,60,0|0|8
184,192,127907,6,0,B|184:128,2,60,0|0|8
280,192,128907,2,0,B|344:192,2,60,0|0|4
256,192,129907,12,0,133907
