osu file format v9

[General]
AudioFilename: Vocaloid 3 Korean Demo Song leaked [ ].mp3
AudioLeadIn: 0
PreviewTime: 59000
Countdown: 1
SampleSet: Soft
StackLeniency: 0.7
Mode: 0
LetterboxInBreaks: 1

[Editor]
DistanceSpacing: 0.8
BeatDivisor: 4
GridSize: 32

[Metadata]
Title:I fantasy (Cut Ver.)
Artist:See U
Creator:xiceyx
Version:Normal
Source:Vocaloid 3
Tags:xiceyx vocaloid 3 i fantasy SeeU Cut Ver Korean Pop

[Difficulty]
HPDrainRate:5
CircleSize:4
OverallDifficulty:5
ApproachRate:5
SliderMultiplier:1.4
SliderTickRate:1

[Events]
//Background and Video events
0,0,"content_201202242047.jpg"
//Break Periods
//Storyboard Layer 0 (Background)
//Storyboard Layer 1 (Fail)
//Storyboard Layer 2 (Pass)
//Storyboard Layer 3 (Foreground)
//Storyboard Sound Samples
//Background Colour Transformations
3,100,163,162,255

[TimingPoints]
8969.52173913043,521.839130434783,4,2,0,100,1,0

[Colours]
Combo1 : 36,219,191
Combo2 : 12,89,233
Combo3 : 158,51,193
Combo4 : 122,122,122

[HitObjects]
256,192,7251,12,0,8642
96,160,8971,6,8,B|192:160,1,70
224,160,9491,2,8,B|320:160,1,70
352,160,10013,1,8
352,288,10535,6,8,B|192:320,1,140
160,192,11578,5,0
416,192,12100,1,8
416,320,12622,1,8
160,96,13144,5,0
160,96,13666,6,0,B|256:160|288:64|288:224,1,210
352,96,14709,6,8,B|256:160|224:64|224:224,1,210
320,224,15818,1,0
480,160,16340,1,0
224,64,17318,5,0
224,256,17775,1,8
352,224,18101,1,8
320,128,18362,1,8
96,128,18884,5,8
256,128,19145,1,8
256,256,19406,1,8
352,224,19928,5,0
352,128,20449,1,0
352,128,20710,1,0
352,128,20971,1,0
352,128,21232,5,0
128,224,21493,6,0,B|256:224,1,116.666666666667
256,224,22015,1,0
320,288,22537,1,0
320,288,22798,1,0
320,288,23059,1,0
320,288,23320,5,0
224,64,23581,6,0,B|224:192,1,116.666666666667
224,192,24102,1,0
256,192,24689,12,0,25733
128,64,26190,5,0
256,96,26712,1,0
384,128,27233,1,0
64,224,27755,5,0
192,224,28212,1,0
192,224,28473,1,0
352,256,29321,5,0
352,256,29582,1,0
192,160,30364,5,0
192,160,30625,1,0
384,160,31408,5,0
384,160,31669,1,0
256,320,32126,6,0,B|128:288|256:192|384:224|320:384|384:288,2,280
96,192,34539,5,0
256,160,35061,1,0
384,192,35583,1,0
160,64,36105,5,0
160,64,36366,1,0
160,64,36626,1,0
352,288,37670,5,8
352,288,37931,1,8
288,192,38714,5,8
288,192,38975,1,8
160,288,39758,5,8
160,288,40018,1,8
116,269,40345,6,0,B|194:269,7,70
149,62,42889,5,0
316,119,43476,1,0
316,119,43671,1,0
316,119,43932,1,0
120,180,44715,6,0,B|157:247|161:267|259:343|378:371|301:136|251:367|352:320,2,303.333333333333
120,180,47129,1,0
139,115,47846,5,0
139,115,48107,1,0
139,115,48368,1,0
249,109,48629,1,0
249,109,48890,1,0
249,109,49151,1,0
374,115,49477,1,0
188,243,50977,6,0,B|292:145,3,140
289,146,52804,1,0
289,146,53325,1,0
289,146,53847,1,0
289,146,54369,1,0
154,237,55152,6,0,B|312:233,1,140
353,168,55935,6,0,B|214:168,1,140
165,158,57043,5,0
256,192,58022,12,0,58978
107,164,59131,6,0,B|177:168,1,70
229,176,59587,2,0,B|310:153,1,70
339,173,59914,2,0,B|393:211,1,46.6666666666667
228,341,60631,6,0,B|232:280,1,46.6666666666667
235,234,60957,2,0,B|273:180,1,46.6666666666667
120,136,61675,5,0
120,136,61936,1,0
120,136,62197,1,0
120,136,62458,1,0
120,136,62718,1,0
120,136,62979,1,0
136,223,63240,6,0,B|273:258,2,140
298,129,64741,6,0,B|161:94,2,140
298,129,65915,5,0
298,129,66371,1,0
298,129,66893,1,0
271,27,67415,6,0,B|212:101|212:101|138:97|138:97|195:175|195:175|139:226|139:226|203:249,1,396.666666666667
233,257,69046,6,0,B|307:198|307:198|295:152|295:152|358:152|358:152|388:163|388:163|399:164,1,233.333333333333
384,161,70089,5,0
384,161,70546,1,0
384,161,70807,1,0
384,161,71068,1,0
384,161,71329,1,0
384,161,71590,1,0
148,95,72112,5,0
275,173,72633,1,0
275,173,72894,1,0
275,173,73155,1,0
275,173,73677,1,0
310,293,74199,5,0
100,129,74721,1,0
100,129,74982,1,0
100,129,75243,1,0
100,129,75504,1,0
284,303,75764,6,8,B|282:221|204:194,1,140
228,303,76808,6,8,B|230:221|308:194,1,140
358,36,77852,6,8,B|356:118|278:145,1,140
88,155,78895,6,8,B|170:153|197:75,1,140
195,88,80135,1,0
195,88,80657,1,0
195,88,81244,1,0
195,88,81766,1,0
327,185,82092,6,0,B|188:184,1,140
172,116,83135,6,0,B|311:115,1,140
172,95,84636,5,8
272,90,85223,1,0
384,100,85679,1,8
375,236,86201,1,0
264,234,86723,1,8
135,158,87310,6,0,B|143:158|143:158|323:155|323:155|275:248,1,280
280,236,88549,1,0
280,236,89071,1,0
280,236,89593,1,0
280,236,90115,1,0
256,192,91681,12,0,94898
