osu file format v9

[General]
AudioFilename: Secret.mp3
AudioLeadIn: 0
PreviewTime: 42851
Countdown: 1
SampleSet: Normal
StackLeniency: 0.7
Mode: 0
LetterboxInBreaks: 1

[Editor]
DistanceSpacing: 1
BeatDivisor: 4
GridSize: 8

[Metadata]
Title:Do Better!
Artist:Secret feat. Baek Chan
Creator:_llkey_18
Version:Normal
Source:
Tags:8Eight Madonna Wiinter

[Difficulty]
HPDrainRate:2
CircleSize:4
OverallDifficulty:3
ApproachRate:4
SliderMultiplier:1
SliderTickRate:1

[Events]
//Background and Video events
0,0,"bgwiinter.png"
//Break Periods
2,75099,80674
2,133766,142452
//Storyboard Layer 0 (Background)
//Storyboard Layer 1 (Fail)
//Storyboard Layer 2 (Pass)
//Storyboard Layer 3 (Foreground)
//Storyboard Sound Samples
//Background Colour Transformations
3,100,163,162,255

[TimingPoints]
14455,444.444444444444,4,1,1,44,1,0
14557,-100,4,2,1,62,0,0
15001,-100,4,1,1,50,0,0
15223,-100,4,2,1,62,0,0
16112,-100,4,1,1,50,0,0
16557,-100,4,2,1,62,0,0
16779,-100,4,1,1,50,0,0
17001,-100,4,2,1,62,0,0
17890,-100,4,1,1,50,0,0
18334,-100,4,2,1,62,0,0
18557,-100,4,1,1,50,0,0
18779,-100,4,2,0,62,0,0
19668,-100,4,1,1,50,0,0
20102,-100,4,2,1,62,0,0
20334,-100,4,1,1,50,0,0
20557,-100,4,2,1,62,0,0
21446,-100,4,1,1,50,0,0
21880,-100,4,2,1,61,0,0
22110,-100,4,1,1,51,0,0
22332,-100,4,2,1,60,0,0
23223,-100,4,1,1,50,0,0
23668,-100,4,2,1,61,0,0
23890,-100,4,1,1,50,0,0
24112,-100,4,2,1,61,0,0
25001,-100,4,1,1,50,0,0
25445,-100,4,2,1,61,0,0
25668,-100,4,1,1,50,0,0
25890,-100,4,2,1,60,0,0
26779,-100,4,1,1,50,0,0
27223,-100,4,2,1,60,0,0
27445,-100,4,1,1,50,0,0
27668,-100,4,2,1,60,0,0
28557,-100,4,1,1,50,0,0
28779,-100,4,2,1,60,0,0
30334,-100,4,1,1,49,0,0
30557,-100,4,2,1,60,0,0
32112,-100,4,1,1,49,0,0
32334,-100,4,2,1,61,0,0
33890,-100,4,1,1,50,0,0
34112,-100,4,2,1,61,0,0
34557,-100,4,1,1,49,0,0
34779,-100,4,2,1,61,0,0
35668,-100,4,1,1,50,0,0
35890,-100,4,2,1,60,0,0
37435,-100,4,1,1,50,0,0
37658,-100,4,2,1,61,0,0
39213,-100,4,1,1,50,0,0
39435,-100,4,2,1,61,0,0
39880,-100,4,1,1,50,0,0
40102,-100,4,2,1,61,0,0
40991,-100,4,1,1,50,0,0
41213,-100,4,2,1,61,0,0
41658,-100,4,1,1,50,0,0
41880,-100,4,2,1,61,0,0
42880,-100,4,2,1,61,0,1
56658,-100,4,2,1,61,0,0
56880,-100,4,2,2,61,0,0
81324,-100,4,2,1,61,0,0
83658,-100,4,1,1,50,0,0
84102,-100,4,2,1,61,0,0
85435,-100,4,1,1,50,0,0
85880,-100,4,2,1,60,0,0
86102,-100,4,1,1,50,0,0
86324,-100,4,2,0,60,0,0
86769,-100,4,2,1,60,0,0
87213,-100,4,1,1,50,0,0
87658,-100,4,2,1,60,0,0
87880,-100,4,1,1,50,0,0
88102,-100,4,2,1,60,0,0
89658,-100,4,1,1,50,0,0
89880,-100,4,2,0,60,0,0
90324,-100,4,2,1,60,0,0
90769,-100,4,1,1,50,0,0
90991,-100,4,2,1,60,0,0
91435,-100,4,1,1,49,0,0
91658,-100,4,2,1,61,0,0
92547,-100,4,1,1,51,0,0
92769,-100,4,2,1,60,0,0
93213,-100,4,1,1,50,0,0
93435,-100,4,2,1,61,0,0
94324,-100,4,1,1,50,0,0
94547,-100,4,2,1,60,0,0
94991,-100,4,1,1,50,0,0
95213,-100,4,2,1,60,0,0
96102,-100,4,1,1,50,0,0
96324,-100,4,2,1,60,0,0
96769,-100,4,1,1,50,0,0
96991,-100,4,2,1,60,0,0
97880,-100,4,1,1,50,0,0
98102,-100,4,2,1,60,0,0
98547,-100,4,1,1,50,0,0
98769,-100,4,2,1,61,0,0
99658,-100,4,1,1,50,0,0
99880,-100,4,2,1,61,0,0
100324,-100,4,1,1,50,0,0
100547,-100,4,2,1,60,0,0
101547,-100,4,1,1,50,0,0
101658,-100,4,2,1,61,0,0
102102,-100,4,1,1,49,0,0
102324,-100,4,2,1,61,0,0
103324,-100,4,2,1,61,0,1
117102,-100,4,2,1,61,0,0
117324,-100,4,2,2,61,0,0
143547,-100,4,2,1,61,0,0
147769,-100,4,2,1,61,0,1
161547,-100,4,2,2,61,0,0
189999,-100,4,2,2,46,0,0
190443,-100,4,2,2,36,0,0
190888,-100,4,2,2,25,0,0
191332,-100,4,2,2,16,0,0
191777,-100,4,2,2,5,0,0
192666,-100,4,2,2,0,0,0

[Colours]
Combo1 : 255,157,111
Combo2 : 255,179,179
SliderBorder : 253,153,196

[HitObjects]
376,160,14455,1,4
280,160,14899,1,8
280,160,15121,1,0
32,160,16232,5,0
136,160,16677,1,8
136,160,16899,1,0
368,72,18010,5,0
312,152,18455,1,8
312,152,18677,1,0
72,72,19788,5,0
136,152,20232,1,8
136,152,20454,1,0
224,32,21121,6,0,B|224:88,1,50,8|0
224,136,21566,1,0
288,64,22010,1,8
288,64,22232,1,0
288,64,22454,2,0,B|288:184,2,100,4|8|0
368,128,23788,1,8
368,128,24010,1,0
200,312,25121,5,0
184,208,25566,1,8
184,208,25788,1,0
368,40,26899,5,0
432,120,27343,1,8
432,120,27566,1,0
320,224,28232,5,8
320,224,28454,1,8
320,224,28677,2,0,B|320:120,1,100,4|2
240,64,29566,1,4
208,160,30010,1,2
112,176,30454,6,0,B|96:208|128:248|88:288,1,100,0|2
200,272,31343,2,0,B|248:240|288:296|304:264,1,100,4|8
296,272,32010,1,0
296,272,32232,1,0
360,192,32677,5,2
360,96,33121,1,4
272,144,33566,1,2
176,144,34010,2,0,B|72:144,1,100
80,192,34677,2,0,B|200:192,1,100
232,192,35343,2,0,B|288:192,1,50,8|0
336,192,35788,5,0
392,112,36232,1,2
296,120,36677,2,0,B|240:104|208:120|184:136|192:128,1,100,4|2
128,56,37566,5,0
72,136,38010,1,2
168,144,38454,2,0,B|176:184|152:232|176:256,1,100,4|8
168,244,39121,1,0
216,240,39343,2,0,B|248:224|272:216|288:256|312:240,1,100,0|2
360,232,40010,2,0,B|368:184|344:160|376:128,1,100
370,134,40677,1,2
296,72,41121,5,0
216,136,41566,1,2
216,136,41788,1,0
216,136,42010,2,0,B|160:152|136:216|144:256|168:304,1,200,4|0
264,264,43343,5,8
360,232,43788,1,0
320,136,44232,1,8
320,136,44454,1,4
264,56,44899,2,0,B|320:56,2,50,0|8|4
216,56,45566,2,0,B|112:56,2,100,0|8|4
256,152,46899,5,8
256,248,47343,1,0
176,192,47788,2,0,B|104:192,2,50,8|0|4
280,192,48677,2,0,B|344:192,2,50,8|4|0
328,104,49566,5,8
232,104,50010,1,4
328,104,50454,1,8
428,104,50899,1,0
376,192,51343,1,8
376,192,51566,1,0
280,192,52010,6,0,B|216:192,2,50,0|8|4
280,240,52677,2,0,B|280:344,2,100,0|8|4
328,240,53788,2,0,B|400:240,2,50,0|8|4
328,192,54454,1,0
328,88,54899,2,0,B|400:88,2,50,8|0|4
224,88,55788,2,0,B|160:88,2,50,8|4|0
288,168,56677,5,4
208,232,57121,5,2
120,184,57566,1,8
176,104,58010,1,2
272,104,58454,1,8
176,104,58899,1,2
224,192,59343,1,8
224,296,59788,1,2
224,192,60232,2,0,B|344:192,1,100,8|2
256,192,60899,12,0,62454
184,184,62899,6,0,B|256:184,1,50,8|2
336,184,63566,2,0,B|264:184,1,50,2|8
256,88,64232,5,2
344,32,64677,1,8
384,120,65121,1,2
336,208,65566,2,0,B|336:96,1,100,8|2
240,136,66454,2,0,B|128:136,1,100,8|2
112,232,67343,2,0,B|224:232,1,100,8|2
256,192,68010,12,0,69566
328,192,70010,6,0,B|256:192,1,50,8|2
176,192,70677,2,0,B|248:192,1,50,2|8
32,136,71788,2,0,B|96:136,1,50,8|2
184,136,72454,2,0,B|120:136,1,50,2|8
112,232,73121,5,0
208,216,73566,1,8
288,272,74010,5,0
368,216,74454,1,8
288,152,74899,5,4
256,192,82010,12,0,83343
208,192,83788,5,0
304,192,84232,1,2
256,104,84677,1,4
256,152,84899,1,4
256,200,85121,1,8
256,304,85566,5,0
160,304,86010,1,2
160,304,86232,1,0
160,304,86454,2,0,B|168:240|128:240|160:200,1,100,2|2
88,136,87343,5,0
152,64,87788,1,2
200,64,88010,1,0
248,64,88232,1,4
352,64,88677,1,8
392,160,89121,5,0
336,240,89566,1,4
336,240,89788,1,0
336,240,90010,2,0,B|280:224|256:256|216:240,1,100,2|2
144,208,90899,6,0,B|160:160|200:152|216:128,1,100,0|2
200,88,91566,2,0,B|256:64|272:128|312:72,1,100,0|4
336,64,92232,2,0,B|408:64,1,50,8|0
432,72,92677,6,0,B|480:80|440:144|480:160,1,100,0|2
448,200,93343,2,0,B|424:232|448:272|384:272,1,100,0|4
392,271,94010,1,2
312,216,94454,1,0
208,216,94899,5,2
208,216,95121,1,0
208,216,95343,2,0,B|104:216,1,100,4|8
56,128,96232,6,0,B|80:80|120:80|136:80,1,100,0|2
184,80,96899,1,0
232,80,97121,2,0,B|272:64|312:88|336:72,1,100,4|2
424,104,98010,5,0
496,176,98454,1,2
496,176,98677,2,0,B|432:192|376:176,1,100,0|4
344,184,99343,2,0,B|288:184,1,50,8|0
240,184,99788,2,0,B|192:200|160:160|128:192,1,100,0|2
88,184,100454,2,0,B|56:152|96:128|64:80,1,100,0|4
69,90,101121,1,2
160,40,101566,5,0
256,72,102010,1,2
256,72,102232,1,0
256,72,102454,2,0,B|224:128|224:160|232:192|256:224|272:248|296:264,1,200,4|0
352,184,103788,5,8
424,112,104232,1,0
328,96,104677,1,8
328,96,104899,1,4
256,168,105343,2,0,B|184:168,1,50,0|8
152,168,105788,1,4
96,168,106010,2,0,B|112:112|64:112|128:64,2,100,0|8|4
88,272,107343,5,8
176,328,107788,1,0
232,248,108232,2,0,B|328:216,1,100,8|4
248,152,109121,2,0,B|360:120,1,100,8|0
336,24,110010,5,8
248,80,110454,1,4
168,24,110899,1,8
80,80,111343,1,0
168,136,111788,1,8
168,136,112010,1,0
264,168,112454,2,0,B|264:232,2,50,0|8|4
312,168,113121,2,0,B|424:168,2,100,0|8|4
208,168,114454,5,8
104,168,114899,1,0
152,256,115343,2,0,B|152:312,2,50,8|0|4
256,256,116232,2,0,B|256:192,2,50,8|4|0
360,256,117121,1,4
432,184,117566,5,2
488,96,118010,1,8
408,40,118454,1,2
352,128,118899,1,8
256,128,119343,5,2
152,128,119788,1,8
256,128,120232,1,2
200,216,120677,2,0,B|88:216,1,100,8|2
200,216,121566,2,0,B|200:320,3,100,8|2|8|2
200,216,123343,6,0,B|256:216,1,50,8|2
200,128,124010,2,0,B|264:128,1,50,2|8
344,168,124677,6,0,B|360:136|400:152|416:96,1,100,8|0
416,48,125343,1,2
368,24,125566,2,0,B|328:48|304:24|288:48|256:16,1,100,8|0
224,48,126232,1,2
176,40,126454,2,0,B|152:48|128:48|128:88|80:80,1,100,8|0
48,112,127121,1,2
24,152,127343,2,0,B|0:184|0:232|24:256,2,100,8|0|2
72,152,128454,6,0,B|136:152,2,50,0|8|0
72,200,129121,2,0,B|184:200,2,100,2|8|2
152,136,130454,6,0,B|216:136,1,50,8|2
152,48,131121,2,0,B|224:48,1,50,2|8
256,192,131566,12,0,133566
256,192,143788,12,8,145566
256,192,146010,5,8
256,144,146232,1,8
256,96,146455,1,8
256,48,146677,2,8,B|320:48,2,50
208,48,147343,2,8,B|176:48,4,25
256,136,148232,5,8
344,184,148677,1,0
272,248,149121,1,8
272,248,149343,1,4
168,248,149788,2,0,B|112:248,2,50,0|8|4
168,296,150455,2,0,B|280:296,2,100,0|8|4
224,208,151788,5,8
224,112,152232,1,0
312,160,152677,2,0,B|376:160,2,50,8|0|4
208,160,153566,2,0,B|152:160,2,50,8|0|4
304,160,154455,5,8
384,104,154899,2,0,B|360:72|336:80|312:48|288:32,1,100,4|8
256,40,155566,1,0
208,40,155788,2,0,B|176:56|184:88|152:80|128:104,1,100,4|8
133,101,156454,1,0
128,200,156899,6,0,B|128:256,2,50,0|8|4
176,200,157566,2,0,B|296:200,1,100,0|8
275,198,158232,1,0
344,120,158677,6,0,B|416:120,2,50,0|8|0
296,120,159343,1,4
192,120,159788,1,8
192,120,160010,1,0
192,120,160232,1,4
88,120,160677,2,0,B|88:176,2,50,8|0|4
192,120,161566,5,2
280,72,162010,5,2
280,168,162455,1,8
368,120,162899,1,2
368,216,163343,1,8
448,272,163788,5,2
448,176,164232,1,8
448,72,164677,1,2
368,120,165121,2,0,B|320:136|304:88|264:128,1,100,8|2
224,120,165788,6,0,B|160:120,2,50,0|8|0
224,168,166455,2,0,B|224:288,2,100,2|8|2
120,168,167788,5,8
120,168,168010,1,2
120,64,168455,1,2
120,64,168677,1,8
208,112,169121,5,2
288,56,169566,1,8
336,144,170010,1,2
272,216,170455,2,0,B|272:104,1,100,8|2
176,144,171343,5,8
120,232,171788,1,2
40,168,172232,2,0,B|160:168,1,100,8|2
192,168,172899,6,0,B|256:168,2,50,0|8|0
192,120,173566,2,0,B|304:120,2,100,2|8|2
128,40,174899,6,0,B|56:40,1,50,8|2
176,40,175566,2,0,B|232:40,1,50,2|8
256,192,176232,12,8,179343
144,168,179788,6,0,B|192:136|208:184|232:128,1,100,2|8
304,64,180677,2,0,B|368:72|320:120|352:144,1,100,2|8
344,192,181343,2,0,B|344:248,1,50,0|2
392,240,181788,2,0,B|392:168,2,50,0|8|0
392,288,182455,2,0,B|352:320|288:288,1,100,2|8
216,240,183343,5,2
120,200,183788,1,8
192,128,184232,2,0,B|304:128,2,100,2|8|2
88,128,185566,1,8
88,224,186010,2,0,B|88:336,2,100,2|8|2
160,152,187343,6,0,B|280:152,1,100,8|2
248,248,188232,2,0,B|368:248,1,100,8|2
424,184,189121,1,4
256,192,189566,12,0,192677
