osu file format v7

[General]
AudioFilename: Secret - I Want You Back.mp3
AudioLeadIn: 0
PreviewTime: 58187
Countdown: 1
SampleSet: Soft
StackLeniency: 0.7
Mode: 0
LetterboxInBreaks: 1

[Editor]
DistanceSpacing: 1.20000004768372
BeatDivisor: 2
GridSize: 8

[Metadata]
Title:I Want You Back
Artist:Secret
Creator:_llkey_18
Version:Easy
Source:
Tags:K-Pop Beuchi-chan

[Difficulty]
HPDrainRate:1
CircleSize:3
OverallDifficulty:1
SliderMultiplier:1
SliderTickRate:1

[Events]
//Background and Video events
0,0,"secret final.jpg"
//Break Periods
//Storyboard Layer 0 (Background)
//Storyboard Layer 1 (Fail)
//Storyboard Layer 2 (Pass)
//Storyboard Layer 3 (Foreground)
//Storyboard Sound Samples
//Background Colour Transformations
3,100,255,128,255

[TimingPoints]
356,722.89156626506,4,2,2,70,1,0
58000,-100,4,1,0,70,0,0
58181,-100,4,1,0,40,0,1
61982,-100,4,2,0,60,0,1
63428,-100,4,2,2,70,0,0
69572,-100,4,1,0,70,0,0
69753,-100,4,1,0,40,0,1
73548,-100,4,2,2,60,0,1
74994,-100,4,2,2,70,0,0

[Colours]
Combo1 : 198,255,213
Combo2 : 128,255,255
Combo3 : 255,179,255
Combo4 : 255,158,62

[HitObjects]
128,160,23488,1,0
224,88,24211,1,8
224,208,24934,1,0
224,208,25295,2,0,B|320:208,1,50,0|8
336,208,26018,1,0
336,88,26741,5,0
216,88,27464,1,0
96,88,28187,1,0
96,88,28548,1,8
96,208,29271,6,2,B|232:208,2,100,2|10|2
160,104,31440,1,8
280,104,32163,2,2,B|280:208,2,100,2|10|2
400,104,34331,1,8
288,72,35054,5,2
168,72,35777,1,8
168,136,36139,2,0,B|248:136,1,50
216,200,36862,1,2
216,200,37223,1,8
312,128,37946,5,0
408,200,38669,1,8
320,280,39392,1,0
200,248,40115,1,8
200,192,40476,1,0
200,136,40837,6,2,B|344:136,2,100,2|10|2
80,136,43006,1,8
168,216,43729,2,2,B|168:360,2,100,2|10|2
168,96,45898,1,8
288,96,46621,5,0
288,216,47343,1,8
288,96,48066,1,0
288,216,48789,1,8
352,216,49151,1,0
408,216,49512,5,0
408,96,50235,1,8
288,96,50958,1,0
168,96,51681,1,8
168,96,52042,1,0
168,96,52404,5,0
168,216,53127,1,8
288,216,53849,1,0
168,248,54572,1,8
288,248,55295,5,0
288,184,55657,1,0
288,128,56018,1,0
168,128,56741,1,0
168,248,57464,1,0
224,248,57825,5,0
224,184,58187,2,4,B|360:184,1,100,4|0
384,184,59271,1,0
384,64,59994,2,0,B|240:64,1,100
192,280,62163,6,2,B|192:208,1,50
192,168,62886,2,2,B|120:168,1,50
192,64,63970,5,2
312,64,64693,1,8
312,184,65416,1,0
432,184,66139,1,8
368,80,66862,5,0
368,136,67223,1,0
368,192,67584,1,8
368,312,68307,1,0
248,312,69030,1,8
248,248,69392,5,0
248,192,69753,2,0,B|104:192,1,100,4|0
152,128,70837,1,0
272,128,71560,2,0,B|408:128,1,100
368,248,73006,1,0
248,248,73729,6,2,B|152:248,1,50,2|2
184,192,74452,2,0,B|104:192,1,50,2|8
136,72,75536,5,2
256,72,76259,2,0,B|160:72,1,50,8|0
208,136,76982,1,2
208,256,77705,2,0,B|280:256,1,50,8|0
320,256,78428,1,2
320,136,79151,2,0,B|208:136,1,100
256,192,80235,12,4,81319
