osu file format v5

[General]
AudioFilename: 02 - Tank! (TV Edit).mp3
AudioLeadIn: 3000
PreviewTime: -1
Countdown: 0
SampleSet: Normal
StackLeniency: 0.7
Mode: 0
LetterboxInBreaks: 1

[Metadata]
Title:Tank! (TV Edit)
Artist:Seatbelts
Creator:Shifty
Version:Hard
Source:
Tags:

[Difficulty]
HPDrainRate:5
CircleSize:5
OverallDifficulty:7
SliderMultiplier:2
SliderTickRate:0.5

[Events]
//Background and Video events
1,-384,"video.avi"
0,0,"Konachan.com - 21158 cowboy_beboposucropsize.jpg"
//Break Periods
2,38288,39115
//Storyboard Layer 0 (Background)
//Storyboard Layer 1 (Failing)
//Storyboard Layer 2 (Passing)
//Storyboard Layer 3 (Foreground)
//Storyboard Sound Samples
//Background Colour Transformations
3,100,0,0,0

[TimingPoints]
-2,428.571428571429,4,1,0,40,1
3375,428.571428571429,4,2,0,40,1
13071,428.571428571429,4,1,0,40,1

[Colours]
Combo1 : 13,74,117
Combo2 : 141,11,9

[HitObjects]
56,64,212,2,0,L|112:64,1,50
104,144,533,2,0,L|160:144,1,50
192,72,855,2,0,L|248:72,1,50
248,152,1176,2,0,L|304:152,1,50
376,152,1498,1,0
376,232,1712,1,0
336,296,1926,5,0
256,296,2140,1,0
216,296,2248,1,0
176,296,2355,1,0
96,296,2569,1,0
56,296,2676,1,0
80,240,2837,1,0
120,240,2944,1,0
200,240,3158,1,0
328,144,3587,5,0
216,104,3908,1,0
328,56,4232,2,0,B|352:8|416:56,1,100
352,160,4767,2,0,B|384:112|448:136,1,100
456,152,5087,1,0
424,224,5301,5,0
328,304,5623,1,0
208,304,5946,2,0,B|152:280|216:216,1,100
328,200,6482,2,0,B|320:136|248:120,1,100
232,104,6801,1,0
80,264,7390,5,0
104,240,7498,1,0
136,216,7605,1,0
208,240,7819,1,0
288,256,8033,1,0
328,256,8140,1,0
408,256,8355,1,0
408,136,8676,1,0
232,40,9212,5,0
208,72,9319,1,0
184,104,9426,1,0
160,136,9533,1,0
136,168,9641,1,0
112,200,9748,1,0
112,280,9962,5,0
192,280,10176,1,0
232,280,10285,1,0
312,280,10498,1,0
416,192,11462,5,0
336,192,11676,1,0
176,192,12107,1,4
176,32,12535,1,4
336,32,12962,1,4
336,112,13178,2,4,B|336:240,1,125
208,296,13819,5,0
168,296,13926,1,0
168,216,14140,1,0
208,216,14248,1,0
208,136,14462,1,0
168,136,14569,1,0
168,56,14783,1,0
208,56,14892,1,0
368,56,15321,2,0,B|368:168,8,100
320,88,17249,5,0
288,112,17356,1,0
288,192,17571,1,0
312,216,17678,1,0
312,296,17892,1,0
288,328,17999,1,0
216,288,18213,1,0
216,248,18321,1,0
368,336,18749,2,0,B|368:236,8,100
288,312,20676,5,0
248,312,20783,1,0
216,240,20997,1,0
176,240,21105,1,0
144,168,21319,1,0
104,168,21426,1,0
136,96,21640,1,0
176,96,21747,1,0
304,48,22124,2,0,B|304:160,8,100
224,56,24051,5,0
224,96,24158,1,0
224,176,24372,1,0
224,216,24480,1,0
296,256,24694,1,0
296,296,24803,1,0
224,328,25015,1,0
184,328,25122,1,0
120,184,25553,2,0,B|48:272,8,100
128,104,27480,5,4
168,104,27587,1,4
368,104,28123,1,4
408,104,28230,1,4
280,256,28767,5,4
240,256,28873,1,4
120,256,29194,1,4
80,256,29301,1,4
216,112,29837,1,4
256,112,29944,1,4
400,256,30480,1,4
360,256,30587,1,4
248,200,30908,5,0
248,160,31017,1,0
168,160,31230,1,0
168,200,31337,1,0
88,200,31551,1,0
88,160,31658,1,0
8,160,31873,1,0
8,200,31980,1,0
112,296,32355,1,4
352,296,32998,5,0
352,136,33426,1,0
248,136,33694,1,0
160,40,34069,5,4
120,56,34176,1,4
96,88,34283,1,4
88,128,34390,1,4
80,168,34498,1,4
80,208,34605,1,4
88,248,34712,1,4
120,272,34819,5,4
152,296,34926,1,4
192,304,35033,1,4
232,304,35140,1,4
264,280,35248,1,4
296,256,35355,1,4
304,216,35462,1,4
336,80,35837,6,0,L|368:80,2,25
336,80,36051,1,0
216,80,36374,1,4
208,176,36640,6,0,L|240:176,2,25
208,176,36908,1,0
120,264,37230,1,4
192,336,37498,1,0
256,256,37767,2,0,L|288:256,3,25
256,208,38088,1,4
240,128,40015,6,0,L|272:128,2,25
240,184,40283,1,0
240,264,40498,1,4
296,264,40658,1,4
336,192,40873,1,4
416,192,41087,2,0,L|448:192,2,25
416,112,41410,1,4
216,80,41944,6,0,L|248:80,2,25
136,80,42265,1,4
136,200,42587,1,0
216,200,42801,2,0,L|248:200,2,25
296,200,43123,5,4
392,272,43444,1,4
296,312,43712,1,4
184,272,44033,1,4
184,168,44301,1,4
272,128,44569,2,0,L|304:128,2,25
328,128,44837,1,4
208,56,45212,2,0,L|240:56,3,25
112,56,45694,1,4
112,176,46015,5,4
152,176,46123,1,4
192,176,46230,1,4
232,176,46337,1,4
272,176,46444,1,4
312,176,46551,1,4
352,176,46658,1,4
392,176,46765,1,4
400,216,46873,5,4
360,216,46980,1,4
320,216,47087,1,4
280,216,47194,1,4
240,216,47301,1,4
200,216,47408,1,4
160,216,47515,1,4
120,216,47623,1,4
80,216,47730,1,4
112,288,47944,5,0
152,288,48051,1,0
232,288,48265,1,0
272,288,48373,1,0
352,288,48587,1,0
392,288,48694,1,0
368,224,48908,1,0
368,184,49015,1,0
264,64,49444,1,0
192,104,49658,5,0
192,104,49765,1,0
192,104,49873,1,0
192,104,49980,1,0
192,104,50087,1,0
192,104,50194,1,0
192,104,50301,1,0
192,104,50408,5,0
192,104,50517,1,0
192,104,50623,1,0
192,104,50730,1,0
192,104,50837,1,0
192,104,50944,1,0
192,104,51051,1,0
192,200,51321,5,0
192,240,51428,1,0
272,240,51642,1,0
272,200,51748,1,0
352,200,51963,1,0
352,240,52071,1,0
432,240,52285,1,0
432,200,52390,1,0
288,128,52819,1,0
208,128,53033,5,0
168,128,53140,1,0
168,208,53355,1,0
216,272,53569,1,0
296,272,53783,1,0
376,272,53998,1,0
376,192,54212,1,0
376,128,54373,1,4
312,80,54587,1,4
248,80,54748,5,0
208,80,54855,1,0
128,80,55069,1,0
128,120,55176,1,0
88,184,55390,1,0
88,224,55498,1,0
168,288,55765,1,0
208,288,55873,1,0
344,288,56248,5,0
368,264,56356,1,0
384,224,56463,1,0
392,184,56569,1,0
392,144,56676,1,0
384,104,56783,1,0
360,72,56890,1,0
328,48,56998,1,0
288,40,57105,5,0
248,40,57212,1,0
216,56,57319,1,0
184,80,57426,1,0
176,120,57533,1,0
176,160,57640,1,0
176,200,57748,1,0
176,240,57855,1,0
256,304,58124,5,0
296,304,58230,1,0
376,304,58444,1,0
416,304,58551,1,0
416,224,58765,1,0
376,224,58873,1,0
296,224,59088,1,0
256,224,59194,1,0
336,88,59623,1,0
176,88,60051,5,0
176,168,60267,1,0
128,232,60480,1,0
176,296,60694,1,4
232,296,60855,2,4,L|264:296,10,25
232,232,61551,5,0
232,192,61658,1,0
80,64,62194,1,0
120,64,62303,1,0
320,64,62837,1,0
360,64,62944,1,0
360,184,63265,5,0
320,184,63373,1,0
120,184,63908,1,0
80,184,64015,1,0
232,312,64551,1,0
272,312,64658,1,0
392,312,64980,5,0
432,312,65087,1,0
280,176,65623,1,0
240,176,65730,1,0
40,184,66265,1,0
40,144,66373,1,0
144,312,66908,2,4,L|176:312,2,25
320,312,67498,2,4,L|352:312,2,25
464,48,68408,5,4
224,48,69051,1,0
184,48,69158,1,0
144,48,69265,1,0
104,48,69373,1,0
64,48,69480,1,0
64,88,69587,1,0
64,128,69694,5,0
64,168,69801,1,0
64,208,69908,1,0
64,248,70015,1,0
64,288,70123,1,0
104,288,70230,1,0
144,288,70337,1,0
184,288,70444,1,0
224,288,70551,1,0
264,288,70658,5,0
304,288,70765,1,0
344,288,70873,1,0
384,288,70980,1,0
424,288,71087,1,0
424,248,71194,1,0
424,208,71301,1,0
424,168,71408,1,0
280,168,71785,6,4,B|200:168,1,75
56,48,72480,5,0
96,48,72587,1,0
136,48,72694,1,0
176,48,72801,1,0
216,48,72908,1,0
256,48,73015,1,0
296,48,73123,1,0
336,48,73230,1,0
376,48,73337,1,0
416,48,73444,5,0
416,88,73551,1,0
416,128,73658,1,0
416,168,73765,1,0
416,208,73873,1,0
416,248,73980,1,0
416,288,74088,1,0
416,328,74196,5,0
376,328,74301,1,0
336,328,74408,1,0
304,304,74515,1,0
272,280,74623,1,0
240,256,74730,1,0
208,232,74837,1,0
208,88,75212,5,0
104,152,75533,2,4,L|144:152,4,25
104,208,75908,1,0
256,152,76337,2,4,L|296:152,4,25
256,208,76711,1,0
424,152,77194,2,4,L|464:152,4,25
424,208,77569,1,0
248,152,78051,2,4,L|288:152,4,25
248,208,78426,1,0
256,192,78855,12,0,78908
256,192,78962,12,0,79015
256,192,79069,12,0,79123
256,192,79176,12,0,79230
256,192,79283,12,0,79337
256,192,79390,12,0,79444
256,192,79498,12,0,79551
256,192,79605,12,0,79658
256,192,79712,12,0,79765
256,192,79819,12,0,79980
256,192,80033,12,0,80086
256,192,80140,12,0,80193
256,192,80248,12,0,80301
256,192,80355,12,0,80408
256,192,80462,12,0,80623
256,192,80676,12,0,80729
256,192,80783,12,0,80836
256,192,80890,12,0,80943
256,192,80998,12,0,81052
256,192,81105,12,0,81158
256,192,81212,12,0,88712
256,192,88765,12,0,88819
256,192,89569,5,4
