osu file format v12

[General]
AudioFilename: Searchlights_Circadian Eyes.mp3
AudioLeadIn: 1026
PreviewTime: -1
Countdown: 1
SampleSet: Soft
StackLeniency: 0.7
Mode: 0
LetterboxInBreaks: 1

[Editor]
DistanceSpacing: 1.2
BeatDivisor: 1
GridSize: 4

[Metadata]
Title:Circadian Eyes
TitleUnicode:Circadian Eyes
Artist:Searchlights
ArtistUnicode:Searchlights
Creator:iPhone
Version:FOUR DIMENSION
Source:
Tags:BGM Piano
BeatmapID:240473
BeatmapSetID:88171

[Difficulty]
HPDrainRate:4
CircleSize:4
OverallDifficulty:7
ApproachRate:8
SliderMultiplier:1
SliderTickRate:1

[Events]
//Background and Video events
0,0,"f9198618367adab47745ffd98bd4b31c8601e497.jpg",1,1,442,241
//Break Periods
2,79808,82648
//Storyboard Layer 0 (Background)
//Storyboard Layer 1 (Fail)
//Storyboard Layer 2 (Pass)
//Storyboard Layer 3 (Foreground)
//Storyboard Sound Samples
//Background Colour Transformations
3,100,163,162,255

[TimingPoints]
30,315.789473684211,4,2,1,50,1,0
30,-100,4,2,1,25,0,0
164240,-100,4,1,0,50,0,0
184451,315.789473684211,4,1,0,80,1,1
226135,-100,4,2,0,75,0,0

[HitObjects]
104,104,30,1,0,0:0:0:0:
392,104,1924,5,0,0:0:0:0:
464,248,2556,2,0,B|404:300|312:260|276:184|184:156|96:240,1,400
400,344,5082,5,0,0:0:0:0:
36,32,6977,5,0,0:0:0:0:
156,140,7608,2,0,B|204:204|228:240|204:288|296:296|400:300|352:208|436:136,1,400
80,320,10135,5,0,0:0:0:0:
460,24,12030,5,0,0:0:0:0:
392,168,12661,1,0,0:0:0:0:
88,72,13924,5,0,0:0:0:0:
392,168,15187,6,0,B|384:236|344:304|220:352|104:316|52:232,1,400
212,176,17082,2,0,B|212:104|160:68|96:72|64:88,1,200
388,52,18977,5,0,0:0:0:0:
96,184,20240,5,0,0:0:0:0:
404,264,21503,6,0,P|368:316|228:364,1,200
156,224,22764,1,0,0:0:0:0:
420,44,24030,5,0,0:0:0:0:
132,184,25293,5,0,0:0:0:0:
424,312,26556,6,0,P|304:304|208:340,1,200
332,204,27819,1,0,0:0:0:0:
56,44,29082,5,0,0:0:0:0:
340,188,30345,6,0,B|320:252|280:296|216:336|124:340|68:332,1,300
52,272,31608,1,0,0:0:0:0:
204,320,32240,1,0,0:0:0:0:
304,196,32872,2,0,L|376:308,1,100
452,148,33819,1,0,0:0:0:0:
464,228,34135,1,0,0:0:0:0:
280,156,34766,1,0,0:0:0:0:
188,24,35398,6,0,B|112:84|72:152|72:212|104:308|200:356,1,400
200,192,37293,1,0,0:0:0:0:
40,192,37924,2,0,L|252:192,1,200
388,260,39187,2,0,L|152:260,1,200
124,16,40451,5,0,0:0:0:0:
280,56,41082,1,0,0:0:0:0:
428,116,41714,2,0,P|472:168|480:220,1,100
400,200,42345,2,0,P|420:256|472:288,1,100
372,284,42977,1,0,0:0:0:0:
60,352,44240,5,0,0:0:0:0:
200,272,44872,2,0,L|268:352,1,100
456,112,45503,6,0,P|400:136|320:136,1,100
312,76,46135,2,0,P|244:48|180:52,1,100
180,116,46766,1,0,0:0:0:0:
48,204,47398,2,0,P|72:260|136:284,1,100
140,208,48029,1,0,0:0:0:0:
296,176,48661,2,0,L|232:76,1,100
292,156,49293,1,0,0:0:0:0:
292,156,49924,6,0,L|424:176,1,100
332,224,50556,1,0,0:0:0:0:
472,304,51187,1,0,0:0:0:0:
320,352,51819,1,0,0:0:0:0:
192,256,52451,2,0,L|108:352,1,100
60,288,53082,1,0,0:0:0:0:
180,180,53714,2,0,L|240:280,1,100
304,228,54345,1,0,0:0:0:0:
148,200,54977,6,0,L|252:112,1,100
192,60,55608,2,0,B|264:52|332:68|380:160,1,200
216,196,56872,1,0,0:0:0:0:
60,232,57503,2,0,P|64:296|124:332,1,100
160,188,58135,5,0,0:0:0:0:
240,52,58766,1,0,0:0:0:0:
352,168,59398,5,0,0:0:0:0:
424,24,60029,2,0,L|312:44,1,100
248,16,60661,5,0,0:0:0:0:
168,156,61293,1,0,0:0:0:0:
320,200,61924,1,0,0:0:0:0:
448,296,62556,2,0,P|404:320|340:328,2,100
304,368,63819,1,0,0:0:0:0:
304,208,64451,5,0,0:0:0:0:
304,48,65082,2,0,B|320:32|348:40|352:88|328:108|296:80,1,100
228,72,65714,5,0,0:0:0:0:
384,112,66345,1,0,0:0:0:0:
228,152,66977,1,0,0:0:0:0:
380,200,67608,2,0,L|276:232,1,100
228,288,68240,2,0,P|168:272|160:208,1,100
200,184,68872,2,0,P|168:160|100:168,1,100
116,244,69503,2,0,P|68:220|60:160,1,100
108,120,70135,2,0,P|80:88|20:92,1,100
80,32,70766,5,0,0:0:0:0:
236,60,71398,2,0,L|332:-4,1,100
312,84,72030,2,0,L|412:32,1,100
372,112,72661,2,0,L|472:80,1,100
424,164,73293,1,0,0:0:0:0:
268,208,73924,1,0,0:0:0:0:
116,264,74556,5,0,0:0:0:0:
232,152,75187,2,0,P|264:200|272:260,1,100
304,168,75819,1,0,0:0:0:0:
156,228,76451,1,0,0:0:0:0:
276,336,77082,1,0,0:0:0:0:
312,180,77714,2,0,L|236:256,1,100
164,232,78345,1,0,0:0:0:0:
280,344,78977,1,0,0:0:0:0:
404,76,79608,5,0,0:0:0:0:
88,136,83398,5,0,0:0:0:0:
124,228,83714,1,0,0:0:0:0:
220,192,84030,1,0,0:0:0:0:
180,100,84345,1,0,0:0:0:0:
140,192,84661,1,0,0:0:0:0:
228,240,84977,1,0,0:0:0:0:
276,152,85293,1,0,0:0:0:0:
192,100,85608,1,0,0:0:0:0:
416,140,85924,5,0,0:0:0:0:
456,244,86240,1,0,0:0:0:0:
352,284,86556,1,0,0:0:0:0:
308,184,86872,1,0,0:0:0:0:
408,228,87187,1,0,0:0:0:0:
368,332,87503,1,0,0:0:0:0:
264,296,87819,1,0,0:0:0:0:
300,192,88135,1,0,0:0:0:0:
324,96,88451,6,0,L|216:52,1,100
188,148,89082,2,0,L|128:240,1,100
212,292,89714,2,0,L|324:360,1,100
348,260,90345,2,0,L|412:160,1,100
316,124,90977,6,0,L|408:72,1,100
352,192,91608,2,0,L|412:296,1,100
284,224,92240,2,0,L|156:284,1,100
248,148,92872,2,0,L|200:52,1,100
112,152,93503,6,0,P|104:228|140:268,1,100
216,164,94135,2,0,P|220:92|188:32,1,100
308,152,94766,2,0,P|304:228|328:280,1,100
416,172,95398,2,0,P|420:108|384:48,1,100
276,88,96030,6,0,L|204:16,1,100
276,88,96661,2,0,L|352:16,1,100
276,88,97293,2,0,L|368:184,1,100
276,88,97924,2,0,L|188:168,1,100,0|0,0:0|0:0,0:0:0:0:
72,100,98556,6,0,P|68:180|88:224,1,100
432,196,99187,2,0,P|432:124|404:76,1,100
204,28,99819,2,0,P|268:20|320:36,1,100
304,320,100451,2,0,P|240:324|180:304,1,100
396,248,101082,5,0,0:0:0:0:
364,52,101398,1,0,0:0:0:0:
164,72,101714,1,0,0:0:0:0:
188,272,102030,1,0,0:0:0:0:
376,200,102345,5,0,0:0:0:0:
288,20,102661,1,0,0:0:0:0:
108,112,102977,1,0,0:0:0:0:
200,292,103293,1,0,0:0:0:0:
392,244,103608,5,0,0:0:0:0:
232,120,103924,1,0,0:0:0:0:
424,172,104240,1,0,0:0:0:0:
224,192,104556,1,0,0:0:0:0:
400,100,104872,5,0,0:0:0:0:
272,252,105187,1,0,0:0:0:0:
328,60,105503,1,0,0:0:0:0:
348,260,105819,1,0,0:0:0:0:
172,164,106135,6,0,P|96:156|40:184,1,100
132,256,106766,2,0,P|200:264|244:244,1,100
300,168,107398,2,0,P|236:160|200:176,1,100
272,260,108030,2,0,P|336:272|376:244,1,100
296,344,108661,6,0,L|120:296,1,100
356,188,109293,2,0,L|324:312,1,100
192,140,109924,2,0,L|304:172,1,100
136,296,110556,2,0,L|172:196,1,100
364,48,111187,6,0,B|380:20|436:48|420:96|384:100,1,100
412,296,111819,2,0,B|444:316|416:364|368:352|364:320,1,100,0|0,0:0|0:0,0:0:0:0:
168,332,112451,2,0,B|148:364|100:344|108:288|144:272|144:272,1,100
136,88,113082,2,0,B|100:80|124:20|176:28|180:52,1,100
324,28,113714,5,0,0:0:0:0:
424,112,114030,1,0,0:0:0:0:
428,240,114345,1,0,0:0:0:0:
332,324,114661,1,0,0:0:0:0:
200,324,114977,5,0,0:0:0:0:
104,236,115293,1,0,0:0:0:0:
100,108,115608,1,0,0:0:0:0:
196,20,115924,1,0,0:0:0:0:
148,140,116240,5,0,0:0:0:0:
188,108,116556,1,0,0:0:0:0:
152,72,116872,1,0,0:0:0:0:
112,104,117187,1,0,0:0:0:0:
360,240,117503,5,0,0:0:0:0:
396,276,117819,1,0,0:0:0:0:
360,312,118135,1,0,0:0:0:0:
324,276,118451,1,0,0:0:0:0:
464,328,118766,5,0,0:0:0:0:
336,252,119082,1,0,0:0:0:0:
208,172,119398,1,0,0:0:0:0:
76,100,119714,1,0,0:0:0:0:
76,252,120030,5,0,0:0:0:0:
212,188,120345,1,0,0:0:0:0:
348,120,120661,1,0,0:0:0:0:
480,48,120977,1,0,0:0:0:0:
332,56,121293,6,0,L|204:56,1,100
92,104,121924,2,0,L|200:104,1,100
328,164,122556,2,0,L|204:164,1,100
96,236,123187,2,0,L|204:236,1,100
72,272,123819,5,0,0:0:0:0:
200,292,124135,1,0,0:0:0:0:
280,188,124451,1,0,0:0:0:0:
372,44,124766,1,0,0:0:0:0:
476,120,125082,5,0,0:0:0:0:
400,224,125398,1,0,0:0:0:0:
292,92,125714,1,0,0:0:0:0:
184,164,126030,1,0,0:0:0:0:
64,116,126345,6,0,L|184:116,1,100
348,40,126977,2,0,L|220:40,1,100
160,220,127608,2,0,L|264:220,1,100
444,140,128240,2,0,L|288:140,1,100
208,72,128872,6,0,L|112:148,1,100
320,320,129503,2,0,L|400:252,1,100
320,72,130135,2,0,L|404:160,1,100
212,316,130766,2,0,L|136:232,1,100
216,136,131398,6,0,B|172:100|172:100|116:152,1,100
212,260,132030,2,0,B|180:304|180:304|216:344,1,100
340,260,132661,2,0,B|380:296|380:296|424:252,1,100
340,132,133293,2,0,B|372:88|372:88|332:36,1,100
444,64,133924,5,0,0:0:0:0:
444,64,134240,1,0,0:0:0:0:
444,164,134556,1,0,0:0:0:0:
444,164,134872,1,0,0:0:0:0:
360,108,135187,5,0,0:0:0:0:
428,180,135503,1,0,0:0:0:0:
360,252,135819,1,0,0:0:0:0:
288,180,136135,1,0,0:0:0:0:
360,248,136451,5,0,0:0:0:0:
360,252,136766,1,0,0:0:0:0:
280,192,137082,1,0,0:0:0:0:
280,192,137398,1,0,0:0:0:0:
260,72,137714,5,0,0:0:0:0:
316,180,138030,1,0,0:0:0:0:
208,236,138345,1,0,0:0:0:0:
148,132,138661,1,0,0:0:0:0:
48,52,138977,5,0,0:0:0:0:
448,332,139608,1,0,0:0:0:0:
48,332,140240,1,0,0:0:0:0:
444,52,140872,1,0,0:0:0:0:
204,232,141503,6,0,L|204:360,1,100
316,232,142135,2,0,L|432:232,1,100
316,120,142766,2,0,L|316:12,1,100
204,120,143398,2,0,L|100:120,1,100
304,120,144030,6,0,L|392:36,1,100
300,236,144661,2,0,L|384:320,1,100
184,236,145293,2,0,L|100:312,1,100
184,116,145924,2,0,L|104:40,1,100
316,68,146556,6,0,P|324:144|288:184,1,100
216,168,147187,2,0,P|284:152|332:192,1,100
300,264,147819,2,0,P|296:188|324:160,1,100
408,172,148451,2,0,P|352:192|312:172,1,100
176,48,149082,5,0,0:0:0:0:
256,176,149398,1,0,0:0:0:0:
340,300,149714,1,0,0:0:0:0:
256,176,150030,1,0,0:0:0:0:
384,96,150345,5,0,0:0:0:0:
256,176,150661,1,0,0:0:0:0:
128,256,150977,1,0,0:0:0:0:
256,176,151293,1,0,0:0:0:0:
124,104,151608,5,0,0:0:0:0:
324,104,151924,1,0,0:0:0:0:
124,104,152240,1,0,0:0:0:0:
324,104,152556,1,0,0:0:0:0:
328,304,152872,5,0,0:0:0:0:
128,300,153187,1,0,0:0:0:0:
328,304,153503,1,0,0:0:0:0:
128,300,153819,1,0,0:0:0:0:
76,108,154135,6,0,P|96:56|160:32,1,100
288,176,154766,2,0,P|264:232|224:248,1,100
284,52,155398,2,0,P|244:72|220:124,1,100
412,176,156030,2,0,P|384:240|352:256,1,100
160,260,156661,6,0,L|80:340,1,100
228,184,157293,2,0,L|308:100,1,100
156,184,157924,2,0,L|84:108,1,100
228,256,158556,2,0,L|304:336,1,100
472,232,159187,5,0,0:0:0:0:
336,88,159503,1,0,0:0:0:0:
196,232,159819,1,0,0:0:0:0:
340,372,160135,1,0,0:0:0:0:
412,184,160451,5,0,0:0:0:0:
244,76,160766,1,0,0:0:0:0:
152,252,161082,1,0,0:0:0:0:
328,344,161398,1,0,0:0:0:0:
336,144,161714,5,0,0:0:0:0:
136,140,162030,1,0,0:0:0:0:
132,340,162345,1,0,0:0:0:0:
332,340,162661,1,0,0:0:0:0:
460,188,162977,5,0,0:0:0:0:
268,128,163293,1,0,0:0:0:0:
80,188,163608,1,0,0:0:0:0:
268,256,163924,1,0,0:0:0:0:
196,68,164240,6,4,L|100:116,1,100,4|8,0:0|0:0,0:0:0:0:
304,68,164872,2,0,L|448:148,1,100
256,264,165503,2,0,L|256:124,1,100
256,24,166135,2,0,L|256:184,1,100
72,48,166766,5,0,0:0:0:0:
116,244,167082,1,0,0:0:0:0:
160,48,167398,1,0,0:0:0:0:
200,244,167714,1,0,0:0:0:0:
372,140,168030,5,0,0:0:0:0:
328,336,168345,1,0,0:0:0:0:
292,140,168661,1,0,0:0:0:0:
244,336,168977,1,0,0:0:0:0:
424,248,169293,6,0,L|364:156,1,100
176,212,169924,2,0,L|112:108,1,100
224,300,170556,2,0,L|328:244,1,100
292,52,171187,2,0,L|392:4,1,100
264,172,171819,6,0,L|320:204,2,50
120,312,172451,2,0,L|76:272,2,50
316,276,173082,2,0,L|352:324,2,50
412,100,173714,2,0,L|464:60,2,50
216,60,174345,5,0,0:0:0:0:
68,144,174661,1,0,0:0:0:0:
220,224,174977,2,0,L|172:160,2,50
332,352,175608,5,0,0:0:0:0:
476,260,175924,1,0,0:0:0:0:
332,172,176240,2,0,L|368:224,2,50
196,272,176872,5,0,0:0:0:0:
196,104,177187,1,0,0:0:0:0:
344,184,177503,2,0,L|280:184,2,50
444,44,178135,5,0,0:0:0:0:
448,216,178451,1,0,0:0:0:0:
300,132,178766,2,0,L|360:132,2,50
140,188,179398,6,0,L|140:332,1,100
304,244,180030,1,0,0:0:0:0:
304,244,180187,1,0,0:0:0:0:
304,244,180345,1,0,0:0:0:0:
460,180,180661,6,0,L|460:64,1,100
308,152,181293,1,0,0:0:0:0:
308,152,181451,1,0,0:0:0:0:
308,152,181608,1,0,0:0:0:0:
156,76,181924,5,0,0:0:0:0:
116,108,182082,1,0,0:0:0:0:
164,128,182240,1,0,0:0:0:0:
160,228,182556,5,0,0:0:0:0:
116,252,182714,1,0,0:0:0:0:
160,276,182872,1,0,0:0:0:0:
304,308,183187,5,0,0:0:0:0:
340,276,183345,1,0,0:0:0:0:
368,236,183503,1,0,0:0:0:0:
384,188,183661,1,0,0:0:0:0:
368,140,183819,1,0,0:0:0:0:
340,100,183977,1,0,0:0:0:0:
300,72,184135,1,0,0:0:0:0:
240,188,184451,6,0,L|104:188,2,100,2|0|2,0:0|0:0|0:0,0:0:0:0:
244,188,185398,1,0,0:0:0:0:
160,68,185714,1,0,0:0:0:0:
160,120,185872,1,0,0:0:0:0:
160,172,186030,1,0,0:0:0:0:
160,220,186187,1,0,0:0:0:0:
160,272,186345,1,0,0:0:0:0:
276,176,186661,1,0,0:0:0:0:
376,64,186977,6,0,P|392:132|368:172,1,100,0|0,0:0|0:0,0:0:0:0:
384,308,187608,2,0,P|392:228|364:184,1,100
236,188,188240,1,0,0:0:0:0:
288,188,188398,1,0,0:0:0:0:
340,188,188556,1,0,0:0:0:0:
392,188,188714,1,0,0:0:0:0:
444,188,188872,1,0,0:0:0:0:
340,80,189187,1,0,0:0:0:0:
408,212,189503,6,0,P|396:256|412:312,1,100
328,180,190135,2,0,P|336:112|308:68,1,100
240,208,190766,2,0,P|224:276|248:324,1,100
156,172,191398,2,0,P|168:128|148:80,1,100
152,280,192030,5,0,0:0:0:0:
352,280,192345,1,0,0:0:0:0:
348,80,192661,1,0,0:0:0:0:
148,76,192977,1,0,0:0:0:0:
284,224,193293,6,0,P|336:196|356:136,1,100
172,76,193924,1,0,0:0:0:0:
160,96,194003,1,0,0:0:0:0:
152,120,194082,1,0,0:0:0:0:
144,144,194161,1,0,0:0:0:0:
140,168,194240,1,0,0:0:0:0:
140,192,194319,1,0,0:0:0:0:
148,216,194398,1,0,0:0:0:0:
160,240,194477,1,0,0:0:0:0:
172,260,194556,1,0,0:0:0:0:
304,188,194872,6,0,L|360:188,3,50
428,188,195503,2,0,L|356:188,3,50
360,116,196135,2,0,L|360:200,3,50
360,240,196766,2,0,L|360:180,3,50
284,180,197398,5,0,0:0:0:0:
212,152,197556,1,0,0:0:0:0:
168,212,197714,1,0,0:0:0:0:
84,180,197872,1,0,0:0:0:0:
40,120,198030,6,0,L|96:64,1,50
100,156,198345,2,0,L|136:232,1,50
148,132,198661,2,0,L|168:76,1,50
196,152,198977,2,0,L|236:232,1,50
256,132,199293,6,0,L|360:132,1,100
492,196,199924,2,0,L|384:196,1,100
252,252,200556,2,0,L|372:252,1,100
488,312,201187,2,0,L|388:312,1,100
380,160,201819,5,0,0:0:0:0:
288,40,202135,5,0,0:0:0:0:
252,44,202214,1,0,0:0:0:0:
216,56,202293,1,0,0:0:0:0:
188,80,202372,1,0,0:0:0:0:
172,116,202451,1,0,0:0:0:0:
156,148,202530,1,0,0:0:0:0:
124,164,202608,1,0,0:0:0:0:
88,164,202687,1,0,0:0:0:0:
56,184,202766,1,0,0:0:0:0:
40,216,202845,1,0,0:0:0:0:
40,252,202924,1,0,0:0:0:0:
60,284,203003,1,0,0:0:0:0:
88,308,203082,1,0,0:0:0:0:
124,316,203161,1,0,0:0:0:0:
160,304,203240,1,0,0:0:0:0:
184,276,203319,1,0,0:0:0:0:
200,240,203398,5,0,0:0:0:0:
208,204,203477,1,0,0:0:0:0:
228,176,203556,1,0,0:0:0:0:
256,152,203635,1,0,0:0:0:0:
292,136,203714,1,0,0:0:0:0:
328,136,203793,1,0,0:0:0:0:
360,152,203872,1,0,0:0:0:0:
388,176,203951,1,0,0:0:0:0:
408,208,204030,1,0,0:0:0:0:
420,244,204108,1,0,0:0:0:0:
416,280,204187,1,0,0:0:0:0:
400,312,204266,1,0,0:0:0:0:
368,332,204345,1,0,0:0:0:0:
332,336,204424,1,0,0:0:0:0:
296,328,204503,1,0,0:0:0:0:
264,312,204582,1,0,0:0:0:0:
284,280,204661,6,0,B|284:236|236:196|204:208,1,100
120,316,205293,2,0,P|76:224|100:184,1,100
220,200,205924,2,0,P|328:208|328:256,1,100
356,324,206556,2,0,P|424:240|392:204,1,100
408,120,207187,6,0,P|312:60|264:84,1,100
260,192,207819,2,0,P|240:304|192:312,1,100
144,192,208451,2,0,P|176:176|196:124,2,50
112,44,209082,2,0,P|68:144|96:172,1,100
212,108,209714,5,0,0:0:0:0:
360,136,210030,1,0,0:0:0:0:
268,20,210345,1,0,0:0:0:0:
136,96,210661,1,0,0:0:0:0:
176,240,210977,5,0,0:0:0:0:
236,284,211135,1,0,0:0:0:0:
304,320,211293,1,0,0:0:0:0:
428,236,211608,1,0,0:0:0:0:
408,88,211924,1,0,0:0:0:0:
268,36,212240,6,0,L|152:72,1,100
316,104,212872,2,0,L|416:144,1,100
408,292,213503,1,0,0:0:0:0:
332,292,213661,1,0,0:0:0:0:
256,292,213819,1,0,0:0:0:0:
180,292,213977,1,0,0:0:0:0:
104,292,214135,1,0,0:0:0:0:
40,156,214451,2,0,P|88:168|120:168,2,50
156,60,215082,6,0,L|208:96,1,50
260,48,215398,1,0,0:0:0:0:
372,148,215714,6,0,L|308:128,1,50
272,188,216030,1,0,0:0:0:0:
124,208,216345,6,0,L|184:248,1,50
148,308,216661,1,0,0:0:0:0:
296,296,216977,6,0,L|352:232,1,50
400,280,217293,1,0,0:0:0:0:
304,164,217608,6,0,L|268:120,2,50
384,292,218240,1,0,0:0:0:0:
236,292,218556,2,0,P|224:224|272:184,3,100
128,100,219819,6,0,L|176:208,1,100
224,52,220451,2,0,L|252:188,1,100
344,40,221082,2,0,L|336:176,1,100
476,76,221714,2,0,L|440:200,1,100
380,304,222345,6,0,P|368:260|340:240,1,50
296,288,222661,2,0,P|272:256|284:216,1,50
332,204,222977,2,0,B|316:172|304:168|288:168,1,50
232,208,223293,2,0,P|196:184|200:152,1,50
224,112,223608,5,0,0:0:0:0:
200,84,223687,1,0,0:0:0:0:
164,76,223766,1,0,0:0:0:0:
128,84,223845,1,0,0:0:0:0:
92,100,223924,1,0,0:0:0:0:
72,132,224003,1,0,0:0:0:0:
64,168,224082,1,0,0:0:0:0:
64,204,224161,1,0,0:0:0:0:
76,240,224240,1,0,0:0:0:0:
100,272,224319,1,0,0:0:0:0:
132,288,224398,1,0,0:0:0:0:
168,304,224477,1,0,0:0:0:0:
204,308,224556,1,0,0:0:0:0:
240,300,224635,1,0,0:0:0:0:
268,276,224714,1,0,0:0:0:0:
304,260,224793,1,0,0:0:0:0:
340,268,224872,1,0,0:0:0:0:
256,192,224951,12,4,226135,0:0:0:0:
