osu file format v5

[General]
AudioFilename: Sean Paul - Get Busy (Bhangra Remix).mp3
AudioLeadIn: 0
PreviewTime: -1
Countdown: 1
SampleSet: Soft
StackLeniency: 0.7
Mode: 0
LetterboxInBreaks: 1
EditorBookmarks: 73301,102522

[Metadata]
Title:Get Busy (Bhangra Remix)
Artist:Sean Paul
Creator:Rolled
Version:Woman, Get Busy
Source:
Tags:

[Difficulty]
HPDrainRate:7
CircleSize:5
OverallDifficulty:6
SliderMultiplier:1.5
SliderTickRate:2

[Events]
//Background and Video events
0,0,"jamaica.JPG"
//Break Periods
//Storyboard Layer 0 (Background)
//Storyboard Layer 1 (Failing)
//Storyboard Layer 2 (Passing)
//Storyboard Layer 3 (Foreground)
//Storyboard Sound Samples
//Background Colour Transformations
3,100,0,0,0

[TimingPoints]
42,290.697674418605,4,2,0,100,1
9345,290.697674418605,4,1,0,100,1

[Colours]
Combo1 : 255,0,0
Combo2 : 0,128,0
Combo3 : 255,255,0

[HitObjects]
96,72,4693,1,0
416,72,5855,1,0
256,344,7018,1,0
256,40,7600,1,0
256,192,8181,1,2
256,192,8326,1,2
376,192,8617,1,2
256,192,8908,1,2
256,192,9053,1,6
120,88,9345,6,0,B|48:176|128:320,2,225
256,192,10653,1,0
440,128,11089,1,4
440,168,11234,1,0
440,208,11379,1,4
440,248,11525,1,0
368,192,11670,6,0,B|96:192,2,225
144,192,12978,1,0
256,48,13414,5,4
256,96,13560,1,0
256,144,13705,1,4
256,192,13850,1,0
160,224,13996,2,0,B|258:328|368:208,2,225
256,24,15304,1,0
160,352,15740,5,4
224,352,15885,1,0
288,352,16031,1,4
352,352,16176,1,0
256,168,16612,1,0
136,96,16903,1,0
136,96,17048,1,0
136,232,17339,1,0
136,232,17484,1,0
136,232,17629,1,0
368,96,18211,5,0
368,96,18356,1,0
368,232,18647,2,0,B|368:336|264:328,1,150,0|0
256,264,19083,1,0
256,192,19228,2,0,B|152:192|160:296,1,150,0|0
88,280,19664,1,0
40,232,19810,2,0,B|40:144|152:104,1,150
192,120,20246,1,0
256,120,20391,2,0,B|344:120|384:8,1,150,0|0
304,32,20827,1,0
232,32,20972,2,0,B|148:31|109:114,1,150,0|0
112,176,21408,1,0
112,240,21554,2,0,B|111:325|194:364,1,150,0|0
256,360,21990,1,0
320,320,22135,6,0,B|400:256,1,75,4|0
320,240,22426,2,0,B|400:176,1,75,4|0
320,160,22717,2,0,B|400:96,1,75,4|0
320,80,23007,2,0,B|400:16,1,75,4|0
456,80,23298,6,0,B|456:288,1,150
416,296,23734,1,0
376,232,23879,2,0,B|376:72,1,150
320,24,24315,1,0
280,88,24461,2,0,B|280:248,1,150
240,304,24897,1,0
200,240,25042,2,0,B|200:80,1,150
144,32,25478,1,0
104,96,25624,2,0,B|104:256,1,150
56,304,26060,1,0
107,357,26205,2,0,B|411:357,1,300,0|4
405,358,26932,5,0
408,288,27077,1,4
408,288,27222,1,0
408,216,27368,1,4
408,216,27513,1,0
408,144,27658,1,4
408,144,27804,1,0
408,72,27949,6,0,B|332:4|248:88,1,150
272,144,28385,1,0
272,216,28531,2,0,B|272:336|216:352,1,150
152,352,28967,1,0
80,352,29112,2,0,B|28:326|40:200,1,150
40,144,29548,1,0
72,72,29693,2,0,B|148:4|232:88,1,150,0|0
232,144,30129,1,0
256,216,30275,2,0,B|256:312,3,75
296,352,30856,2,0,B|400:352|424:248,1,150
440,208,31292,1,0
384,152,31438,5,4
336,88,31583,1,0
296,152,31728,1,0
256,88,31874,1,0
216,152,32019,1,4
176,88,32164,1,0
136,152,32310,1,0
144,304,32600,6,0,B|296:304,1,150
368,304,33036,1,0
294,304,33182,2,0,B|296:152,1,150
216,152,33618,1,0
295,154,33763,2,0,B|424:56,1,150
448,128,34199,1,0
414,63,34344,2,0,B|256:16,1,150
272,96,34781,1,0
270,20,34926,2,0,B|112:64,1,150
48,64,35362,1,0
125,60,35507,2,0,B|125:226,1,150
200,208,35943,1,0
272,208,36089,2,0,B|360:208,3,75,4|0|4|0
136,104,36961,5,0
288,104,37251,2,0,B|416:104|432:224,1,150
384,248,37688,1,0
224,288,37978,1,4
224,288,38124,1,0
224,288,38269,1,4
224,288,38414,2,0,B|120:256|152:152,1,150
144,96,38850,1,8
288,288,39141,1,4
288,288,39286,1,0
288,288,39432,1,4
288,288,39577,2,0,B|392:256|360:152,1,150
368,96,40013,1,8
256,24,40304,5,4
256,24,40449,1,0
256,24,40595,1,4
256,24,40740,2,0,B|256:192,1,150
256,256,41176,1,8
72,192,41903,5,0
96,120,42048,1,0
160,80,42193,1,0
232,72,42339,2,0,B|324:48|392:160,1,150
360,200,42775,1,4
360,200,42920,1,0
360,200,43065,2,0,B|360:304|272:344,1,150,4|0
256,264,43501,1,8
152,200,43792,1,4
152,200,43938,1,0
152,200,44083,1,4
152,200,44228,2,0,B|152:304|240:344,1,150
256,264,44664,1,8
256,112,44955,5,4
256,112,45100,1,0
280,184,45246,1,4
328,128,45391,2,0,B|328:43|328:43|248:43,1,150
192,72,45827,1,8
400,320,46554,5,0
400,320,46699,1,0
400,320,46845,1,0
400,320,46990,1,0
400,248,47135,2,0,B|216:248,1,150
250,248,47571,1,0
250,248,47717,1,0
120,168,48007,1,0
120,168,48153,2,0,B|280:168,1,150
336,136,48589,1,0
392,88,48734,1,0
328,48,48879,2,0,B|152:48,1,150
104,48,49315,1,0
16,168,49606,5,0
16,168,49751,1,0
16,168,49897,1,0
16,168,50042,2,0,B|88:264|192:264,1,150
134,255,50478,1,0
256,40,50769,5,12
256,40,50914,1,8
256,192,51205,2,0,B|256:352,2,150
293,128,51932,1,0
293,128,52077,1,0
221,128,52222,1,0
221,128,52368,1,0
256,272,52658,5,0
256,272,52804,2,0,B|320:272|319:194|256:191|181:193|180:260|180:321|224:344,1,225
256,336,53385,1,0
328,312,53531,2,0,B|384:248|376:192|320:160|288:160,1,150
264,152,53967,2,0,B|169:144|120:224|128:304,1,225
200,288,54548,1,0
184,216,54693,2,0,B|184:120|72:96,2,150
256,192,55420,5,0
256,192,55565,1,0
320,328,55856,2,0,B|392:257|312:176,2,150
256,288,56583,1,0
256,288,56728,1,0
256,288,56874,1,0
192,328,57019,2,0,B|120:257|200:176,2,150
256,288,57746,2,0,B|256:200,2,75
328,296,58182,6,0,B|400:144,1,150
368,88,58618,1,0
304,128,58763,2,0,B|240:264,1,150,0|0
168,296,59199,1,0
144,224,59345,2,0,B|216:88,2,150
64,224,60071,5,0
64,224,60217,1,0
64,72,60507,2,0,B|160:72,1,75
216,72,60798,1,0
288,72,60943,2,0,B|368:72,1,75
440,72,61234,1,0
440,144,61379,2,0,B|440:312,1,150
360,296,61815,2,0,B|240:296,1,75
208,296,62106,1,0
136,296,62251,2,0,B|32:296,1,75
64,216,62542,2,0,B|64:48,1,150
128,96,62978,1,0
128,96,63124,1,0
128,96,63269,1,0
192,48,63414,6,0,B|272:120|168:200,1,150
272,184,63850,1,0
344,176,63996,2,0,B|264:104|368:24,1,150,0|0
416,56,64432,1,0
416,56,64577,1,0
416,56,64722,1,0
416,56,64868,1,0
416,56,65013,1,0
416,56,65158,2,0,B|488:168|408:272,1,225
336,264,65740,1,0
256,264,65885,1,0
184,264,66031,1,0
96,56,66321,2,0,B|24:168|104:272,1,225
176,264,66903,1,0
256,264,67048,1,0
328,264,67193,1,0
256,40,67484,6,0,B|352:80|352:88|208:104,1,150
192,144,67920,1,0
256,168,68065,2,0,B|352:208|352:216|208:232,1,150,0|0
192,272,68501,1,0
256,312,68647,2,0,B|352:312,1,75
400,280,68938,2,0,B|472:224,1,75
456,160,69228,2,0,B|456:80,1,75
392,48,69519,2,0,B|320:8,1,75
248,16,69810,6,0,B|184:96|112:8,1,150
64,64,70246,1,0
64,144,70391,2,0,B|-16:208|72:280,1,150,0|0
112,208,70827,1,0
152,144,70972,2,0,B|232:208|144:280,1,150,0|0
256,208,71408,1,0
356,269,71554,2,0,B|280:208|360:144,1,150,0|0
400,208,71990,1,0
451,269,72135,2,0,B|528:208|448:144,1,150,0|0
408,80,72571,1,0
328,80,72717,6,0,L|320:72|312:80|304:72|296:80|288:72|280:80|272:72|264:80|256:72|248:80|240:72|232:80|224:72|216:80|208:72|200:80|192:72|184:80|176:72|168:80|160:72|152:80|144:72|136:80|128:72|120:80|112:72,1,300
72,136,73443,1,0
128,184,73589,1,0
72,232,73734,1,0
128,280,73879,1,0
72,328,74025,1,0
128,368,74170,2,0,B|216:368|272:272,1,150
256,224,74606,5,0
256,152,74751,1,0
256,224,74897,1,0
256,152,75042,2,0,B|160:152|88:56,1,150
256,32,75624,1,0
328,40,75769,1,0
368,104,75914,1,0
368,176,76060,1,0
296,136,76205,2,0,B|184:136|216:248,1,150
400,328,76786,6,0,B|224:328,1,150
192,280,77222,1,0
120,320,77368,2,0,B|120:160,1,150
192,144,77804,1,0
256,88,77949,5,0
256,88,78095,1,0
256,88,78240,1,0
256,88,78385,1,0
256,88,78531,1,0
256,88,78676,1,0
256,88,78821,2,0,B|384:232,1,150
256,312,79403,5,0
256,312,79548,2,0,B|136:312|120:200,1,150,0|4
80,192,79984,1,0
136,144,80129,1,0
80,96,80275,2,0,B|128:24|240:32,1,150,4|0
256,88,80711,1,0
344,208,81001,2,0,B|416:256,2,75,4|0|4
272,192,81438,2,0,B|264:288|120:280,1,150
88,280,81874,1,4
88,128,82164,1,0
88,128,82310,1,0
216,48,82600,2,0,B|328:24|376:88,1,150,4|0
359,69,83036,1,0
256,192,83327,5,4
256,192,83472,1,8
336,312,83763,5,0
408,280,83908,1,0
440,208,84054,1,0
408,136,84199,2,0,B|320:144|216:80,1,150
192,88,84635,1,0
112,88,84781,2,4,B|112:176,1,75
256,208,85217,2,0,B|256:288,1,75
112,328,85653,5,0
64,272,85798,1,0
96,208,85943,2,4,B|96:128,1,75
256,208,86379,2,0,B|256:120,1,75
408,144,86815,1,0
448,208,86961,1,0
416,272,87106,1,0
352,304,87251,2,4,B|272:304,1,75
200,304,87542,2,4,B|96:304,1,75
256,24,88124,5,8
144,232,88414,2,0,B|144:336|248:328,1,150,0|8
256,264,88850,1,0
256,192,88996,2,0,B|360:192|352:296,1,150,0|8
424,280,89432,1,0
472,232,89577,2,0,B|472:144|360:104,1,150,0|8
320,120,90013,1,0
256,120,90158,2,0,B|168:120|128:8,1,150,0|8
208,32,90594,1,0
280,32,90740,2,0,B|364:31|403:114,1,150,0|8
400,184,91176,1,0
400,256,91321,2,0,B|326:320|240:232,1,150,0|8
200,208,91757,1,0
136,248,91903,2,0,B|72:192|128:96,2,150,4|4|4
256,152,92775,5,0
448,152,93065,6,0,B|448:304,1,150,0|8
384,224,93501,1,0
320,152,93647,2,0,B|320:304,1,150,0|8
256,224,94083,1,0
192,152,94228,2,0,B|192:304,1,150,0|8
128,224,94664,1,0
64,152,94810,2,0,B|64:304,1,150,0|8
256,192,95391,12,4,97135
256,48,97426,5,0
256,200,97717,2,0,B|256:360,2,150
256,120,98443,1,0
256,120,98589,1,0
256,120,98734,1,0
192,160,98879,2,0,B|72:160,2,75,4|0|4
256,200,99315,2,0,B|416:200,1,150
440,136,99751,1,0
400,72,99897,1,0
360,136,100042,2,0,B|200:136,1,150,0|8
136,136,100478,1,0
64,136,100624,2,0,B|64:296,1,150,0|8
136,288,101060,1,0
136,288,101205,5,12
376,288,101496,5,12
256,56,101786,5,12
256,56,101932,5,0
256,56,102077,1,0
256,56,102222,1,0
256,56,102368,1,0
256,328,102658,5,0
256,328,102804,1,0
