osu file format v5

[General]
AudioFilename: Sean Paul - Get Busy (Bhangra Remix).mp3
AudioLeadIn: 0
PreviewTime: -1
Countdown: 1
SampleSet: Soft
StackLeniency: 0.4
Mode: 0
LetterboxInBreaks: 1
EditorBookmarks: 73301,102522

[Metadata]
Title:Get Busy (Bhangra Remix)
Artist:Sean Paul
Creator:Rolled
Version:Turn Me On
Source:
Tags:

[Difficulty]
HPDrainRate:5
CircleSize:4
OverallDifficulty:5
SliderMultiplier:1
SliderTickRate:1

[Events]
//Background and Video events
0,0,"jamaica.JPG"
//Break Periods
//Storyboard Layer 0 (Background)
//Storyboard Layer 1 (Failing)
//Storyboard Layer 2 (Passing)
//Storyboard Layer 3 (Foreground)
//Storyboard Sound Samples
//Background Colour Transformations
3,100,0,0,0

[TimingPoints]
42,290.697674418605,4,2,0,100,1
9345,290.697674418605,4,1,0,100,1

[Colours]
Combo1 : 255,0,0
Combo2 : 0,128,0
Combo3 : 255,255,0

[HitObjects]
96,72,4693,1,2
416,72,5855,1,2
256,344,7018,1,2
256,40,7600,1,2
136,192,8181,2,2,C|192:192|224:160|256:192|288:160|320:192|416:192,1,300
408,288,9345,5,0
256,328,9781,1,0
104,288,10217,1,0
256,192,10653,1,0
256,32,11089,5,4
256,32,11379,1,4
163,73,11670,2,0,B|264:202,1,150
349,73,12542,2,0,B|248:202,1,150
224,336,13414,6,0,B|312:336,4,50,4|0|4|0|4
152,200,14432,1,0
256,88,14868,1,0
360,200,15304,1,0
256,304,15740,6,4,B|256:144,1,150
256,192,16612,12,0,17484
104,304,18647,6,0,B|104:136,1,150,0|0
104,152,19228,2,8,B|256:152,1,150,0|0
256,152,19810,2,0,B|256:322,1,150,0|0
256,302,20391,2,0,B|425:302,1,150,0|0
406,302,20972,1,0
408,200,21263,1,0
408,96,21554,1,0
328,24,21844,1,0
256,96,22135,5,4
256,200,22426,1,0
256,304,22717,1,4
152,304,23007,1,0
56,264,23298,6,0,B|56:152|168:96,1,200
160,200,24170,1,0
256,264,24461,2,0,B|256:152|144:96,1,200,0|0
160,200,25333,1,0
355,102,25624,6,0,B|256:152|256:262,1,200,4|4
352,200,26496,1,0
356,102,26786,2,0,B|456:152|455:262,1,200,4|4
352,200,27658,1,0
256,48,27949,5,0
120,192,28531,1,8
256,336,29112,1,0
392,192,29693,1,8
72,312,30275,6,0,B|184:312,1,100,4|8
72,232,30856,2,0,B|184:232,1,100,0|8
72,152,31438,2,0,B|176:152,1,100,4|8
72,72,32019,2,0,B|176:72,1,100,0|8
256,192,32600,6,0,B|368:192|416:56,1,200
256,192,33763,2,0,B|144:192|96:328,1,200
208,304,34635,1,0
304,304,34926,2,0,B|392:232,1,100,4|0
280,232,35507,2,0,B|368:160,1,100,4|0
256,160,36089,2,0,B|344:88,2,100,4|0|4
64,96,37251,5,8
64,192,37542,1,0
64,288,37833,1,8
256,96,38414,5,8
256,192,38705,1,0
256,288,38996,1,8
448,96,39577,5,8
448,192,39868,1,0
448,288,40158,1,8
448,192,40449,1,0
448,96,40740,1,8
448,192,41031,1,0
448,288,41321,1,8
64,192,41903,5,0
64,192,42484,1,0
144,248,42775,1,0
232,192,43065,2,0,B|312:128|232:16,2,100,4|0|4
312,248,43938,1,0
392,192,44228,2,4,B|392:88|240:56,1,200,4|4
160,64,45100,1,0
80,120,45391,2,0,B|80:248,2,100,4|0|4
256,328,46554,5,0
256,328,46845,1,0
256,328,47135,2,8,B|256:104,1,200
256,24,48007,1,0
256,128,48298,2,8,B|464:128,1,200
360,56,49170,1,0
256,128,49461,2,8,B|48:128,1,200
152,56,50333,1,0
256,128,50624,1,8
256,224,50914,5,4
256,128,51205,6,0,B|152:176,1,100
168,272,51786,2,0,B|256:328,1,100
336,272,52368,2,0,B|336:168,2,100
424,224,53240,1,0
424,120,53531,2,0,B|392:24|216:48,1,200,4|4
192,112,54403,1,0
112,56,54693,2,4,B|58:80|72:152,2,100
192,112,55565,5,0
192,208,55856,2,0,B|192:344|192:344|312:344,1,200
320,208,57019,2,0,B|320:344|320:344|200:344,1,200
256,40,58182,5,4
168,96,58472,1,0
168,192,58763,1,4
256,232,59054,1,0
344,192,59345,1,4
344,88,59635,1,0
256,40,59926,1,8
96,192,60507,6,0,B|96:304|216:344,1,200
256,256,61379,1,0
416,192,61670,2,0,B|416:304|296:344,1,200
256,256,62542,1,0
256,152,62833,2,0,B|120:152,1,100,4|0
256,152,63414,2,0,B|192:64,1,100,4|0
256,152,63996,2,0,B|314:71,1,100,4|0
256,152,64577,2,0,B|356:152,1,100,4|0
352,248,65158,5,8
160,248,65740,1,0
160,248,66031,1,0
352,176,66321,5,8
160,176,66903,1,0
160,176,67193,1,0
357,100,67484,6,0,B|253:100,1,100,8|0
157,100,68065,2,0,B|261:100,1,100,8|0
256,200,68647,2,4,B|256:96,2,100,12|0|12
256,296,69519,1,0
256,296,69810,5,4
256,40,70972,1,4
56,192,72135,1,4
256,192,72717,1,4
440,48,73298,1,4
440,144,73589,1,0
440,240,73879,1,4
440,336,74170,1,0
352,192,74461,6,8,B|136:192,1,200
64,192,75333,1,0
152,192,75624,2,8,B|376:192,1,200
440,192,76496,1,0
368,128,76786,5,12
296,192,77077,1,0
256,288,77368,1,12
216,192,77658,1,0
144,128,77949,1,12
72,192,78240,1,0
256,80,78531,5,4
72,264,79112,6,0,B|125:352|165:352|216:248,1,200
440,264,80275,2,0,B|387:352|347:352|296:248,1,200
328,80,81438,2,0,B|275:-8|235:-8|184:96,1,200,0|0
256,152,82310,1,0
256,248,82600,2,0,B|256:352,2,100,4|0|4
72,168,83763,5,4
256,80,84345,1,0
432,168,84926,1,4
432,264,85217,1,0
360,336,85507,1,0
256,344,85798,2,0,B|256:232,1,100,0|4
152,248,86379,1,0
80,176,86670,1,0
80,80,86961,1,0
176,80,87251,2,0,B|296:80,1,100,4|0
368,80,87833,1,0
376,280,88414,6,0,B|168:280,1,200
96,216,89286,1,0
184,168,89577,2,0,B|240:120|304:208|376:152,1,200
448,88,90449,1,0
368,24,90740,2,0,B|160:24,1,200,0|0
96,96,91612,2,0,B|57:136|96:200,2,100
192,88,92484,1,0
392,280,93065,5,8
392,280,93356,1,0
392,280,93647,1,0
288,280,93938,2,0,B|72:280,1,200
88,184,94810,1,0
176,136,95100,2,0,B|184:80|256:80,2,100
264,176,95972,1,0
360,176,96263,2,0,B|464:176|456:328,1,200
360,320,97135,1,0
256,192,97717,12,0,101641
256,112,102368,5,4
256,208,102658,1,8
256,208,102804,1,4
