osu file format v7

[General]
AudioFilename: Sean Kingston ft. Justin Bieber - Eenie Meenie.mp3
AudioLeadIn: 0
PreviewTime: -1
Countdown: 1
SampleSet: Normal
StackLeniency: 0.7
Mode: 0
LetterboxInBreaks: 1

[Editor]
DistanceSpacing: 1
BeatDivisor: 4
GridSize: 8

[Metadata]
Title:Eenie Meenie
Artist:Sean Kingston ft. Justin Bieber
Creator:kubzter
Version:Normal
Source:
Tags:

[Difficulty]
HPDrainRate:4
CircleSize:4
OverallDifficulty:5
SliderMultiplier:1.4
SliderTickRate:1

[Events]
//Background and Video events
0,0,"EenieMeenie[1].jpg"
//Break Periods
2,76283,79339
2,135194,150131
//Storyboard Layer 0 (Background)
//Storyboard Layer 1 (Fail)
//Storyboard Layer 2 (Pass)
//Storyboard Layer 3 (Foreground)
//Storyboard Sound Samples
//Background Colour Transformations
3,100,163,162,255

[TimingPoints]
8757.18871174692,495.049504950495,4,1,0,70,1,0
40391,-100,4,1,0,70,0,1
55539,-100,4,1,0,68,0,0
103672,-100,4,1,0,70,0,1
118891,-100,4,1,0,70,0,0
151207,-100,4,2,0,71,0,0
159128,-100,4,2,0,42,0,0
159376,-100,4,2,0,51,0,0
164821,988.467874794069,4,2,0,51,1,0
165069,-100,4,2,0,21,0,0
165316,-100,4,2,0,41,0,0
165564,-100,4,2,0,49,0,0
165811,-100,4,2,0,49,0,0
166182,-100,4,1,0,69,0,0
166957,495.049504950495,4,1,0,69,1,0
167203,-100,4,1,0,69,0,1
181899,-100,4,1,0,68,0,0
198484,-100,4,1,0,35,0,0

[Colours]
Combo1 : 253,191,64
Combo2 : 0,128,255
Combo3 : 213,207,4

[HitObjects]
104,64,8757,1,0
464,64,9747,1,0
256,360,10737,1,0
256,40,11727,1,0
72,352,12717,1,0
432,352,13707,1,0
104,192,14697,1,0
464,176,15687,2,0,B|464:160|448:144|408:144|392:160|392:176,1,70
392,224,16182,2,0,B|392:240|408:256|448:256|464:240|464:224,1,70
160,136,17668,5,0
440,136,18658,1,0
184,256,19648,1,0
240,48,20638,1,0
376,296,21628,1,0
440,24,22618,1,0
256,192,23113,12,0,24103
168,128,24598,5,0
408,272,25588,1,0
128,272,26578,1,0
312,64,27569,1,0
448,304,28559,1,0
224,136,29549,1,0
48,144,30539,6,0,B|48:184|96:208|120:208|160:184|160:144,1,140
416,88,32024,1,8
192,256,33014,1,0
176,80,34004,1,8
392,256,34994,1,0
144,128,35984,1,8
136,264,36479,2,0,B|176:264|176:312|208:312|208:264|264:264,1,140,0|8
392,224,37470,2,0,B|456:96,1,140,0|8
392,224,38460,2,0,B|328:88,1,140
296,104,40440,5,0
160,104,40935,1,0
232,224,41430,1,0
232,88,41925,1,0
232,224,42420,2,0,B|288:224|288:224|288:264|360:264,1,140,0|8
440,160,43410,5,0
368,160,43658,1,0
304,128,43905,1,0
304,200,44153,1,0
216,280,44400,5,0
352,280,44895,1,0
280,160,45390,1,0
280,296,45885,1,0
280,160,46380,2,0,B|224:160|224:160|224:120|152:120,1,140,0|8
192,184,47123,1,0
224,120,47371,1,0
256,184,47618,5,0
296,120,47866,1,0
232,224,48361,2,0,B|288:224|288:224|288:264|360:264,1,140,0|8
280,224,49351,2,0,B|224:224|224:224|224:264|152:264,1,140,0|8
248,224,50341,2,0,B|248:80,1,140,8|0
40,64,51578,1,0
40,136,51826,1,0
112,136,52074,5,0
112,208,52321,1,0
184,208,52569,1,0
256,208,52816,1,0
328,208,53064,1,0
328,136,53311,1,0
400,136,53559,1,0
400,64,53806,1,0
256,192,54054,12,0,54796
112,80,55291,5,0
184,80,55539,1,0
152,144,55786,1,0
208,192,56034,1,0
248,136,56281,1,0
312,120,56529,1,0
352,176,56777,5,0
368,240,57024,1,0
328,296,57272,1,0
256,296,57519,1,0
192,264,57767,1,0
248,216,58014,2,2,B|272:208|288:184|256:120|224:112|176:128,1,140,2|10
400,80,59252,5,0
328,80,59500,1,0
360,144,59747,1,0
304,192,59995,1,0
264,136,60242,1,0
200,120,60490,1,0
160,176,60738,1,0
144,240,60985,5,0
184,296,61233,1,0
256,296,61480,1,0
320,264,61728,1,0
264,216,61975,2,2,B|240:208|224:184|256:120|288:112|336:128,1,140,2|10
112,304,63212,1,0
184,304,63460,1,0
152,240,63707,5,0
208,192,63955,1,0
248,248,64202,1,0
312,264,64450,1,0
352,208,64698,5,0
368,144,64945,1,0
328,88,65193,1,0
256,88,65440,1,0
192,120,65688,1,0
248,168,65935,2,2,B|272:176|288:200|256:264|224:272|176:256,1,140,2|10
400,304,67173,1,0
328,304,67421,1,0
360,240,67668,5,0
304,192,67916,1,0
264,248,68163,1,0
200,264,68411,1,0
160,208,68659,5,0
144,144,68906,1,0
184,88,69154,1,0
256,88,69401,1,0
320,120,69649,1,0
264,168,69896,2,2,B|240:176|224:200|256:264|288:272|336:256,1,140,2|10
256,192,70638,12,0,72123
40,40,73608,5,0
464,40,74103,1,0
464,344,75588,1,0
40,344,76083,1,0
104,80,80539,5,0
104,360,81529,1,0
328,192,82519,1,0
48,192,83509,1,0
304,80,84499,1,0
256,192,85489,12,8,87470
256,192,88460,5,0
472,192,89450,1,8
256,192,90440,1,0
40,192,91430,1,8
256,32,92420,1,0
256,336,93410,1,8
256,192,94400,1,0
144,192,95390,2,0,B|144:144|248:16|352:160|352:208,1,280,0|0
264,304,97371,6,0,B|448:216|264:104,1,280,0|2
200,112,98608,1,8
200,112,98856,2,0,B|16:200|200:312,1,280,0|2
312,232,100341,1,0
176,232,100836,1,0
248,112,101331,1,0
256,192,101826,12,0,102816
336,120,103806,5,0
216,192,104301,1,0
136,80,104796,1,0
264,24,105291,1,0
336,120,105786,2,0,L|336:168|336:168|288:168|288:240,1,140,0|8
72,160,106776,5,0
144,160,107024,1,0
208,128,107271,1,0
208,200,107519,1,0
336,288,107767,1,0
208,200,108262,1,0
120,304,108757,5,0
248,360,109252,1,0
336,288,109747,2,0,L|336:240|336:240|288:240|288:168,1,140,0|8
216,192,110489,1,0
216,264,110737,1,0
144,192,110984,5,0
144,264,111232,1,0
336,96,111727,2,0,L|336:144|336:144|288:144|288:216,1,140,0|8
224,192,112717,2,0,L|224:144|224:144|176:144|176:72,1,140,0|8
256,136,113707,2,0,L|256:280,1,140,8|0
120,112,114945,5,0
104,176,115192,1,0
112,248,115440,1,0
176,280,115687,1,0
248,296,115935,1,0
248,296,116182,5,0
320,280,116429,1,0
384,248,116677,1,0
384,176,116924,1,0
368,112,117172,1,0
296,112,117420,2,0,B|296:128|296:168|296:224|176:224|176:192|176:160|176:128|176:64,1,280
104,72,118658,5,0
176,72,118906,1,0
144,136,119153,1,0
176,200,119401,1,0
104,200,119648,1,0
144,256,119896,1,0
216,256,120144,5,0
264,208,120391,1,0
264,136,120639,1,0
216,88,120886,1,0
144,88,121134,1,0
144,160,121381,2,2,B|104:160|104:160|104:224|104:224|64:224,1,140,2|10
408,72,122618,5,0
336,72,122866,1,0
368,136,123113,1,0
336,200,123361,1,0
408,200,123608,1,0
368,256,123856,1,0
296,256,124104,5,0
248,208,124351,1,0
248,136,124599,1,0
296,88,124846,1,0
368,88,125094,1,0
368,160,125341,2,2,B|408:160|408:160|408:224|408:224|448:224,1,140,2|10
104,312,126578,5,0
176,312,126826,1,0
144,248,127073,1,0
176,184,127321,1,0
104,184,127568,1,0
144,128,127816,1,0
216,128,128064,5,0
264,176,128311,1,0
264,248,128559,1,0
216,296,128806,1,0
144,296,129054,1,0
144,224,129301,2,2,B|104:224|104:224|104:160|104:160|64:160,1,140,2|10
408,312,130539,5,0
336,312,130787,1,0
368,248,131034,1,0
336,184,131282,1,0
408,184,131529,1,0
368,128,131777,1,0
296,128,132025,5,0
248,176,132272,1,0
248,248,132520,1,0
296,296,132767,1,0
368,296,133015,1,0
368,224,133262,2,2,B|408:224|408:224|408:160|408:160|448:160,1,140,2|10
256,192,134004,12,0,134994
80,128,151331,5,0
80,200,151578,1,0
136,240,151826,1,0
192,200,152074,1,0
192,128,152321,1,0
264,128,152569,1,0
336,128,152816,1,0
336,200,153064,2,0,L|280:288|216:200,1,210
432,128,155291,5,0
432,200,155538,1,0
384,248,155786,1,0
328,200,156034,1,0
328,128,156281,1,0
256,128,156529,1,0
184,128,156776,1,0
184,200,157024,2,0,L|240:288|304:200,1,210
440,160,158262,5,0
368,160,158509,1,0
296,160,158757,1,0
224,160,159004,1,0
272,216,159252,5,0
272,144,159499,1,0
216,96,159747,1,0
160,144,159995,1,0
160,216,160242,1,0
88,216,160490,1,0
16,216,160737,1,0
16,144,160985,2,0,L|72:56|136:144,1,210
424,272,163212,5,0
424,200,163459,1,0
368,152,163707,1,0
312,200,163955,1,0
312,272,164202,1,0
240,272,164450,1,0
168,272,164697,1,0
168,216,165068,2,0,L|144:176|208:144|240:200,1,175
496,184,167204,5,0
360,184,167699,1,0
224,184,168194,1,0
360,184,168689,1,0
224,184,169184,2,0,L|280:184|328:184|328:232,1,140,0|8
256,336,170174,5,0
304,280,170422,1,0
256,336,170669,1,0
208,280,170917,1,0
144,248,171164,5,0
144,112,171659,1,0
264,184,172154,1,0
128,184,172649,1,0
264,184,173144,2,0,L|208:184|160:184|160:232,1,140,0|8
184,288,173887,5,0
256,288,174135,1,0
184,288,174382,1,0
256,288,174630,1,0
336,232,175125,2,0,L|336:200|336:136|288:136,1,140,0|8
176,232,176115,2,0,L|176:200|176:136|224:136,1,140,0|8
256,272,177105,2,0,L|256:128,1,140,8|0
392,112,178343,5,0
408,184,178590,1,0
400,256,178838,1,0
336,288,179085,1,0
264,296,179333,1,0
264,296,179580,5,0
192,288,179827,1,0
128,256,180075,1,0
120,184,180322,1,0
136,112,180570,1,0
208,112,180818,2,0,B|208:128|208:168|208:224|328:224|328:192|328:160|328:128|328:64,1,280
32,216,183046,5,0
104,216,183293,1,0
160,176,183541,1,0
160,248,183788,1,0
224,216,184036,1,0
296,216,184283,1,0
296,216,184531,1,0
368,232,184778,2,2,L|440:248|440:248|440:224|440:184|440:184|368:224,1,210,2|10
480,216,187006,5,0
408,216,187253,1,0
352,176,187501,1,0
352,248,187748,1,0
288,216,187996,1,0
216,216,188243,1,0
216,216,188491,1,0
144,232,188738,2,2,L|72:248|72:248|72:224|72:184|72:184|144:224,1,210,2|10
32,168,190966,5,0
104,168,191213,1,0
160,208,191461,1,0
160,136,191708,1,0
224,168,191956,1,0
296,168,192203,1,0
296,168,192451,1,0
368,152,192698,2,2,L|440:136|440:136|440:160|440:200|440:200|368:160,1,210,2|10
480,168,194927,5,0
408,168,195174,1,0
352,208,195422,1,0
352,136,195669,1,0
288,168,195917,1,0
216,168,196164,1,0
216,168,196412,1,0
144,152,196659,2,2,L|72:136|72:136|72:160|72:200|72:200|144:160,1,210,2|10
256,192,197773,12,0,198887
