osu file format v7

[General]
AudioFilename: Sean Kingston ft. Justin Bieber - Eenie Meenie.mp3
AudioLeadIn: 0
PreviewTime: -1
Countdown: 1
SampleSet: Normal
StackLeniency: 0.7
Mode: 0
LetterboxInBreaks: 1

[Editor]
DistanceSpacing: 1.20000004768372
BeatDivisor: 4
GridSize: 8

[Metadata]
Title:Eenie Meenie
Artist:Sean Kingston ft. Justin Bieber
Creator:kubzter
Version:Insane
Source:
Tags:

[Difficulty]
HPDrainRate:6
CircleSize:5
OverallDifficulty:7
SliderMultiplier:1.4
SliderTickRate:2

[Events]
//Background and Video events
0,0,"EenieMeenie[1].jpg"
//Break Periods
2,135566,142510
2,151634,165283
//Storyboard Layer 0 (Background)
//Storyboard Layer 1 (Fail)
//Storyboard Layer 2 (Pass)
//Storyboard Layer 3 (Foreground)
//Storyboard Sound Samples
//Background Colour Transformations
3,100,163,162,255

[TimingPoints]
8757.18871174692,495.049504950495,4,1,0,51,1,0
40391,-100,4,1,0,50,0,1
54821,-100,4,1,0,49,0,0
71009,-100,4,2,0,40,0,0
72370,-100,4,1,0,50,0,0
85489,-100,4,1,0,0,0,0
86851,-100,4,1,0,49,0,0
103764,-100,4,1,0,50,0,1
118514,-100,4,1,0,51,0,0
150341,230.414746543779,4,1,0,52,1,0
150917,-100,4,1,0,50,0,0
150974,-100,4,1,0,41,0,0
151032,-100,4,1,0,31,0,0
151089,-100,4,1,0,21,0,0
151147,-100,4,1,0,15,0,0
151205,-100,4,1,0,15,0,0
151262,-100,4,1,0,10,0,0
151320,-100,4,1,0,7,0,0
151377,-100,4,1,0,7,0,0
151435,-100,4,1,0,4,0,0
151493,-100,4,1,0,3,0,0
151550,-100,4,1,0,52,0,0
151578,495.049504950495,4,1,0,0,1,0
166058,-100,4,1,0,49,0,0
167203,-100,4,1,0,52,0,1
181899,-100,4,1,0,51,0,0

[Colours]
Combo1 : 253,191,64
Combo2 : 0,128,255
Combo3 : 213,207,4

[HitObjects]
392,80,8757,1,0
288,192,9252,1,0
184,80,9747,1,0
288,192,10242,1,0
400,296,10737,1,0
288,192,11232,1,0
184,304,11727,1,0
144,240,11975,1,0
224,240,12222,1,0
336,240,12717,1,0
248,112,13212,5,0
144,232,13707,1,0
296,232,14202,1,0
408,128,14697,1,0
480,264,15192,1,0
408,128,15687,2,0,B|320:128,4,70
408,208,16925,5,0
328,208,17173,2,0,B|272:208,6,35
104,264,18658,1,0
224,168,19153,1,0
304,296,19648,1,0
400,176,20143,1,0
280,80,20638,1,0
224,184,21133,1,0
112,184,21380,1,0
152,248,21628,5,0
232,248,21876,1,0
232,168,22123,1,0
384,168,22618,1,0
384,248,22866,2,0,B|344:184|311:114|288:184|256:256,1,210
104,248,24103,5,0
104,96,24598,1,4
256,96,25093,1,8
336,96,25341,1,0
416,96,25588,1,0
416,248,26083,5,8
352,200,26331,1,0
240,312,26826,1,8
184,256,27074,1,0
248,216,27321,1,4
176,80,27816,1,8
176,160,28064,1,4
288,56,28559,5,0
288,136,28806,1,0
288,216,29054,1,4
352,184,29301,1,0
352,264,29549,1,4
288,304,29796,1,0
224,264,30044,1,4
216,184,30291,1,0
288,136,30539,1,4
216,80,31529,5,0
296,80,31776,1,0
376,80,32024,1,0
376,160,32272,2,0,B|336:264|216:264|152:152,1,280,0|4
16,96,34004,5,8
96,96,34252,1,0
176,96,34499,1,0
256,96,34747,1,0
264,248,35242,1,0
320,200,35489,1,8
360,128,35737,1,0
216,72,36232,5,0
152,112,36479,1,0
152,192,36727,1,0
152,272,36975,1,0
216,312,37222,1,0
296,312,37470,5,0
360,272,37717,1,0
360,192,37965,1,0
360,112,38213,1,0
296,72,38460,1,0
256,224,38955,1,0
400,176,39450,5,0
400,96,39697,1,0
320,96,39945,1,0
240,96,40192,1,0
208,168,40440,2,0,B|208:248,1,70,0|8
264,184,40935,2,0,B|264:256,1,70,0|8
320,200,41430,2,0,B|320:280,1,70,0|8
376,216,41925,2,0,B|376:296,1,70,0|8
432,232,42420,2,0,B|432:320,1,70,0|8
240,176,43410,2,0,B|264:176|296:176|296:176,6,35,8|0|8|0|8|0|8
304,216,44400,6,0,B|304:296,1,70,0|8
256,224,44895,2,0,B|256:296,1,70,0|8
208,232,45390,2,0,B|208:312,1,70,0|8
152,248,45885,2,0,B|152:328,1,70,0|8
104,256,46380,2,0,B|104:344,1,70,0|8
128,176,47123,1,8
208,176,47371,1,0
288,176,47618,1,8
288,96,47866,1,8
368,96,48113,1,8
344,168,48361,6,0,B|344:88,1,70,0|8
296,160,48856,2,0,B|296:88,1,70,0|8
248,152,49351,2,0,B|248:72,1,70,0|8
200,144,49846,2,0,B|200:64,1,70,0|8
152,136,50341,2,0,B|152:48,1,70,0|8
88,264,51578,5,8
168,264,51826,1,0
248,264,52074,1,8
248,184,52321,1,0
328,184,52569,1,8
328,144,52692,1,0
328,104,52816,1,8
328,24,53064,1,0
248,24,53311,1,8
248,104,53559,1,0
168,104,53806,5,0
168,184,54054,1,0
88,184,54301,1,0
48,184,54425,1,0
48,224,54549,1,0
48,264,54673,1,0
48,304,54796,1,0
48,344,54920,1,0
88,344,55044,1,0
168,344,55291,5,0
248,344,55539,2,0,B|248:272,2,70
192,256,56281,2,0,B|192:208,2,35,8|0|8
192,168,56776,2,0,B|224:144,2,35,8|0|8
264,136,57272,2,0,B|304:136,2,35,8|0|8
336,152,57767,2,0,B|360:184,2,35,8|0|8
352,256,58262,2,0,B|352:216,2,35,8|0|8
272,256,58757,2,0,B|248:224|288:224|264:184,1,70,0|8
168,40,59252,5,0
248,40,59500,2,0,B|248:112,2,70
192,128,60242,2,0,B|192:176,2,35,8|0|8
192,216,60737,2,0,B|224:240,2,35,8|0|8
264,248,61233,2,0,B|304:248,2,35,8|0|8
336,232,61728,2,0,B|360:200,2,35,8|0|8
352,128,62223,2,0,B|352:168,2,35,8|0|8
272,128,62718,2,0,B|248:160|288:160|264:200,1,70,0|8
344,344,63212,5,0
264,344,63460,2,0,B|264:272,2,70
320,256,64202,2,0,B|320:208,2,35,8|0|8
320,168,64697,2,0,B|288:144,2,35,8|0|8
248,136,65193,2,0,B|208:136,2,35,8|0|8
176,152,65688,2,0,B|152:184,2,35,8|0|8
160,256,66183,2,0,B|160:216,2,35,8|0|8
240,256,66678,2,0,B|264:224|224:224|248:184,1,70,0|8
344,40,67173,5,0
264,40,67421,2,0,B|264:112,2,70
320,128,68163,2,0,B|320:176,2,35,8|0|8
320,216,68658,2,0,B|288:240,2,35,8|0|8
248,248,69154,2,0,B|208:248,2,35,8|0|8
176,232,69649,2,0,B|152:200,2,35,8|0|8
160,128,70144,2,0,B|160:168,2,35,8|0|8
240,128,70639,2,0,B|264:160|224:160|248:200,1,70,0|8
184,256,71133,5,0
224,256,71257,1,0
264,256,71380,1,0
304,256,71504,1,0
344,256,71628,1,0
384,256,71752,5,0
424,256,71876,1,0
464,256,71999,1,0
464,216,72123,1,0
464,176,72247,1,0
424,176,72371,6,0,B|392:184|376:160,8,35,8|0|8|0|8|0|8|0|8
352,144,73608,1,8
320,48,74103,1,0
320,216,74598,1,8
152,184,75093,1,0
112,256,75341,1,0
112,256,75588,2,0,B|224:248|144:136,1,140
232,8,76578,5,0
192,80,76826,1,8
224,160,77074,1,0
296,112,77321,1,8
376,136,77569,1,0
376,216,77816,1,0
504,320,78311,1,8
464,320,78435,5,0
424,320,78559,1,8
344,320,78806,1,4
272,280,79054,1,0
344,240,79301,1,0
272,280,79549,2,0,B|272:184|368:184,1,140,0|8
392,112,80291,5,0
392,200,80539,1,0
352,200,80663,1,0
312,200,80786,1,0
224,200,81034,1,0
144,200,81281,1,0
144,112,81529,2,0,B|144:32,1,70
144,40,82024,2,0,B|104:40,4,35,8|0|8|0|8
96,200,83014,5,0
96,288,83262,1,0
176,288,83509,1,12
344,288,84004,1,0
176,288,84499,1,0
240,232,84747,1,8
176,176,84994,1,0
232,112,85242,1,8
232,112,85489,2,0,B|304:112|304:112|232:160|232:160|296:160|296:160|296:160|336:160,2,245
144,112,87470,5,0
208,264,87965,1,4
328,144,88460,1,8
176,72,88955,1,4
152,240,89450,1,8
232,240,89697,1,0
240,72,90192,5,8
240,160,90440,1,0
320,160,90687,1,8
448,48,91182,1,0
360,48,91430,1,8
224,48,91925,5,0
224,128,92172,1,0
224,216,92420,1,4
152,176,92667,1,0
152,264,92915,1,4
224,304,93162,1,0
296,264,93410,1,4
296,184,93657,1,0
224,216,93905,2,0,B|200:192|304:176|304:168|200:136|224:120,1,140,0|4
392,136,94895,5,0
392,224,95143,1,8
320,176,95390,1,0
312,256,95638,1,12
240,216,95885,2,0,B|136:216|136:128,1,140,0|8
32,96,97371,5,0
112,96,97618,1,0
240,176,98113,1,8
184,224,98361,1,0
104,224,98608,1,8
128,296,98856,1,0
200,320,99103,1,0
312,320,99598,5,0
368,264,99845,1,0
368,184,100093,1,0
368,104,100341,1,0
304,64,100588,1,0
200,64,100836,5,0
144,120,101083,1,0
144,200,101331,1,0
144,280,101579,1,0
208,320,101826,1,0
256,208,102321,1,0
104,216,102816,5,0
104,296,103063,1,0
184,296,103311,1,0
264,296,103558,1,0
312,240,103806,2,0,B|408:240,1,70,0|8
312,192,104301,2,0,B|208:192,1,70,0|8
312,136,104796,2,0,B|400:136,1,70,0|8
312,80,105291,2,0,B|240:80,1,70,0|8
312,24,105786,2,0,B|400:24,1,70,0|8
312,240,106776,2,0,B|288:240|264:240|264:240,6,35,8|0|8|0|8|0|8
200,240,107767,6,0,B|104:240,1,70,0|8
200,192,108262,2,0,B|304:192,1,70,0|8
200,136,108757,2,0,B|112:136,1,70,0|8
200,80,109252,2,0,B|272:80,1,70,0|8
200,24,109747,2,0,B|112:24,1,70,0|8
368,224,110489,1,8
288,224,110737,1,0
208,224,110984,5,8
128,224,111232,1,0
168,160,111479,1,8
312,144,111727,2,0,B|408:144,1,70,0|8
312,192,112222,2,0,B|208:192,1,70,0|8
312,248,112717,2,0,B|400:248,1,70,0|8
312,304,113212,2,0,B|240:304,1,70,0|8
312,360,113707,2,0,B|400:360,1,70,0|8
424,120,114944,5,8
344,120,115192,1,0
264,120,115440,1,8
264,200,115687,1,0
184,208,115935,1,8
184,248,116058,1,0
184,288,116182,1,8
184,368,116430,1,0
264,368,116677,1,8
264,288,116925,1,0
344,288,117172,5,0
344,208,117420,1,0
424,208,117667,1,0
464,208,117791,1,0
464,168,117915,1,0
464,128,118039,1,0
464,88,118162,1,0
464,48,118286,1,0
424,48,118410,1,0
344,48,118657,5,0
264,48,118905,2,0,B|264:120,2,70
328,88,119648,2,0,B|376:88,2,35,8|0|8
256,136,120143,2,0,B|208:136,2,35,8|0|8
336,184,120639,2,0,B|400:184,2,35,8|0|8
256,232,121134,2,0,B|200:232,2,35
336,280,121628,2,0,B|392:280,2,35
328,200,122123,2,0,B|352:168|312:168|336:128,1,70
344,336,122618,5,0
264,336,122866,2,0,B|264:264,2,70
328,296,123609,2,0,B|376:296,2,35,8|0|8
256,248,124104,2,0,B|208:248,2,35,8|0|8
336,200,124600,2,0,B|400:200,2,35,8|0|8
256,152,125095,2,0,B|200:152,2,35
336,104,125589,2,0,B|392:104,2,35
328,184,126084,2,0,B|352:216|312:216|336:256,1,70
168,48,126578,5,0
248,48,126826,2,0,B|248:120,2,70
184,88,127569,2,0,B|136:88,2,35,8|0|8
256,136,128064,2,0,B|304:136,2,35,8|0|8
176,184,128560,2,0,B|112:184,2,35,8|0|8
256,232,129055,2,0,B|312:232,2,35
176,280,129549,2,0,B|120:280,2,35
184,200,130044,2,0,B|160:168|200:168|176:128,1,70
168,336,130539,5,0
248,336,130787,2,0,B|248:264,2,70
184,296,131530,2,0,B|136:296,2,35,8|0|8
256,248,132025,2,0,B|304:248,2,35,8|0|8
176,200,132521,2,0,B|112:200,2,35,8|0|8
256,152,133016,2,0,B|312:152,2,35
176,104,133510,2,0,B|120:104,2,35
184,184,134005,2,0,B|160:216|200:216|176:256,1,70
256,192,134499,12,0,135366
96,96,143410,5,0
184,80,143658,1,0
160,168,143905,1,0
232,224,144153,1,0
144,248,144400,1,0
216,304,144648,1,0
296,280,144895,1,0
368,216,145143,5,0
376,32,145638,1,8
312,96,145885,1,8
136,48,146380,1,0
216,96,146628,1,8
136,144,146876,1,0
200,312,147371,5,8
288,312,147618,1,0
240,232,147866,1,8
288,160,148113,1,0
200,160,148361,1,8
200,72,148608,1,0
288,72,148856,1,8
288,160,149103,5,0
200,160,149351,1,8
200,248,149598,1,0
288,248,149846,1,8
288,328,150093,1,0
200,328,150398,2,0,B|144:328,18,35
408,216,166183,5,0
408,296,166431,1,0
328,296,166679,1,0
248,296,166926,1,0
168,296,167174,2,0,B|168:224,1,70,0|8
56,104,167669,2,0,B|56:176,1,70,0|8
192,96,168164,2,0,B|192:16,1,70,0|8
296,104,168659,2,0,B|296:184,1,70,0|8
408,96,169154,2,0,B|408:24,1,70,0|8
416,256,170144,2,0,B|432:256|456:256|456:256,6,35,8|0|8|0|8|0|8
168,88,171132,6,0,B|168:160,1,70,0|8
56,280,171627,2,0,B|56:208,1,70,0|8
192,288,172122,2,0,B|192:368,1,70,0|8
312,200,172617,2,0,B|312:120,1,70,0|8
408,288,173112,2,0,B|408:360,1,70,0|8
272,288,173857,1,8
192,288,174105,1,0
112,288,174352,1,8
192,288,174600,1,0
152,352,174845,1,8
344,296,175092,6,0,B|344:224,1,70,0|8
456,104,175587,2,0,B|456:176,1,70,0|8
320,96,176082,2,0,B|320:16,1,70,0|8
200,184,176577,2,0,B|200:264,1,70,0|8
104,96,177072,2,0,B|104:24,1,70,0|8
88,120,178312,5,8
168,120,178560,1,0
248,120,178808,1,8
248,200,179055,1,0
328,208,179303,1,8
328,248,179426,1,0
328,288,179550,1,8
328,368,179798,1,0
248,368,180045,1,8
248,288,180293,1,0
168,288,180540,5,0
168,208,180788,1,0
88,208,181035,1,0
48,208,181159,1,0
48,168,181283,1,0
48,128,181407,1,0
48,88,181530,1,0
48,48,181654,1,0
88,48,181778,1,0
168,48,182023,5,0
248,48,182271,2,0,B|248:120,2,70
280,120,183013,1,8
320,120,183137,1,0
360,120,183260,1,8
400,120,183384,1,0
400,160,183508,5,8
400,200,183632,1,0
400,240,183755,1,8
400,280,183879,1,0
360,280,184003,5,8
320,280,184127,1,0
280,280,184250,1,8
240,280,184374,1,0
200,280,184498,5,8
200,240,184622,1,0
200,200,184745,1,8
200,160,184869,1,0
200,120,184993,1,8
240,120,185117,1,0
280,120,185241,1,8
280,200,185488,2,0,B|312:168|312:216|352:176,1,70,0|8
168,336,185983,5,0
248,336,186231,2,0,B|248:264,2,70
280,264,186973,1,8
320,264,187097,1,0
360,264,187220,1,8
400,264,187344,1,0
400,224,187468,5,8
400,184,187592,1,0
400,144,187715,1,8
400,104,187839,1,0
360,104,187963,5,8
320,104,188087,1,0
280,104,188210,1,8
240,104,188334,1,0
200,104,188458,5,8
200,144,188582,1,0
200,184,188705,1,8
200,224,188829,1,0
200,264,188953,1,8
240,264,189077,1,0
280,264,189201,1,8
280,184,189448,2,0,B|312:216|312:168|352:208,1,70,0|8
344,48,189944,5,0
264,48,190192,2,0,B|264:120,2,70
232,120,190934,1,8
192,120,191058,1,0
152,120,191181,1,8
112,120,191305,1,0
112,160,191429,5,8
112,200,191553,1,0
112,240,191676,1,8
112,280,191800,1,0
152,280,191924,5,8
192,280,192048,1,0
232,280,192171,1,8
272,280,192295,1,0
312,280,192419,5,8
312,240,192543,1,0
312,200,192666,1,8
312,160,192790,1,0
312,120,192914,1,8
272,120,193038,1,0
232,120,193162,1,8
232,200,193409,2,0,B|200:168|200:216|160:176,1,70,0|8
344,336,193904,5,0
264,336,194152,2,0,B|264:264,2,70
232,264,194894,1,8
192,264,195018,1,0
152,264,195141,1,8
112,264,195265,1,0
112,224,195389,5,8
112,184,195513,1,0
112,144,195636,1,8
112,104,195760,1,0
152,104,195884,5,8
192,104,196008,1,0
232,104,196131,1,8
272,104,196255,1,0
312,104,196379,5,8
312,144,196503,1,0
312,184,196626,1,8
312,224,196750,1,0
312,264,196874,1,8
272,264,196998,1,0
232,264,197122,1,8
232,184,197369,2,0,B|200:216|200:168|160:208,1,70,0|8
256,192,197865,12,0,198607
