osu file format v7

[General]
AudioFilename: Sean Kingston ft. Justin Bieber - Eenie Meenie.mp3
AudioLeadIn: 0
PreviewTime: -1
Countdown: 1
SampleSet: Normal
StackLeniency: 0.7
Mode: 0
LetterboxInBreaks: 1

[Editor]
DistanceSpacing: 1.29999995231628
BeatDivisor: 4
GridSize: 8

[Metadata]
Title:Eenie Meenie
Artist:Sean Kingston ft. Justin Bieber
Creator:kubzter
Version:Hard
Source:
Tags:

[Difficulty]
HPDrainRate:5
CircleSize:4
OverallDifficulty:6
SliderMultiplier:1.4
SliderTickRate:2

[Events]
//Background and Video events
0,0,"EenieMeenie[1].jpg"
//Break Periods
2,72323,75281
2,134204,150281
//Storyboard Layer 0 (Background)
//Storyboard Layer 1 (Fail)
//Storyboard Layer 2 (Pass)
//Storyboard Layer 3 (Foreground)
//Storyboard Sound Samples
//Background Colour Transformations
3,100,163,162,255

[TimingPoints]
8757.18871174692,495.049504950495,4,1,0,71,1,0
40391,-100,4,1,0,71,0,1
54821,-100,4,1,0,70,0,0
85489,-100,4,1,0,0,0,0
86851,-100,4,1,0,70,0,0
103764,-100,4,1,0,69,0,1
118514,-100,4,1,0,69,0,0
151138,-100,4,2,0,54,0,0
166554,-100,4,2,0,85,0,0
167203,-100,4,1,0,69,0,1
181470,-100,4,1,0,69,0,0

[Colours]
Combo1 : 253,191,64
Combo2 : 0,128,255
Combo3 : 213,207,4

[HitObjects]
88,88,8757,1,0
88,272,9252,1,0
248,176,9747,1,0
400,272,10242,1,0
400,88,10737,2,0,B|352:-24|312:96,1,140
288,264,11727,5,0
432,152,12222,1,0
296,32,12717,1,0
152,136,13212,1,0
176,320,13707,1,0
152,136,14202,1,0
288,256,14697,1,0
264,72,15192,1,0
320,216,15687,6,0,B|152:216,2,140
160,64,17173,1,0
344,64,17668,1,0
256,224,18163,1,0
256,40,18658,1,0
408,136,19153,1,0
224,136,19648,1,0
40,136,20143,1,0
184,240,20638,5,0
280,88,21133,1,0
96,88,21628,1,0
256,176,22123,1,0
440,176,22618,1,0
320,312,23113,1,0
384,144,23608,1,0
296,112,23856,5,0
296,200,24103,1,0
120,152,24598,1,4
288,216,25093,1,8
288,296,25341,1,0
496,176,26083,1,8
408,176,26331,1,0
392,16,26826,5,0
304,40,27074,1,0
216,72,27321,1,0
40,120,27816,1,0
128,96,28064,1,12
88,248,28559,5,0
168,248,28806,1,0
168,168,29054,1,12
248,168,29301,1,0
248,88,29549,1,0
312,128,29796,1,8
312,208,30044,1,8
248,248,30291,1,8
320,280,30539,1,4
464,184,31529,5,0
416,120,31776,1,0
384,200,32024,1,8
296,200,32272,2,0,B|312:288|256:352|160:288,1,210,0|8
424,200,34004,5,0
344,200,34252,1,8
344,48,34747,1,0
344,48,35242,2,0,B|344:152,1,70
344,112,35737,1,0
192,120,36232,1,8
192,208,36479,1,0
104,208,36727,5,0
152,288,36975,1,0
240,288,37222,1,0
296,216,37470,1,8
256,136,37717,1,8
168,136,37965,1,4
104,208,38212,1,8
192,208,38460,1,4
208,96,40440,5,8
208,248,40935,1,0
400,168,41430,1,8
192,176,41925,1,0
192,176,42420,2,0,B|128:80|80:192,1,140,8|0
32,376,43410,1,0
128,328,43658,1,0
224,280,43905,1,0
184,184,44153,1,0
288,184,44400,6,0,B|288:280,3,70,8|0|8|0
360,248,45390,2,0,B|416:248,8,35,8|0|8|0|8|0|8|0|8
400,152,46628,2,0,B|312:152,1,70,0|8
120,152,47371,2,0,B|88:168|120:208,6,35,8|0|8|0|8|0|8
216,104,48361,1,0
216,208,48608,1,8
320,208,48856,1,0
424,208,49103,1,0
368,120,49351,1,8
264,120,49598,5,0
208,208,49846,1,0
360,352,50341,1,0
360,248,50588,2,0,B|312:232|272:280,1,70,0|8
56,48,51578,5,0
120,136,51826,1,0
176,48,52074,1,8
240,128,52321,1,0
240,336,52816,1,0
448,328,53311,1,8
368,264,53559,1,0
368,160,53806,1,0
368,56,54054,2,0,B|264:16|208:88|224:168,1,210,8|0
112,40,55291,5,0
72,104,55539,1,0
152,104,55786,1,0
112,168,56034,1,0
120,248,56281,2,0,B|120:304,2,35,8|0|8
120,248,56776,2,0,B|184:248,2,35,8|0|8
120,248,57272,2,0,B|80:248,8,35,8|0|8|0|8|0|8|0|8
120,168,58509,2,0,B|120:96,1,70,0|8
400,344,59252,5,0
440,280,59500,1,0
360,280,59747,1,0
400,216,59995,1,0
408,136,60242,2,0,B|408:80,2,35,8|0|8
408,136,60737,2,0,B|344:136,2,35,0|0|8
408,136,61232,2,0,B|448:136,8,35,8|0|8|0|8|0|8|0|8
408,216,62470,2,0,B|408:288,1,70,0|8
112,344,63212,5,0
72,280,63460,1,0
152,280,63707,1,0
112,216,63955,1,0
120,136,64202,2,0,B|120:80,2,35,8|0|8
120,136,64697,2,0,B|184:136,2,35,8|0|8
120,136,65193,2,0,B|80:136,8,35,8|0|8|0|8|0|8|0|8
120,216,66430,2,0,B|120:288,1,70,0|8
400,40,67173,5,0
440,104,67421,1,0
360,104,67668,1,0
400,168,67916,1,0
408,248,68163,2,0,B|408:304,2,35,8|0|8
408,248,68658,2,0,B|344:248,2,35,8|0|8
408,248,69154,2,0,B|448:248,8,35,8|0|8|0|8|0|8|0|8
440,176,70391,2,0,B|440:104,1,70,0|8
256,192,71133,12,0,72123
80,80,76331,5,0
80,160,76578,1,8
144,112,76826,1,0
152,192,77074,1,8
216,152,77321,1,0
224,232,77569,1,8
288,192,77816,1,0
328,40,78311,5,0
248,40,78559,1,8
176,40,78806,1,0
176,120,79054,1,0
216,120,79177,1,0
256,120,79301,1,0
336,120,79549,1,8
256,336,80291,5,0
256,256,80539,1,8
256,176,80786,1,0
256,96,81034,1,0
256,176,81281,1,0
256,96,81529,2,0,B|192:32|136:104,1,140,8|0
264,16,82519,5,8
416,16,83014,1,0
416,96,83262,1,0
336,96,83509,1,8
184,96,84004,2,0,B|112:176|224:176|144:96,1,140,0|8
56,96,84994,1,0
56,176,85242,1,0
136,176,85489,1,0
256,192,85737,12,12,87470
144,104,87965,5,0
144,312,88460,1,0
320,192,88955,1,0
112,192,89450,1,8
216,192,89697,1,0
344,24,90192,1,0
240,24,90440,2,0,B|144:96|288:128|144:192,1,210,8|0
40,80,91925,5,0
120,240,92420,1,0
176,168,92668,1,0
264,168,92915,1,0
312,240,93163,1,0
224,240,93410,1,8
224,240,93658,2,0,B|224:80|136:128|104:176,1,210
8,168,94895,5,0
56,248,95143,1,0
104,176,95390,1,0
168,240,95638,2,0,B|168:320|272:352|368:320|376:216,1,280
128,128,97371,1,0
216,128,97618,1,0
216,48,98113,1,0
32,48,98608,1,0
152,184,99103,2,0,B|152:256|216:256|216:224|216:152,1,140
288,128,99846,5,0
368,176,100093,1,0
288,224,100341,1,0
208,184,100588,1,0
128,216,100836,1,0
200,264,101083,5,0
360,176,101331,1,0
360,264,101578,1,0
360,176,101826,1,0
424,112,102074,1,0
360,48,102321,1,0
184,88,102816,5,0
216,176,103064,1,0
304,176,103311,1,0
256,192,103806,12,8,104301
256,192,104796,12,8,105291
256,192,105786,12,8,106281
216,184,106776,5,8
296,184,107024,1,0
216,184,107272,1,8
296,184,107519,1,0
256,192,107767,12,8,108262
256,192,108757,12,8,109252
256,192,109747,12,8,110242
256,240,110489,5,8
256,152,110737,1,0
256,240,110984,1,8
336,192,111232,1,0
256,152,111479,1,8
256,192,111727,12,8,112222
256,192,112717,12,8,113212
256,192,113707,12,8,114202
184,104,114945,6,0,B|208:144|264:128,3,70
320,136,115935,2,0,B|320:176,6,35
168,136,116925,1,0
328,136,117173,1,0
248,136,117420,1,0
248,216,117668,1,0
208,216,117791,1,0
168,216,117915,5,0
128,216,118039,1,0
88,216,118163,1,0
48,216,118286,1,0
136,288,118658,5,0
216,288,118905,1,0
192,216,119153,1,0
264,192,119400,1,0
336,176,119648,2,0,B|360:232,2,35,8|0|8
336,176,120143,2,0,B|384:160,2,35,8|0|8
336,176,120638,2,0,B|320:136,8,35,8|0|8|0|8|0|8|0|8
256,168,121876,2,0,B|184:168,1,70,0|8
376,96,122618,5,0
296,96,122865,1,0
320,168,123113,1,0
248,192,123360,1,0
176,208,123608,2,0,B|152:152,2,35,8|0|8
176,208,124103,2,0,B|128:224,2,35,8|0|8
176,208,124598,2,8,B|192:248,8,35,8|0|8|0|8|0|8|0|8
256,216,125836,2,0,B|328:216,1,70,0|8
136,96,126578,5,0
216,96,126825,1,0
192,168,127073,1,0
264,192,127320,1,0
336,208,127568,2,0,B|360:152,2,35,8|0|8
336,208,128063,2,0,B|384:224,2,35,8|0|8
336,208,128558,2,0,B|320:248,8,35,8|0|8|0|8|0|8|0|8
256,216,129796,2,0,B|184:216,1,70,0|8
376,288,130539,5,0
296,288,130786,1,0
320,216,131034,1,0
248,192,131281,1,0
176,176,131529,2,0,B|152:232,2,35,8|0|8
176,176,132024,2,0,B|128:160,2,35,8|0|8
176,176,132519,2,0,B|192:136,8,35,8|0|8|0|8|0|8|0|8
256,168,133757,2,0,B|328:168,1,70,0|8
448,40,151331,5,2
448,120,151578,1,2
288,120,151826,1,2
368,120,152074,1,2
368,200,152321,1,2
280,200,152569,1,2
280,280,152816,1,2
200,200,153064,1,2
368,200,153559,1,2
64,344,154301,5,2
64,264,154548,1,2
224,264,154796,1,2
144,264,155044,1,2
144,184,155291,1,2
232,184,155539,1,2
232,104,155786,1,2
312,184,156034,1,2
144,184,156281,1,2
232,184,156529,1,2
232,272,156776,5,0
320,272,157024,2,2,B|392:184|392:184|280:184,1,210
448,344,158262,5,2
448,264,158509,1,2
288,264,158757,1,2
368,264,159005,1,2
368,184,159252,1,6
280,184,159500,1,2
280,104,159747,1,2
200,184,159995,1,2
368,184,160242,1,2
280,184,160490,1,2
280,272,160737,5,0
192,272,160985,2,2,B|120:184|120:184|232:184,1,210
328,40,162222,1,2
336,128,162470,1,2
256,96,162717,1,2
264,184,162965,1,2
344,224,163212,2,2,C|344:264,2,35
264,272,163707,2,2,C|264:312,2,35
184,224,164202,2,2,C|184:264,2,35
208,136,164697,2,0,B|208:104|208:24|320:24|456:24|456:152|456:272|328:272|208:272|208:192|208:160,1,560,0|4
256,184,167173,6,0,B|256:16|256:16,1,140,0|8
256,184,168163,2,0,B|368:312|368:312,1,140,0|8
256,184,169153,2,0,B|152:296|152:296,1,140,0|8
200,256,170143,1,0
256,200,170390,1,8
304,256,170638,1,0
256,200,170885,1,8
256,200,171133,6,0,B|256:368|256:368,1,140,0|8
256,200,172123,2,0,B|368:72|368:72,1,140,0|8
256,200,173113,2,0,B|152:88|152:88,1,140,0|8
208,232,173856,1,0
184,152,174103,1,8
256,80,174351,1,0
328,144,174598,1,8
304,232,174846,1,0
256,184,175093,6,0,B|256:16|256:16,1,140,0|8
256,184,176083,2,0,B|144:312|144:312,1,140,0|8
256,184,177073,2,0,B|360:296|360:296,1,140,0|8
192,320,178311,1,0
192,240,178559,1,8
224,168,178806,1,0
320,320,179301,1,0
320,240,179549,1,8
288,168,179796,1,0
256,248,180044,5,8
256,328,180291,1,0
320,192,180539,1,8
192,192,180786,1,0
256,248,181034,1,8
488,24,182024,5,0
392,24,182272,1,0
392,120,182519,1,0
296,120,182767,1,0
200,120,183014,2,0,B|152:120,2,35,8|0|8
208,200,183509,2,0,B|272:200,2,35,8|0|8
200,280,184004,2,0,B|144:280,8,35,8|0|8|0|8|0|8|0|8
160,208,185242,2,0,B|160:120,1,70,0|8
24,24,185984,5,0
120,24,186232,1,0
120,120,186479,1,0
216,120,186727,1,0
312,120,186975,2,0,B|360:120,2,35,8|0|8
304,200,187470,2,0,B|240:200,2,35,8|0|8
312,280,187965,2,0,B|368:280,8,35,8|0|8|0|8|0|8|0|8
352,208,189202,2,0,B|352:120,1,70,0|8
488,360,189945,5,0
392,360,190192,1,0
392,264,190440,1,0
296,264,190687,1,0
200,264,190935,2,0,B|152:264,2,35,8|0|8
208,184,191430,2,0,B|272:184,2,35,8|0|8
208,104,191925,2,0,B|160:104,8,35,8|0|8|0|8|0|8|0|8
168,168,193163,2,0,B|168:256,1,70,0|8
24,360,193905,5,0
120,360,194153,1,0
120,264,194400,1,0
216,264,194648,1,0
312,264,194895,2,0,B|360:264,2,35,8|0|8
304,184,195390,2,0,B|240:184,2,35,8|0|8
312,104,195885,2,0,B|360:104,8,35,8|0|8|0|8|0|8|0|8
352,176,197123,2,0,B|352:264,1,70
256,192,197866,12,0,198856
