osu file format v7

[General]
AudioFilename: Sean Kingston ft. Justin Bieber - Eenie Meenie.mp3
AudioLeadIn: 0
PreviewTime: -1
Countdown: 1
SampleSet: Normal
StackLeniency: 0.7
Mode: 0
LetterboxInBreaks: 1

[Editor]
DistanceSpacing: 1.29999995231628
BeatDivisor: 4
GridSize: 8

[Metadata]
Title:Eenie Meenie
Artist:Sean Kingston ft. Justin Bieber
Creator:kubzter
Version:Easy
Source:
Tags:

[Difficulty]
HPDrainRate:2
CircleSize:3
OverallDifficulty:3
SliderMultiplier:1.4
SliderTickRate:1

[Events]
//Background and Video events
0,0,"EenieMeenie[1].jpg"
//Break Periods
2,72323,75138
2,135442,149891
//Storyboard Layer 0 (Background)
//Storyboard Layer 1 (Fail)
//Storyboard Layer 2 (Pass)
//Storyboard Layer 3 (Foreground)
//Storyboard Sound Samples
//Background Colour Transformations
3,100,163,162,255

[TimingPoints]
8757.18871174692,990.09900990099,4,1,0,70,1,0
40391,-100,4,1,0,70,0,1
55539,-100,4,1,0,68,0,0
81281,-100,4,1,0,36,0,0
82272,-100,4,1,0,71,0,0
85366,-100,4,2,0,27,0,0
87346,-100,4,1,0,70,0,0
103672,-100,4,1,0,70,0,1
118891,-100,4,1,0,70,0,0
151207,-100,4,2,0,71,0,0
159128,-100,4,2,0,42,0,0
159376,-100,4,2,0,51,0,0
165069,-100,4,2,0,21,0,0
165316,-100,4,2,0,41,0,0
165564,-100,4,2,0,49,0,0
165811,-100,4,2,0,49,0,0
166182,-100,4,1,0,69,0,0
167203,-100,4,1,0,69,0,1
181899,-100,4,1,0,68,0,0
198484,-100,4,1,0,35,0,0

[Colours]
Combo1 : 253,191,64
Combo2 : 0,128,255
Combo3 : 213,207,4

[HitObjects]
88,88,8757,1,0
256,88,10737,1,0
424,88,12717,1,0
256,192,14697,1,0
256,192,15687,2,0,C|200:192,1,35
216,120,16182,2,0,C|264:120,1,35
408,288,17668,5,0
256,192,18658,1,0
112,288,19648,1,0
112,96,20638,1,0
304,96,21628,1,0
496,96,22618,1,0
320,176,23608,1,0
128,176,24598,5,0
320,80,26578,1,0
120,80,27569,1,0
256,216,28559,1,0
352,216,29549,2,0,B|448:280|328:328|456:328|328:280|440:208,1,210,8|8
256,24,32024,5,0
256,216,33014,1,0
128,112,34004,1,8
368,112,34994,1,8
184,200,35984,1,8
320,48,36975,1,8
320,200,37964,1,8
184,48,38955,1,0
48,264,40440,6,0,C|48:344,4,70
152,264,43410,1,0
232,264,43905,1,0
328,264,44400,6,0,C|328:184,4,70
232,120,47371,1,0
152,120,47866,1,0
152,216,48361,2,0,C|72:216,4,70
312,144,52321,5,0
256,80,52816,1,0
200,144,53311,1,0
256,208,53806,1,0
256,144,54301,2,0,L|256:224,1,70
448,192,56281,5,0
368,136,56776,1,0
272,104,57272,1,0
176,136,57767,1,0
112,200,58262,2,0,B|112:232|120:240|160:240|168:232|168:200,1,70,2|10
448,192,60242,5,0
368,248,60737,1,0
272,280,61233,1,0
176,248,61728,1,0
128,168,62222,2,0,B|128:136|136:128|176:128|184:136|184:168,1,70,2|10
64,192,64202,5,0
144,136,64697,1,0
240,104,65193,1,0
336,136,65688,1,0
384,216,66182,2,0,B|384:248|376:256|336:256|328:248|328:216,1,70,2|10
64,192,68163,5,0
144,248,68658,1,0
240,280,69154,1,0
336,248,69649,1,0
376,168,70143,2,0,B|376:136|368:128|328:128|320:136|320:168,1,70,2|10
256,192,71009,12,0,72123
88,72,76578,5,0
184,72,77074,1,0
88,168,77569,1,8
232,168,78064,2,0,B|232:208,2,35,0|0|8
328,168,79054,2,8,L|328:192|352:192|352:216|376:216,1,70,0|0
416,152,80539,5,8
320,128,81034,1,0
232,128,81529,2,0,L|232:168|192:200,1,70,8|0
208,272,82519,1,8
208,184,83014,1,0
296,184,83509,1,0
136,104,84499,1,0
224,104,84994,1,0
312,104,85489,2,0,L|344:104|344:168|248:168|248:232|280:232,1,280,8|4
200,144,88460,6,0,B|176:144|152:128|176:112|200:112,1,70,8|0
312,144,89450,2,0,B|336:144|360:128|336:112|312:112,1,70
304,256,90440,2,0,B|304:280|288:304|272:280|272:256,1,70,8|0
264,112,91430,2,0,B|264:88|248:64|232:88|232:112,1,70,8|0
216,256,92420,2,0,B|216:280|200:304|184:280|184:256,2,70,0|0|8
216,256,93905,2,0,B|216:288|216:312|304:312|304:288|304:240,1,140
224,80,95390,2,0,B|224:56|240:32|256:56|256:80,1,70
256,80,96380,6,0,B|256:56|272:32|288:56|288:80,1,70
208,120,97371,2,0,L|208:160|256:160|256:200,1,105,8|0
304,184,98361,2,0,L|304:200|352:200|352:264,1,105,8|0
288,80,99846,1,0
192,80,100341,1,0
240,160,100836,1,0
240,160,101331,1,0
256,192,101826,12,0,102816
464,264,103806,6,0,C|464:344,4,70
360,264,106776,1,0
280,264,107271,1,0
184,264,107767,2,0,C|184:184,4,70
288,112,110737,1,0
376,112,111232,1,0
480,112,111727,6,0,C|480:192,4,70
200,144,115687,5,0
256,80,116182,1,0
312,144,116677,1,0
256,208,117172,1,0
256,136,117668,2,0,L|256:56,1,70
88,184,119648,5,0
176,272,120143,1,0
176,184,120638,1,0
80,272,121133,1,0
176,272,121628,2,2,C|160:248|184:232|160:200,1,70,2|10
424,184,123608,5,0
336,272,124103,1,0
336,184,124598,1,0
432,272,125093,1,0
336,272,125588,2,2,C|352:248|328:232|352:200,1,70,2|10
88,200,127569,5,0
176,112,128064,1,0
176,200,128559,1,0
80,112,129054,1,0
176,112,129549,2,2,C|160:136|184:152|160:184,1,70,2|10
424,200,131529,5,0
336,112,132024,1,0
336,200,132519,1,0
432,112,133014,1,0
336,112,133509,2,2,C|352:136|328:152|352:184,1,70,2|10
256,192,134252,12,0,135242
200,184,151331,5,0
104,184,151825,1,0
144,264,152320,1,0
232,264,152815,1,0
320,264,153310,2,0,C|320:288|344:288|344:264|320:264,1,70
312,184,155291,5,0
408,184,155795,1,0
360,272,156290,1,0
264,272,156785,1,0
168,272,157272,2,0,C|168:296|144:296|144:272|168:272,1,70
200,200,159252,5,4
104,200,159756,1,0
152,112,160251,1,0
248,112,160746,1,0
344,112,161232,2,0,C|344:88|368:88|368:112|344:112,1,70
200,184,163211,5,0
104,184,163716,1,0
152,272,164211,1,0
248,272,164706,1,0
336,272,165192,2,0,L|344:256|336:256|336:248|344:248|344:240|336:240|336:232|344:232|344:224|336:224|336:216|344:216|344:208|336:208|336:200|344:200|344:192|336:192|336:184|344:184|344:176|336:176|336:168|344:168|344:160|336:160|336:152|344:152,1,210
384,88,167173,6,0,L|368:72|352:56,1,35
360,64,167668,2,0,L|344:80|328:96,1,35
336,88,168163,2,0,L|320:72|304:56,1,35
312,64,168658,2,0,L|296:80|280:96,1,35
288,88,169153,2,0,L|272:72|256:56,1,35
168,160,170142,2,0,B|144:160|136:168|136:192|144:200|168:200,1,70
160,288,171133,6,0,L|176:304|192:320,1,35
184,312,171628,2,0,L|200:296|216:280,1,35
208,288,172123,2,0,L|224:304|240:320,1,35
232,312,172618,2,0,L|248:296|264:280,1,35
256,288,173113,2,0,L|272:304|288:320,1,35
360,264,174103,2,0,B|384:264|392:256|392:232|384:224|360:224,1,70
360,136,175093,6,0,L|376:120|392:104,1,35
432,96,175588,2,0,L|448:112|464:128,1,35
456,168,176083,2,0,L|440:184|416:208,1,35
384,192,176578,2,0,L|368:176|352:160,1,35
312,160,177073,2,0,L|280:160|256:160,1,35
488,48,178558,5,0
440,128,179053,1,0
360,192,179548,1,0
264,200,180043,1,0
192,128,180538,1,0
264,200,181033,2,0,L|264:176|304:176|328:176,1,70
0,104,183013,5,0
80,160,183508,1,0
136,80,184003,1,0
184,160,184498,1,0
184,248,184993,2,2,L|184:296|240:296,1,70,2|10
512,104,186974,5,0
432,160,187469,1,0
376,80,187964,1,0
328,160,188459,1,0
328,248,188955,2,2,L|328:296|272:296,1,70,2|10
0,280,190934,5,0
80,224,191429,1,0
136,304,191924,1,0
184,224,192419,1,0
184,136,192915,2,2,L|184:88|240:88,1,70,2|10
512,280,194894,5,0
432,224,195389,1,0
376,304,195884,1,0
328,224,196379,1,0
328,136,196876,2,2,L|328:88|272:88,1,70,2|10
256,192,197618,12,0,198608
