osu file format v7

[General]
AudioFilename: Beautiful Girls.mp3
AudioLeadIn: 0
PreviewTime: 33220
Countdown: 1
SampleSet: Soft
StackLeniency: 0.7
Mode: 0
LetterboxInBreaks: 1

[Editor]
DistanceSpacing: 1
BeatDivisor: 4
GridSize: 8

[Metadata]
Title:Beautiful Girls
Artist:Sean Kingston
Creator:ztrot
Version:Hard
Source:
Tags:Rap R&B Agent Spin Here

[Difficulty]
HPDrainRate:7
CircleSize:4
OverallDifficulty:6
SliderMultiplier:1.7
SliderTickRate:1

[Events]
//Background and Video events
0,0,"sean-kingston.jpg"
//Break Periods
2,90704,104706
2,164617,178609
//Storyboard Layer 0 (Background)
//Storyboard Layer 1 (Fail)
//Storyboard Layer 2 (Pass)
//Storyboard Layer 3 (Foreground)
//Storyboard Sound Samples
//Background Colour Transformations
3,100,163,162,255

[TimingPoints]
18439.8239222768,461.89376443418,4,2,1,50,1,0
35077,461.89376443418,4,2,1,50,1,0
105295,461.89376443418,4,2,1,50,1,0
188309,-100,4,2,1,0,0,0
194190,-100,4,2,1,50,0,0
195862,461.89376443418,4,2,1,50,1,0
210616,461.89376443418,4,2,1,50,1,0
237723,-100,4,2,1,0,0,0
238214,-100,4,2,1,50,0,0
245452,461.89376443418,4,2,1,50,1,0
245682,461.89376443418,4,2,1,50,1,0
251359,-100,4,2,1,0,0,0

[Colours]
Combo1 : 198,99,0
Combo2 : 119,0,0

[HitObjects]
40,192,18439,2,0,B|40:288|112:368|216:368,1,255,4|0
256,112,19825,1,0
200,48,20056,1,0
312,48,20287,2,0,B|393:46|465:126|465:222,1,255,4|0
64,72,21673,5,0
64,160,21904,1,0
144,192,22134,2,0,B|128:344|256:368|304:320,1,255,4|0
448,72,23520,5,0
448,160,23751,1,0
368,192,23982,2,0,B|384:344|256:368|208:320,1,255,4|0
256,40,25368,5,0
256,128,25599,1,0
184,88,25830,2,0,B|80:88|80:208,1,170,4|8
160,224,26522,2,0,B|96:224|96:280|96:336|160:336|168:336,1,170
256,336,27215,5,0
256,248,27446,1,0
328,296,27677,2,0,B|432:296|432:176,1,170,4|8
352,160,28370,2,0,B|416:160|416:104|416:48|352:48|344:48,1,170
256,48,29063,5,0
192,104,29294,1,0
128,48,29525,1,2
256,352,29987,1,8
384,48,30449,2,2,B|304:48|304:128|304:192|384:192|456:192|456:128|456:48|384:48,1,340
48,344,31834,5,2
256,24,32296,1,2
464,344,32758,1,2
464,88,33220,6,0,B|360:88|360:216,1,170,4|8
360,197,33913,1,8
256,64,34375,1,0
256,152,34606,1,8
48,88,35077,6,0,B|152:88|152:216,1,170,4|8
151,197,35769,1,8
256,64,36231,1,0
256,152,36462,1,8
320,208,36693,1,0
256,264,36924,6,0,B|160:304|88:216,1,170,4|8
80,312,37617,1,8
160,344,37848,2,0,B|248:376|328:312,1,170,0|8
400,280,38541,1,0
400,192,38772,1,4
256,24,39234,5,8
256,24,39464,1,8
192,80,39695,2,0,B|248:160|360:144,1,170,0|8
256,24,40388,1,0
320,80,40619,6,0,B|264:160|152:144,1,170,4|8
96,192,41312,2,0,B|32:192|32:248|32:304|96:304|104:304,1,170
152,240,42005,1,8
152,152,42236,1,0
192,80,42467,6,0,B|248:160|360:144,1,170,4|8
416,192,43160,2,0,B|480:192|480:248|480:304|416:304|408:304,1,170
336,288,43852,5,8
256,248,44083,1,0
176,288,44314,1,4
256,40,44776,5,8
256,40,45007,1,8
256,128,45238,2,2,B|176:128|176:208|176:272|256:272|328:272|328:208|328:128|256:128,1,340
48,344,47548,5,0
88,272,47779,1,0
160,320,48010,2,0,B|256:344|336:296,1,170,4|8
400,344,48702,1,8
464,40,49395,5,8
424,112,49626,1,0
352,64,49857,2,0,B|256:40|176:88,1,170,4|8
112,40,50550,1,8
88,120,50781,1,0
256,152,51243,6,0,B|352:128|408:216,1,170,8|0
256,240,52167,1,8
256,240,52398,1,0
256,328,52628,2,0,B|160:352|104:264,1,170,0|8
48,208,53321,5,0
48,208,53552,2,0,B|48:96|160:96,1,170,4|8
128,184,54245,1,8
256,296,54707,5,0
256,208,54938,1,8
328,248,55169,1,0
328,248,55400,2,0,B|432:248|432:136,1,170,4|8
432,144,56093,1,8
256,96,56555,5,0
192,152,56786,1,8
256,208,57016,1,0
192,152,57247,2,0,B|88:152|88:264,1,170,4|8
88,256,57940,1,8
256,344,58402,5,0
304,272,58633,1,8
360,336,58864,1,0
416,272,59095,2,0,B|440:176|352:120,1,170,4|8
358,124,59788,1,8
304,64,60019,6,0,B|224:128|136:88,1,170,0|8
64,64,60712,2,0,B|16:96|48:152,1,85,4|0
128,288,61404,5,8
128,288,61635,1,8
216,296,61866,1,8
296,256,62097,1,8
368,312,62328,5,0
432,256,62559,1,0
472,176,62790,2,0,B|488:72|376:40,1,170,4|8
304,48,63483,1,8
144,312,64176,5,8
80,256,64407,1,0
40,176,64638,2,0,B|24:72|136:40,1,170,4|8
208,48,65331,1,8
176,216,65792,5,0
256,232,66023,1,8
336,216,66254,1,0
256,136,66485,6,0,B|336:88|432:152,1,170,4|8
416,144,67178,1,8
296,24,67640,1,0
216,24,67871,1,8
160,88,68102,5,0
88,136,68333,1,4
88,224,68564,1,0
88,224,68795,1,8
160,272,69026,1,8
232,224,69257,2,0,B|280:192|336:248|304:320|224:320|240:320,1,170,0|8
160,272,69949,1,0
160,184,70180,6,0,B|160:88|248:40,1,170,4|8
320,88,70873,2,0,B|239:131|239:227,1,170,8|0
328,224,71566,1,8
400,176,71797,1,0
408,264,72028,2,0,B|344:352|240:328,1,170,4|8
408,344,72721,2,0,B|336:264|240:264,1,170,8|0
184,296,73414,5,8
104,272,73645,1,0
80,192,73876,2,0,B|120:96|224:88,1,170,4|8
256,160,74568,1,8
328,296,75261,5,8
408,272,75492,1,0
432,192,75723,2,0,B|392:96|288:88,1,170,4|8
256,160,76416,1,8
72,336,77109,5,0
56,248,77340,1,0
136,216,77571,2,0,B|240:320,2,127.5,4|0|4
256,192,78495,1,4
440,336,78956,5,0
456,248,79187,1,0
376,216,79418,2,0,B|272:320,2,127.5,4|0|4
256,192,80342,1,4
312,32,80804,5,0
200,32,81035,1,0
216,112,81266,2,0,B|244:88|244:88|256:64|256:64|267:88|267:88|296:115,2,127.5,4|0|4
256,184,82190,1,4
48,336,82883,5,0
72,256,83113,1,4
160,272,83344,1,0
136,192,83575,1,8
216,208,83806,1,8
240,288,84037,1,0
448,96,84499,6,0,B|392:16|288:32,2,170,12|0|8
448,184,85654,1,8
256,352,86347,5,8
208,280,86578,1,4
304,280,86809,1,4
256,120,87270,1,8
256,120,87501,1,8
184,160,87732,5,0
256,208,87963,1,0
328,160,88194,1,8
256,192,88656,12,0,90504
464,40,105756,5,2
256,360,106218,1,2
48,40,106680,1,2
48,296,107142,6,0,B|152:296|152:168,1,170,4|8
152,187,107835,1,8
256,320,108297,1,0
256,232,108528,1,8
464,296,108990,6,0,B|360:296|360:168,1,170,4|8
361,187,109682,1,8
256,320,110144,1,0
256,232,110375,1,8
192,176,110606,1,0
256,120,110837,6,0,B|352:80|424:168,1,170,4|8
432,72,111530,1,8
352,40,111761,2,0,B|264:8|184:72,1,170,0|8
112,104,112454,1,0
112,192,112685,1,4
256,360,113147,5,8
256,360,113378,1,8
320,304,113609,2,0,B|264:224|152:240,1,170,0|8
256,360,114301,1,0
192,304,114532,6,0,B|248:224|360:240,1,170,4|8
416,192,115225,2,0,B|480:192|480:136|480:80|416:80|408:80,1,170
360,144,115918,1,8
360,232,116149,1,0
320,304,116380,6,0,B|264:224|152:240,1,170,4|8
96,192,117073,2,0,B|32:192|32:136|32:80|96:80|104:80,1,170
176,96,117766,5,8
256,136,117997,1,0
336,96,118228,1,4
256,344,118689,5,8
256,344,118920,1,8
256,256,119151,2,0,B|336:256|336:176|336:112|256:112|184:112|184:176|184:256|256:256,1,340
464,40,121461,5,0
424,112,121692,1,0
352,64,121923,2,0,B|256:40|176:88,1,170,4|8
112,40,122616,1,8
48,344,123308,5,8
88,272,123539,1,0
160,320,123770,2,0,B|256:344|336:296,1,170,4|8
400,344,124463,1,8
256,232,125156,6,0,B|160:256|104:168,1,170,8|0
256,144,126080,1,8
256,144,126311,1,0
256,56,126542,2,0,B|352:32|408:120,1,170,0|8
464,176,127234,5,0
464,176,127465,2,0,B|464:288|352:288,1,170,4|8
384,200,128158,1,8
256,88,128620,5,0
256,176,128851,1,8
184,136,129082,1,0
184,136,129313,2,0,B|80:136|80:248,1,170,4|8
80,240,130006,1,8
256,288,130468,5,0
320,232,130699,1,8
256,176,130930,1,0
320,232,131161,2,0,B|424:232|424:120,1,170,4|8
424,128,131853,1,8
256,40,132315,5,0
208,112,132546,1,8
152,48,132777,1,0
96,112,133008,2,0,B|72:208|160:264,1,170,4|8
154,260,133701,1,8
256,192,133932,12,0,136241
40,208,136703,6,0,B|24:312|136:344,1,170,4|8
208,336,137396,1,8
368,72,138089,5,8
432,128,138320,1,0
472,208,138551,2,0,B|488:312|376:344,1,170,4|8
304,336,139244,1,8
336,168,139706,5,0
256,152,139937,1,8
176,168,140167,1,0
256,248,140398,6,0,B|176:296|80:232,1,170,4|8
96,240,141091,1,8
216,360,141553,1,0
296,360,141784,1,8
352,296,142015,5,0
424,248,142246,1,4
424,160,142477,1,0
424,160,142708,1,8
352,112,142939,1,8
280,160,143170,2,0,B|232:192|176:136|208:64|288:64|272:64,1,170,0|8
352,112,143863,1,0
352,200,144094,6,0,B|352:296|264:344,1,170,4|8
192,296,144786,2,0,B|273:253|273:157,1,170,8|0
184,160,145479,1,8
112,208,145710,1,0
104,120,145941,2,0,B|168:32|272:56,1,170,4|8
104,40,146634,2,0,B|176:120|272:120,1,170,8|0
328,88,147327,5,8
408,112,147558,1,0
432,192,147789,2,0,B|392:288|288:296,1,170,4|8
256,224,148482,1,8
184,88,149174,5,8
104,112,149405,1,0
80,192,149636,2,0,B|120:288|224:296,1,170,4|8
256,224,150329,1,8
440,48,151022,5,0
456,136,151253,1,0
376,168,151484,2,0,B|272:64,2,127.5,4|0|4
256,192,152408,1,4
72,48,152870,5,0
56,136,153101,1,0
136,168,153331,2,0,B|240:64,2,127.5,4|0|4
256,192,154255,1,4
200,352,154717,5,0
312,352,154948,1,0
296,272,155179,2,0,B|268:296|268:296|256:320|256:320|245:296|245:296|216:269,2,127.5,4|0|4
256,200,156103,1,4
464,48,156796,5,0
440,128,157027,1,4
352,112,157258,1,0
376,192,157488,1,8
296,176,157719,1,8
272,96,157950,1,0
64,288,158412,6,0,B|120:368|224:352,2,170,12|0|8
64,200,159567,1,8
256,32,160260,5,8
304,104,160491,1,4
208,104,160722,1,4
256,264,161184,1,8
256,264,161415,1,8
184,216,161646,5,0
256,168,161876,1,0
328,216,162107,1,8
256,192,162569,12,0,164417
24,192,179659,5,0
472,192,180121,1,0
256,16,180583,1,0
112,104,181045,6,0,B|48:184|112:280,1,170,0|8
184,248,181738,2,0,B|256:176|360:216,1,170,8|0
320,296,182431,2,0,B|400:352|480:288,2,170,8|0|8
392,256,183585,2,0,B|472:216|480:104,1,170,8|0
392,160,184278,6,0,B|312:80|232:128,2,170,8|0|8
312,192,185433,2,0,B|240:264|144:208,1,170,8|0
224,160,186126,2,0,B|176:72|80:80,2,170,8|0|8
136,168,187281,2,0,B|56:240|144:336,1,170,8|0
176,248,187973,1,8
320,80,188435,6,0,B|264:160|152:144,1,170,4|8
96,192,189128,2,0,B|32:192|32:248|32:304|96:304|104:304,1,170
152,240,189821,1,8
152,152,190052,1,0
192,80,190283,6,0,B|248:160|360:144,1,170,4|8
416,192,190976,2,0,B|480:192|480:248|480:304|416:304|408:304,1,170
336,288,191669,5,8
256,248,191900,1,0
176,288,192131,1,4
256,40,192592,5,8
256,40,192823,1,8
256,128,193054,2,2,B|176:128|176:208|176:272|256:272|328:272|328:208|328:128|256:128,1,340
256,40,195862,5,0
48,192,196323,1,8
48,192,196554,1,8
464,192,197247,1,8
256,352,197709,5,0
256,40,198171,1,8
256,40,198402,1,8
256,352,199095,1,8
24,192,199557,6,0,B|120:144|192:232,1,170
178,217,200249,1,0
488,192,200942,1,0
488,192,201404,6,0,B|392:144|320:232,1,170
333,217,202097,1,0
24,192,202790,1,8
256,24,203252,6,0,B|192:64|345:84|237:193,1,170,0|8
255,171,203945,1,8
16,360,204637,1,8
256,360,205099,6,0,B|320:320|182:276|269:196,1,170,0|8
256,209,205792,1,8
496,24,206485,1,8
256,24,206947,5,0
256,192,207409,1,8
256,192,207640,1,8
256,192,207871,12,0,210180
160,64,210616,6,0,B|256:40|336:88,1,170,4|8
400,40,211308,1,8
464,344,212001,5,8
424,272,212232,1,0
352,320,212463,2,0,B|256:344|176:296,1,170,4|8
112,344,213156,1,8
88,264,213387,1,0
256,232,213849,6,0,B|352:256|408:168,1,170,8|0
256,144,214773,1,8
256,144,215003,1,0
256,56,215234,2,0,B|160:32|104:120,1,170,0|8
48,176,215927,5,0
48,176,216158,2,0,B|48:288|160:288,1,170,4|8
128,200,216851,1,8
256,88,217313,5,0
256,176,217544,1,8
328,136,217775,1,0
328,136,218006,2,0,B|432:136|432:248,1,170,4|8
432,240,218699,1,8
256,288,219161,5,0
192,232,219391,1,8
256,176,219622,1,0
192,232,219853,2,0,B|88:232|88:120,1,170,4|8
88,128,220546,1,8
256,40,221008,5,0
304,112,221239,1,8
360,48,221470,1,0
416,112,221701,2,0,B|440:208|352:264,1,170,4|8
358,260,222394,1,8
304,320,222625,6,0,B|224:256|136:296,1,170,0|8
64,304,223318,2,0,B|16:272|48:208,1,85,4|4
128,96,224010,5,0
128,96,224241,1,0
216,88,224472,1,0
296,128,224703,1,0
368,72,224934,5,0
432,128,225165,1,0
472,208,225396,2,0,B|488:312|376:344,1,170,4|0
304,336,226089,1,0
144,72,226782,5,0
80,128,227013,1,0
40,208,227244,2,0,B|24:312|136:344,1,170,4|0
208,336,227937,1,0
256,264,228167,5,4
256,88,228629,1,4
256,176,228860,1,0
256,264,229091,6,0,B|336:312|432:248,1,170,4|0
440,176,229784,1,0
448,88,230015,2,0,B|368:32|272:80,1,170
256,152,230708,1,0
40,344,231401,5,0
40,176,231863,1,4
160,56,232325,1,4
160,224,232786,6,0,B|160:320|248:368,1,170,4|0
312,312,233479,2,0,B|231:269|231:173,1,170,0|0
312,160,234172,1,0
384,200,234403,1,0
384,112,234634,2,0,B|320:24|216:48,1,170,4|0
232,128,235327,6,0,B|168:128|144:128,1,85,0|4
256,256,236020,1,4
88,232,236482,2,0,B|128:328|232:336,1,170,4|0
256,256,237174,1,0
256,168,237405,2,2,B|176:168|176:88|176:24|256:24|328:24|328:88|328:168|256:168,1,340
72,48,239715,5,0
56,136,239946,1,0
136,168,240177,2,0,B|240:64,2,127.5,4|0|4
256,192,241100,1,4
440,48,241562,5,0
456,136,241793,1,0
376,168,242024,2,0,B|272:64,2,127.5,4|0|4
256,192,242948,1,4
312,352,243410,5,0
200,352,243641,1,0
216,272,243872,2,0,B|244:296|244:296|256:320|256:320|267:296|267:296|296:269,2,127.5,4|0|4
256,200,244796,1,4
48,48,245452,5,0
72,128,245682,2,0,B|128:88|176:144|152:192,2,127.5,4|0|4
96,208,246605,1,4
320,336,247067,1,4
440,128,247529,6,0,B|384:88|336:144|360:192,2,127.5,4|0|4
416,208,248453,1,4
160,184,249146,5,0
216,120,249377,2,0,B|244:96|244:96|256:72|256:72|267:96|267:96|296:123,2,127.5
256,200,250300,1,4
256,200,250762,1,4
256,192,251224,12,0,254919
