osu file format v5

[General]
AudioFilename: beautiful girl.mp3
AudioLeadIn: 3000
PreviewTime: 76234
Countdown: 1
SampleSet: Normal
StackLeniency: 0.7
Mode: 0
LetterboxInBreaks: 1

[Metadata]
Title:Beautiful Girl
Artist:Sean Kingston
Creator:supergarlic
Version:So beautiful!
Source:
Tags:

[Difficulty]
HPDrainRate:7
CircleSize:6
OverallDifficulty:7
SliderMultiplier:1.4
SliderTickRate:1

[Events]
//Background and Video events
//Break Periods
2,179666,194784
//Storyboard Layer 0 (Background)
//Storyboard Layer 1 (Failing)
//Storyboard Layer 2 (Passing)
//Storyboard Layer 3 (Foreground)
//Storyboard Sound Samples
//Background Colour Transformations
3,100,163,162,255

[TimingPoints]
4030,461.538461538462,4,1,0,40,1

[Colours]
Combo1 : 236,0,118
Combo2 : 244,0,0
Combo3 : 255,128,128
Combo4 : 168,0,0

[HitObjects]
128,64,2645,1,8
160,256,3106,1,8
192,64,3568,1,8
224,256,4030,2,8,B|227:390|384:288,1,210
384,192,5183,1,8
256,160,5645,1,8
256,160,5876,2,8,B|192:224|64:64,1,210
96,224,7491,5,8
160,224,7722,1,8
288,224,8183,1,8
288,160,8414,1,8
288,96,8645,2,8,B|128:128,1,140
96,128,9337,1,8
160,256,10030,5,8
352,224,10491,1,8
160,192,10953,1,8
288,96,11414,6,8,B|351:125|416:256,1,140
383,196,12106,1,8
384,320,12568,1,8
96,288,13260,2,8,B|32:224|32:128,1,140
34,165,13953,1,8
32,32,14414,1,8
96,64,14645,5,8
96,128,14876,1,8
96,192,15106,2,8,B|96:288|192:288|192:192,1,140
192,128,16030,2,8,B|192:0|288:0|288:256,1,280
288,352,17414,5,8
64,320,17876,1,8
288,288,18337,1,8
64,256,18799,2,8,B|64:160|160:64,1,210
256,64,19953,1,8
256,192,20414,1,8
256,192,20645,2,8,B|192:256|128:224,1,140
128,96,22260,5,8
128,160,22491,1,8
128,224,22722,1,8
128,288,22953,1,8
192,288,23183,1,8
256,288,23414,1,8
352,288,23876,2,8,B|352:192,1,70
96,64,24799,5,8
128,256,25260,1,8
160,64,25722,1,8
192,256,26183,2,8,B|192:320|320:320,1,140
300,319,26876,2,8,B|448:320,1,140
448,64,28029,2,8,B|448:0|320:0,1,140
339,0,28722,2,8,B|192:0,1,140
128,0,29414,5,8
128,64,29645,1,8
128,128,29876,2,8,B|128:224|224:224,1,140
224,96,30799,2,8,B|224:0|321:0|320:224,1,280
128,96,33106,5,0
128,160,33337,1,0
128,224,33568,1,0
128,288,33799,1,0
192,288,34030,1,0
192,224,34260,1,0
192,160,34491,2,0,B|192:64|256:32,1,140
288,64,35183,2,0,B|384:64,1,70
384,128,35645,2,0,B|384:224,1,70
352,256,36106,2,0,B|256:256,1,70
160,256,36799,6,0,B|160:193|64:160,1,140
64,96,37491,1,0
128,96,37722,1,0
128,160,37953,2,0,B|224:160,1,70
256,64,38876,6,0,B|256:160,1,70
320,128,39337,2,0,B|320:224,1,70
384,192,39799,2,0,B|384:288,1,70
192,96,40722,5,0
192,160,40953,2,0,B|192:224|256:288,2,140
224,32,42568,1,0
224,96,42799,2,0,B|224:192|320:160|384:192|384:288|384:288,1,210
367,233,43722,2,0,B|256:288|256:288|192:288|192:288|192:288,1,140
239,288,44414,2,0,B|128:192,1,140
320,160,45568,6,0,B|160:160,1,140
128,160,46260,1,0
32,160,46722,1,0
288,96,48106,5,0
320,160,48337,1,0
288,224,48568,1,0
256,160,48799,2,0,L|224:96|192:160,1,140
64,160,49953,1,0
64,224,50183,1,0
128,224,50414,2,0,L|128:128,1,70
128,96,50876,2,0,L|128:192,1,70
256,96,51568,2,0,L|320:128|256:160,1,140
192,192,52260,1,0
128,224,52491,1,0
64,256,52722,1,0
128,288,52953,1,0
352,288,53645,6,0,L|448:256,1,70
480,256,54106,2,0,L|416:224,1,70
352,192,54568,1,0
288,160,54799,2,0,C|288:96|288:128,1,70
224,128,55260,1,0
160,128,55491,1,0
96,128,55722,2,0,L|79:161|96:192,4,70
256,96,57337,5,0
256,160,57568,1,0
256,320,58260,1,0
256,256,58491,1,0
128,192,58953,1,0
192,192,59183,6,0,L|288:96|352:160|320:192|352:224|288:288|192:192,2,490
96,256,62876,5,0
128,192,63106,1,0
128,128,63337,1,0
128,64,63568,1,0
192,64,63799,1,0
256,64,64030,1,0
352,64,64491,1,0
352,192,64953,5,0
288,192,65183,1,0
160,192,65645,1,0
128,128,65876,1,0
160,32,66337,1,0
224,32,66568,1,0
288,32,66799,2,0,L|288:128,2,70
224,32,67491,1,0
160,32,67722,1,0
160,160,68414,5,0
160,224,68645,1,0
224,224,68876,1,0
288,224,69106,1,0
352,224,69337,1,0
352,160,69568,2,0,C|352:96|256:96,1,140
192,96,70491,6,0,C|96:96|96:192|192:192|192:128,1,350
256,224,72106,1,0
256,224,72337,1,0
288,96,72799,1,0
160,128,73260,1,0
160,192,73491,1,0
160,256,73722,1,0
256,256,74183,2,0,C|256:160|306:146|320:192|372:178|384:224|277:288,1,420
128,64,76491,5,8
160,176,76722,1,8
192,288,76953,1,8
229,176,77183,1,8
256,64,77414,1,8
384,64,77876,2,8,C|416:96|384:128|416:160|384:192|416:224,1,210
256,352,79030,1,8
128,224,79491,1,8
128,224,79722,2,8,C|96:192|128:160|96:128|128:96|96:64,1,210
128,128,81337,5,8
128,128,81568,1,8
256,128,82030,1,8
256,128,82260,1,8
320,128,82491,2,8,C|384:256,1,140
382,253,83183,1,8
96,96,83876,5,8
96,96,84106,1,8
128,224,84337,1,8
128,224,84568,1,8
160,96,84799,1,8
288,96,85260,6,8,C|288:192|288:128,1,140
352,96,85953,2,8,C|352:192|352:128,1,140
352,224,87106,2,8,C|192:224,1,140
212,224,87799,1,8
64,192,88260,5,8
64,128,88491,1,8
64,64,88722,1,8
128,96,88953,2,8,C|227:130|160:160,1,140
128,256,89876,2,8,C|210:224|108:192|192:160,1,280
128,96,91260,5,8
320,192,91722,1,8
128,288,92183,1,8
128,160,92645,2,8,C|160:160|160:192|192:192|192:224|224:224|224:256|256:256,1,210
224,96,93799,1,8
384,160,94260,1,8
384,160,94491,2,8,C|352:160|352:192|320:192|320:224|288:224|288:256|256:256,1,210
192,288,96106,5,8
256,288,96337,1,8
256,224,96568,1,8
256,160,96799,2,8,C|160:160,1,70
186,160,97260,2,8,C|192:96|191:100|192:160,1,140
186,160,97953,1,8
64,96,98645,5,8
96,288,99106,1,8
128,96,99568,1,8
160,192,100030,2,8,C|192:160|224:192|256:224|288:192,1,140
257,223,100722,2,8,C|320:160|384:224,1,140
160,160,101876,2,8,C|224:128|288:160,1,140
284,157,102568,2,8,C|316:93|284:29,1,140
256,64,103260,5,8
256,128,103491,1,8
256,64,103722,2,8,C|224:96|192:64|192:128|192:128|192:128,1,140
192,192,104645,2,8,C|192:256|224:224|256:256,2,140
256,160,106953,5,0
320,160,107183,1,0
320,224,107414,2,0,C|224:224,1,70
192,224,107876,2,0,C|192:128,1,70
192,96,108337,1,0
320,96,108799,1,0
320,160,109030,1,0
320,224,109260,1,0
256,224,109491,2,0,C|256:128,2,70
256,154,110183,1,0
128,224,110645,6,0,C|128:160|160:192|192:160|192:160,1,140
192,128,111337,1,0
192,64,111568,1,0
256,64,111799,1,0
320,64,112030,1,0
320,192,112491,1,0
256,192,112722,1,0
192,192,112953,1,0
192,256,113183,1,0
256,256,113414,2,0,C|320:224|256:224|224:224,1,140
256,160,114568,5,0
256,160,114799,1,0
160,160,115260,1,0
160,224,115491,1,0
160,160,115722,1,0
256,288,116414,6,0,C|320:224,1,70
352,192,116876,2,0,C|288:256,1,70
256,288,117337,2,0,C|320:224,1,70
352,192,117799,2,0,C|288:256,1,70
256,288,118260,2,0,C|320:224,1,70
305,239,118722,6,0,C|222:161|254:129|286:161|318:129|350:161|254:257,2,420
192,256,121953,5,0
192,192,122183,1,0
192,128,122414,1,0
128,128,122645,1,0
64,128,122876,2,0,C|64:224,1,70
64,256,123337,2,0,C|160:256,1,70
133,256,123799,2,0,C|133:352,1,70
131,258,124260,1,0
192,256,124491,1,0
320,256,124953,1,0
320,160,125414,1,0
222,160,125876,5,0
152,161,126106,2,0,C|248:161,1,70
224,90,126568,1,0
224,160,126799,2,0,C|224:64,1,70
160,90,127260,1,0
160,160,127491,2,0,C|160:64,1,70
96,165,127953,1,0
96,96,128183,2,0,C|96:192,1,70
160,224,128645,1,0
288,224,129337,5,0
288,224,129568,2,0,C|320:192|288:160|320:128|288:128,1,140
384,128,130260,2,0,C|320:96,1,70
192,160,131183,2,0,C|192:243,1,70
256,224,131645,1,0
192,224,131876,2,0,C|192:128,1,70
256,160,132337,1,0
128,160,132799,1,0
128,160,133030,2,0,C|96:96|192:96,1,140
256,128,134183,5,0
256,224,134645,1,0
256,224,134876,2,0,C|224:256|192:224|256:160|320:224|288:256|237:212,1,350
192,288,136491,6,0,C|160:224,1,70
160,160,136953,2,0,C|192:96,1,70
256,96,137414,2,0,C|288:192,1,70
288,224,137876,1,0
192,224,138337,1,0
192,128,138799,2,0,C|288:128,1,70
263,177,139260,1,0
256,224,139491,2,0,C|160:224,1,70
64,224,140183,6,0,C|64:128,3,70
160,160,141337,1,0
160,160,141568,1,0
288,160,142260,1,0
288,160,142491,1,0
352,160,142722,1,0
352,160,142953,1,0
352,224,143183,1,0
352,224,143414,1,0
256,224,143876,1,0
256,224,144337,6,0,C|192:160|224:160|160:224|128:192|160:192|224:256,1,350
224,288,145953,1,0
160,288,146183,1,0
192,128,146645,1,0
288,160,147106,1,0
288,224,147337,1,0
288,288,147568,1,0
288,288,148030,2,0,C|224:288|256:256|320:256|352:224|256:224,1,280
160,96,150311,5,8
160,96,150427,1,8
160,96,150568,1,8
192,160,150773,1,8
192,160,150888,1,8
192,160,151030,1,8
224,96,151234,1,8
224,96,151350,1,8
224,96,151491,1,8
288,128,151722,2,8,C|352:128|288:192|352:192,1,210
352,256,152876,1,8
224,320,153337,1,8
224,320,153568,2,8,C|160:288|224:288|160:256|224:256,2,210
224,256,155183,5,8
224,256,155414,1,8
128,192,155876,1,8
128,256,156106,1,8
128,320,156337,2,8,C|160:288|192:320|224:256|256:288|288:224,1,280
192,160,157696,5,8
192,160,157811,1,8
192,160,157953,1,8
160,224,158157,1,8
160,224,158273,1,8
160,224,158414,1,8
128,160,158619,1,8
128,160,158734,1,8
128,160,158876,1,8
160,96,159106,2,8,C|320:96,1,140
300,96,159799,1,8
320,224,160260,1,8
288,352,160953,2,8,C|128:352,1,140
148,352,161645,1,8
96,224,162106,5,8
160,224,162337,2,8,C|256:224,2,70
160,128,163260,1,8
256,128,163722,2,8,C|320:128|320:160|288:160|256:160|256:192|288:192|352:192,1,280
160,256,165106,6,8,C|160:192,2,35
224,256,165568,2,8,C|224:320,2,35
288,256,166029,2,8,C|288:192,2,35
352,256,166491,2,8,C|352:192|384:192|384:128|320:128,1,210
192,128,167645,1,8
192,288,168106,1,8
256,288,168337,2,0,C|288:224|256:160,2,140
128,192,169953,6,8,C|128:288,1,70
192,256,170414,1,8
192,192,170645,1,8
192,128,170876,1,8
256,128,171106,2,8,C|256:288,1,140
256,268,171799,1,8
128,288,172491,6,8,C|128:224,2,35
192,288,172927,1,8
192,288,173042,1,8
192,288,173183,1,8
192,224,173414,2,8,C|192:160,2,35
256,192,173876,12,8,175260
256,192,175491,12,8,177106
256,192,177337,1,8
256,192,177568,1,8
256,192,178029,1,8
256,192,178260,12,8,179414
192,192,195799,5,0
256,192,196029,1,0
320,192,196260,1,0
320,256,196491,1,0
256,256,196722,1,0
192,256,196953,1,0
96,256,197414,1,0
96,192,197645,2,0,C|96:96,1,70
160,128,198106,2,0,C|160:224,1,70
224,192,198568,2,0,C|224:96,1,70
352,192,199260,6,0,C|448:192|416:224|352:224,1,210
288,224,200183,1,0
224,224,200414,1,0
160,224,200645,1,0
160,128,201106,2,0,C|256:128,2,70
96,160,201799,2,0,C|96:256,2,70
96,160,202491,1,0
192,160,202953,5,0
192,64,203414,1,0
192,64,203645,1,0
192,64,203876,1,0
192,160,204337,1,0
320,160,205029,1,0
320,160,205260,1,0
416,256,205722,1,0
320,256,206183,2,0,C|224:256,1,70
192,256,206645,1,0
128,256,206876,2,0,C|96:192|128:128|160:192|128:288,1,280
320,128,209388,1,8
320,128,209504,1,8
320,128,209619,1,8
320,128,209734,1,8
288,160,209850,1,8
288,160,209965,1,8
288,160,210080,1,8
288,160,210196,1,8
256,128,210311,1,8
256,128,210427,1,8
256,128,210542,1,8
256,128,210657,1,0
260,105,210799,6,8,C|209:42|146:137|273:298|405:135|337:42|283:112,1,840
320,192,214029,1,8
256,192,214260,5,8
256,192,214491,1,8
160,192,214953,1,8
160,192,215183,1,8
160,192,215414,2,8,C|160:288|224:288,1,140
200,291,216106,1,8
288,224,216799,6,8,C|352:224,3,35
352,192,217234,1,8
352,192,217350,1,8
352,192,217465,1,8
352,192,217580,1,8
320,164,217722,2,8,C|256:164,3,35
256,160,218183,6,8,C|224:192|224:224|256:256|256:288,1,140
192,288,218876,1,8
192,288,219337,1,8
319,276,220029,2,8,C|319:244|351:212|351:180|319:148|319:116,1,140
288,192,220722,1,8
288,192,221183,1,8
256,192,221645,12,4,223491
