osu file format v6

[General]
AudioFilename: Heartbeat - Scouting For Girls[MP3-Codes.com].mp3
AudioLeadIn: 1996
PreviewTime: 37425
Countdown: 0
SampleSet: Normal
StackLeniency: 0.5
Mode: 0
LetterboxInBreaks: 1

[Editor]
Bookmarks: 72776
DistanceSpacing: 0.800000011920929
BeatDivisor: 2
GridSize: 8

[Metadata]
Title:Heartbeat
Artist:Scouting For Girls
Creator:Larto
Version:Insane
Source:
Tags:

[Difficulty]
HPDrainRate:7
CircleSize:4
OverallDifficulty:8
SliderMultiplier:2.6
SliderTickRate:2

[Events]
//Background and Video events
0,0,"scouting_for_girlshires_2_col.jpg"
//Break Periods
2,49528,51869
2,90173,92320
2,130431,132385
2,149012,150965
//Storyboard Layer 0 (Background)
//Storyboard Layer 1 (Fail)
//Storyboard Layer 2 (Pass)
//Storyboard Layer 3 (Foreground)
//Storyboard Sound Samples
//Background Colour Transformations
3,100,163,162,255

[TimingPoints]
6361,387.096774193548,4,1,0,69,1,0
6651,-100,4,2,0,69,0,0
7812,-100,4,1,0,69,0,0
8199,-100,4,2,0,69,0,0
9264,-100,4,1,0,69,0,0
9747,-200,4,2,0,69,0,0
10908,-100,4,1,0,69,0,0
11295,-200,4,2,0,69,0,0
12360,-100,4,1,0,69,0,0
13134,-200,4,2,0,69,0,0
14102,-100,4,1,0,69,0,0
14576,-200,4,2,0,69,0,0
15554,-100,4,1,0,69,0,0
15941,-200,4,2,0,69,0,0
17102,-100,4,1,0,69,0,0
17682,-200,4,2,0,69,0,0
18651,-100,4,1,0,69,0,0
19038,-200,4,2,0,69,0,0
20296,-100,4,1,0,69,0,0
20600,-200,4,2,0,69,0,0
21651,-100,4,1,0,69,0,0
22231,-200,4,1,0,48,0,0
22715,-200,4,2,0,69,0,0
22909,-200,4,1,0,49,0,0
23102,-200,4,2,0,69,0,0
23393,-100,4,1,0,69,0,0
23780,-200,4,2,0,69,0,0
24070,-100,4,1,0,69,0,0
24263,-100,4,2,0,69,0,0
24456,-200,4,1,0,69,0,0
24649,-100,4,2,0,69,0,0
24842,-100,4,1,0,69,0,0
26393,-100,4,2,0,69,0,0
27167,-100,4,1,0,69,0,0
28231,-100,4,2,0,69,0,0
28714,-100,4,1,0,69,0,0
33167,-100,4,2,0,100,0,0
34231,-100,4,1,0,69,0,0
34327,-100,4,2,0,69,0,0
34617,-100,4,1,0,69,0,0
34713,-100,4,2,0,69,0,0
35003,-100,4,1,0,69,0,0
35099,-100,4,2,0,69,0,0
35389,-100,4,1,0,69,0,0
35485,-100,4,2,0,69,0,0
35775,-100,4,1,0,69,0,0
35871,-100,4,2,0,69,0,0
36070,-100,4,1,0,69,0,0
36263,-100,4,2,0,69,0,0
36451,-100,4,1,0,69,0,0
37328,-100,4,1,0,69,0,1
42070,-100,4,2,0,69,0,1
43328,-100,4,1,0,69,0,1
52812,-100,4,1,0,69,0,0
53199,-200,4,2,0,69,0,0
54360,-100,4,1,0,69,0,0
54747,-200,4,2,0,69,0,0
55909,-100,4,1,0,69,0,0
56296,-200,4,2,0,69,0,0
57360,-100,4,1,0,69,0,0
57940,-200,4,2,0,69,0,0
58909,-100,4,1,0,69,0,0
59296,-200,4,2,0,69,0,0
60360,-100,4,1,0,69,0,0
60940,-200,4,2,0,69,0,0
62006,-100,4,1,0,69,0,0
62489,-200,4,2,0,69,0,0
62780,-100,4,1,0,49,0,0
62973,-200,4,2,0,69,0,0
63166,-100,4,1,0,52,0,0
64036,-200,4,2,0,69,0,0
64326,-100,4,1,0,69,0,0
64519,-200,4,2,0,69,0,0
64712,-100,4,1,0,69,0,0
64905,-100,4,2,0,69,0,0
65199,-100,4,1,0,69,0,0
66844,-100,4,1,0,69,0,0
67618,-100,4,1,0,69,0,0
73522,-100,4,2,0,69,0,0
74489,-100,4,1,0,69,0,0
74585,-100,4,2,0,69,0,0
74875,-100,4,1,0,69,0,0
74971,-100,4,2,0,69,0,0
75261,-100,4,1,0,69,0,0
75357,-100,4,2,0,69,0,0
75647,-100,4,1,0,69,0,0
75743,-100,4,2,0,69,0,0
75936,-100,4,1,0,69,0,0
76129,-100,4,2,0,69,0,0
76322,-100,4,1,0,69,0,0
76515,-100,4,2,0,69,0,0
76708,-100,4,1,0,69,0,0
77586,-100,4,1,0,69,0,1
82328,-100,4,2,0,69,0,1
83582,-100,4,1,0,100,0,1
93070,-200,4,1,0,69,0,0
93167,-200,4,2,0,69,0,0
93554,-100,4,1,0,69,0,0
94715,-200,4,2,0,69,0,0
95124,-100,4,1,0,69,0,0
95392,-200,4,2,0,69,0,0
96651,-200,4,1,0,69,0,0
96892,-200,4,2,0,69,0,0
98296,-100,4,1,0,69,0,0
99366,-200,4,2,0,69,0,0
99748,-100,4,1,0,69,0,0
100909,-200,4,2,0,69,0,0
101296,-100,4,1,0,69,0,0
102263,-200,4,2,0,69,0,0
102843,-100,4,1,0,69,0,0
103617,-200,4,2,0,69,0,0
104487,-100,4,1,0,69,0,0
113102,-100,4,1,0,79,0,0
114651,-100,4,1,0,91,0,0
116199,-100,4,1,0,100,0,0
117844,-100,4,2,0,100,0,1
123069,-100,4,1,0,100,0,0
124038,-100,4,1,0,69,0,1
141167,-100,4,2,0,69,0,1
142518,-100,4,1,0,69,0,1
154231,480,4,1,0,69,1,0

[Colours]
Combo1 : 128,253,2
Combo2 : 90,204,74
Combo3 : 140,241,3
Combo4 : 177,214,31

[HitObjects]
56,184,6361,2,4,C|160:320,1,130,8|8
256,192,6748,1,0
256,192,7135,1,0
256,192,7522,1,0
456,200,7909,6,8,C|352:64,1,130,8|8
256,192,8296,1,0
256,192,8683,1,0
256,192,9070,1,0
256,32,9457,6,8,C|120:136,1,130
256,192,9844,1,0
256,192,10230,2,2,B|232:264|192:224|168:312,1,130,2|0
256,352,11006,6,8,C|392:248,1,130
256,192,11392,1,0
256,192,11778,2,2,B|280:120|320:160|344:72,1,130,2|0
440,112,12554,6,8,B|464:184|432:184|360:184,1,130
288,312,13328,5,2
208,320,13522,1,0
128,296,13715,1,2
64,248,13909,6,0,B|48:176|96:128,1,65,0|8
63,183,14295,1,8
448,248,14877,6,2,B|464:176|416:120,1,130,2|0
344,112,15457,1,0
256,136,15651,5,8
256,248,15844,1,8
72,144,16425,5,2
136,96,16619,1,0
72,144,16812,1,2
136,96,17006,1,0
72,144,17199,2,8,B|56:200|72:248|104:272,1,130
256,368,18167,5,2
256,296,18360,1,0
256,224,18554,1,2
304,152,18748,5,8
208,152,18941,1,8
40,136,19522,5,8
72,64,19715,1,0
152,40,19909,1,8
232,56,20102,2,0,B|280:72|312:104,2,65,0|8|8
472,248,21070,5,8
440,320,21263,1,0
360,344,21457,1,8
256,192,21844,5,8
256,192,22038,1,8
128,312,22619,5,4
96,232,22812,1,0
120,152,23006,1,4
176,88,23199,2,0,B|208:80|256:88,1,65,0|8
320,120,23586,1,8
488,80,23973,5,0
432,152,24166,1,12
392,232,24360,1,0
336,296,24553,2,8,B|304:304|256:296,1,65,12|0
192,280,24940,1,12
120,224,25135,5,0
96,136,25328,1,0
160,72,25522,1,0
248,48,25715,2,2,B|328:48|384:104,1,130
288,128,26102,2,4,B|328:184|408:176,1,130
480,136,26490,5,2
464,224,26683,1,0
392,280,26877,1,2
304,304,27070,1,0
208,304,27264,6,2,B|120:320|48:288|8:224|0:176,1,260,2|0
72,112,27844,2,2,B|56:160|88:248|176:256|264:200,1,260,2|2
312,160,28425,5,4
344,72,28619,1,2
440,72,28812,6,2,B|504:104|488:200,2,130
344,72,29393,2,4,B|248:216|232:-32|112:136,1,260
256,192,30167,5,0
256,280,30360,1,8
216,104,30748,1,8
296,104,30941,1,0
256,192,31135,12,0,33070
24,184,33457,5,2
88,248,33651,1,0
176,272,33844,1,2
264,256,34038,6,0,B|344:248|336:104,1,130
400,104,34425,2,0,B|480:112|472:256,1,130,0|0
472,288,34812,2,0,B|416:336|328:336,1,130
264,344,35199,2,0,B|200:368|96:336,1,130
64,288,35586,1,0
48,200,35780,1,0
72,112,35973,1,0
136,48,36167,1,0
224,24,36360,1,0
304,64,36554,1,0
336,144,36748,1,8
256,192,36941,1,12
440,248,37328,5,0
488,336,37522,1,0
400,336,37715,1,0
304,336,37909,1,0
216,336,38102,2,0,L|72:336,2,130
304,336,38683,2,2,B|304:264|400:184|504:168,1,260
480,264,39264,1,0
416,328,39457,2,2,B|344:296|296:240|288:168|288:104,1,260
376,128,40038,1,0
464,136,40231,2,4,B|432:208|376:248|288:288|232:288,1,260
168,272,40812,5,8
80,248,41006,1,0
152,192,41199,1,8
64,168,41393,1,0
128,104,41586,1,8
40,88,41780,1,8
256,104,42360,5,4
256,104,42748,1,4
256,104,43135,1,4
256,304,43522,5,4
344,272,43715,1,0
416,216,43909,2,0,B|464:160|464:72,1,130
384,72,44296,2,0,B|384:152|320:208,1,130
272,224,44683,1,0
192,248,44877,2,2,B|88:248|48:224|32:144|40:80,1,260
128,104,45457,1,0
208,160,45651,2,2,B|200:264|64:280|16:240|-16:168,1,260
40,120,46231,1,0
128,104,46425,2,0,B|98:363,1,260,4|0
168,352,47006,5,8
168,264,47199,1,0
256,264,47393,1,8
256,352,47586,1,0
344,352,47780,1,8
344,264,47973,1,8
256,56,48554,5,8
256,56,48941,1,0
256,56,49328,1,14
256,40,52619,5,8
256,40,52715,1,0
256,40,52812,1,8
256,128,53006,1,8
64,184,53586,5,2
96,248,53779,1,0
168,280,53973,1,2
240,296,54166,2,0,B|312:288|328:232,1,65,0|8
344,216,54553,1,8
456,264,54941,5,0
448,192,55135,1,2
408,136,55328,1,0
344,104,55522,1,2
272,88,55715,2,0,B|200:96|184:152,1,65,0|8
176,168,56102,1,8
64,256,56490,5,0
136,288,56683,1,2
216,288,56877,1,0
296,288,57070,1,2
376,288,57264,1,0
448,256,57457,5,8
256,232,57651,1,8
256,48,58425,5,0
256,48,58618,1,2
256,48,58812,1,0
256,48,59006,2,8,B|256:184,1,130
136,192,59586,5,0
64,192,59780,1,2
64,264,59973,1,0
136,264,60167,1,2
136,128,60554,1,8
64,128,60748,1,8
448,128,61521,5,10
368,128,61715,1,0
408,192,61909,1,10
448,256,62102,1,8
368,256,62296,1,8
256,88,62683,5,0
256,160,62877,1,4
256,232,63070,1,0
256,304,63264,1,4
192,112,63651,2,8,B|192:256,1,130
256,304,64231,5,0
256,232,64425,1,12
256,160,64618,1,0
256,88,64812,1,12
336,112,65006,2,0,B|336:256,1,130,0|8
336,312,65393,6,0,B|480:312,1,130
464,240,65780,2,2,B|464:48,1,130
456,32,66167,2,2,B|312:32,1,130
248,40,66554,2,8,B|136:152,1,130,8|0
104,184,66941,6,0,B|104:328,3,130,0|8|0|8
160,352,67715,1,0
240,352,67909,1,0
320,344,68102,2,4,B|408:344|488:280|496:168,1,260,4|0
376,240,68877,5,0
304,272,69070,1,2
232,280,69264,1,0
160,272,69457,1,2
96,248,69651,2,2,B|8:240|-24:80|64:32,1,260
168,96,70812,5,12
256,96,71006,1,0
344,96,71199,1,12
256,192,71780,12,0,73328
64,208,73715,5,2
120,248,73908,1,0
192,248,74102,1,2
264,240,74295,6,0,B|352:224|352:96,1,130
400,248,74682,2,0,B|440:192|408:120,1,130
480,120,75069,2,0,B|464:32|328:40,1,130
328,112,75457,2,0,B|264:152|184:136,1,130
120,200,75844,1,0
136,288,76037,1,0
216,328,76231,1,0
304,312,76424,1,0
376,256,76618,1,0
352,168,76811,1,0
280,112,77005,1,8
256,192,77199,1,0
256,192,77296,1,0
256,192,77393,1,0
256,192,77490,1,0
256,192,77586,5,0
176,232,77780,1,0
88,216,77973,1,0
32,144,78167,1,0
56,56,78360,1,0
144,40,78554,1,0
232,56,78748,1,0
304,112,78941,2,2,B|344:168|360:240|296:296|208:312,1,260
136,304,79522,1,0
48,304,79715,2,2,B|8:248|16:184|56:112|144:112,1,260
160,200,80296,1,0
160,200,80490,1,4
432,192,81070,6,0,B|272:192,1,130,8|0
248,264,81457,2,0,B|416:264,1,130,8|0
432,192,81844,2,8,B|272:192,1,130
440,72,82617,5,4
440,72,83006,1,4
440,72,83393,1,4
256,80,83780,5,4
168,104,83973,1,0
96,160,84167,2,0,B|32:208|64:296,1,130
128,328,84554,2,0,B|200:360|296:344,1,130
344,328,84941,1,0
432,304,85135,2,2,B|464:272|488:216|488:152|448:88|392:72,1,260
320,72,85715,1,0
223,72,85909,2,2,B|184:82|144:146|144:210|168:266|200:298,1,260,2|2
288,352,86490,1,0
376,296,86683,1,4
256,192,87264,12,4,89973
136,320,93070,5,0
136,200,93264,1,0
136,80,93457,1,0
256,80,93651,1,4
256,320,94619,5,0
376,320,94812,1,0
376,200,95006,1,0
376,80,95199,1,0
256,192,95586,5,0
32,328,96360,5,0
160,328,96554,1,0
288,328,96748,1,4
32,240,97135,5,0
160,240,97329,1,0
288,240,97523,1,0
32,152,97909,6,0,B|208:152,1,130,2|4
376,320,99264,5,0
376,200,99458,1,0
376,80,99651,1,0
256,80,99845,1,4
256,200,100231,5,0
256,200,100328,1,0
256,200,100425,1,0
256,320,100812,5,0
136,320,101006,1,0
136,200,101200,1,0
136,80,101393,1,0
256,200,101780,5,0
256,200,101877,1,0
256,200,101973,1,0
480,328,102554,5,0
352,328,102748,1,0
224,328,102942,1,4
480,240,103329,5,0
416,240,103425,1,0
352,240,103523,1,0
224,240,103717,1,0
480,152,104103,6,0,B|304:152,1,130,2|0
256,48,105070,5,0
32,120,105457,6,0,B|0:192|40:272,1,130,8|0
128,312,105844,2,0,B|176:360|264:368,1,130,8|0
256,192,106425,1,0
256,192,106619,1,8
256,192,106812,1,0
480,120,107199,6,0,B|512:192|472:272,1,130,0|8
384,312,107586,2,0,B|336:360|248:368,1,130,0|8
256,288,107973,1,0
160,200,108748,6,0,B|120:136|168:48,1,130,0|8
208,136,109135,1,0
352,184,109522,6,0,B|392:248|344:336,1,130,0|8
304,248,109909,1,0
255,351,110296,6,0,B|256:80,1,260
440,64,111651,5,8
456,152,111844,1,0
384,208,112038,1,8
400,296,112231,1,0
320,336,112425,1,8
232,312,112619,1,0
152,264,112812,1,8
96,336,113006,1,0
40,264,113199,1,8
64,176,113393,1,0
112,96,113586,1,8
200,72,113780,1,0
288,112,113973,1,8
376,80,114167,1,0
440,144,114360,1,8
408,224,114554,1,0
328,264,114748,1,12
240,256,114941,1,0
184,184,115135,1,12
232,104,115328,1,2
144,72,115522,1,12
72,128,115715,1,2
64,216,115909,1,14
104,296,116102,1,14
192,328,116296,1,14
280,280,116490,1,14
256,192,116683,1,14
256,192,116877,12,2,117844
256,192,118231,5,10
256,192,118425,1,0
256,192,118619,1,2
256,192,118812,1,0
256,192,119006,1,10
256,192,119199,1,2
208,264,119586,5,0
152,192,119780,1,8
208,120,119973,1,2
304,264,120360,1,2
360,192,120553,1,8
304,120,120747,1,2
256,328,121328,5,10
138,260,121522,1,0
138,124,121715,1,2
256,56,121909,1,0
373,124,122102,1,10
373,260,122296,1,0
256,56,123651,5,0
256,328,124038,5,4
40,184,124425,5,0
112,240,124619,1,0
200,240,124812,1,0
280,200,125006,1,0
352,144,125199,1,0
424,96,125393,2,2,B|504:56|512:200|432:256|376:280,1,260
304,296,125973,1,0
208,296,126167,2,2,B|96:272|96:192|96:120|144:96,1,260
216,48,126748,1,0
304,48,126941,2,0,B|480:96|176:184|376:240,1,260,4|0
344,328,127522,5,8
256,328,127715,1,0
168,328,127909,1,8
208,248,128102,1,0
296,248,128296,1,8
256,168,128490,1,8
104,56,128877,5,0
104,56,129070,1,4
256,168,129457,1,0
256,168,129651,1,4
408,56,130038,1,0
408,56,130231,1,12
104,192,133135,6,0,B|104:328,1,130,0|2
408,192,133909,6,0,B|408:56,1,130,0|2
256,192,134877,5,2
256,192,135651,12,4,136425
32,48,136812,5,8
72,128,137006,1,0
144,184,137199,1,0
232,184,137393,1,0
312,152,137586,1,8
400,120,137780,2,0,B|496:96|512:224|456:264|344:256,1,260
272,264,138360,1,8
176,272,138554,2,0,B|80:288|32:240|32:200|40:136|64:104,1,260
144,80,139135,1,8
232,48,139328,1,0
256,320,139909,5,8
256,232,140102,1,0
256,144,140296,1,0
344,144,140490,1,0
256,144,140683,1,8
168,144,140877,1,0
32,56,141457,5,4
32,56,141844,1,4
32,56,142231,1,4
304,248,143006,5,8
304,336,143199,1,0
208,336,143393,1,0
208,248,143586,1,0
256,168,143780,1,8
344,184,143973,2,2,B|368:144|368:112|336:72|304:56|256:32|256:32|256:112,1,260
256,168,144554,1,8
168,184,144747,2,2,B|144:144|144:112|176:72|208:56|256:32|256:32|256:112,1,260
256,168,145328,1,8
256,256,145522,1,0
256,192,146102,12,4,148812
408,192,151715,6,0,B|408:56,1,130,0|2
104,192,152489,6,0,B|104:328,1,130,0|2
256,192,153457,5,2
256,304,154231,6,4,B|224:264|232:264|120:248|160:192|128:128|232:96|256:136|256:168|256:168|256:136|328:104|368:144|376:224|328:232|320:304|240:248|272:312,1,520
