osu file format v5

[General]
AudioFilename: Dance Dance Revolution 3rd Mix - Scotty D - Drop the Bomb.mp3
AudioLeadIn: 2504
PreviewTime: -1
Countdown: 1
SampleSet: Soft
StackLeniency: 0.7
Mode: 0
LetterboxInBreaks: 1

[Metadata]
Title:Drop The Bomb
Artist:Scotty D
Creator:Pasonia
Version:Normal
Source:Dance Dance Revolution 3
Tags:DDR

[Difficulty]
HPDrainRate:5
CircleSize:3
OverallDifficulty:4
SliderMultiplier:1.5
SliderTickRate:1

[Events]
//Background and Video events
//Break Periods
2,8315,10391
2,27895,29572
2,50274,50351
2,58265,62939
//Storyboard Layer 0 (Background)
//Storyboard Layer 1 (Failing)
//Storyboard Layer 2 (Passing)
//Storyboard Layer 3 (Foreground)
//Storyboard Sound Samples
//Background Colour Transformations
3,100,0,0,0

[TimingPoints]
523,399.6003996004,4,2,0,100,1
3729,-100,4,1,0,100,0
8525,-100,4,2,0,100,0
18115,-100,4,1,0,100,0
50083,-100,4,2,0,100,0
58075,-100,4,1,0,100,0

[Colours]
Combo1 : 106,106,0
Combo2 : 0,255,255
Combo3 : 255,255,0
Combo4 : 192,192,192

[HitObjects]
77,90,523,1,2
306,94,1322,1,2
85,156,2121,1,2
314,160,2920,1,2
401,372,3719,5,4
450,210,4319,2,0,B|410:122|311:191|380:22,1,225
253,44,5318,5,4
393,156,5917,2,0,B|330:237|491:284|361:356,1,225
256,310,6916,5,4
115,197,7516,2,0,B|320:61,1,225
417,279,11711,6,4,B|344:360|264:332,1,150,4|0
245,229,12511,2,8,B|337:145|404:167,1,150,8|0
327,58,13310,2,8,B|235:43|181:132,1,150,8|0
234,219,14109,1,0
162,303,14509,1,0
120,195,14908,6,8,B|221:119|270:149,1,150,8|2
212,245,15707,2,8,B|324:266|356:193,1,150,8|2
398,108,16507,2,8,B|457:220|417:274,1,150,8|2
411,304,17106,1,2
355,303,17306,2,0,B|251:341|180:315,1,150
199,211,18105,5,4
386,331,18904,2,2,B|239:236,1,150
270,138,19703,1,0
209,352,20503,2,2,B|259:191,1,150,2|8
308,219,21102,1,2
362,231,21302,1,2
357,116,21701,6,8,B|460:144,1,75,8|2
441,192,22101,1,6
456,305,22501,2,8,B|355:283,1,75,8|2
366,233,22900,1,6
297,140,23300,2,10,B|251:86|212:135,1,75,8|10
185,149,23699,1,6
205,262,24099,2,12,B|231:291|283:267,1,75,8|0
312,227,24499,1,4
257,39,25897,5,8
256,96,26097,1,8
256,153,26297,1,8
183,241,26696,2,2,B|360:241,1,150
285,345,27496,1,8
227,345,27695,1,4
57,51,30892,6,4,B|97:186|130:337|270:356|443:353|424:273,1,525,4|8
388,253,32491,2,4,B|273:292|194:233|182:189,1,225
301,198,33490,2,4,B|223:188|193:88,1,150
184,45,34089,1,4
256,192,34489,12,0,36886
95,253,37286,5,4
136,212,37486,1,8
177,172,37685,1,0
219,133,37885,2,2,B|281:57|449:132,1,225
406,240,38884,6,4,B|335:214|317:220,1,75,4|8
279,204,39284,1,0
224,190,39484,2,8,B|146:264|25:111,1,225,8|4
137,26,40483,5,4
191,41,40682,1,8
243,64,40882,1,0
297,83,41082,1,8
378,110,41382,2,0,B|500:148,1,112.5,0|8
440,249,42081,5,4
399,289,42281,1,8
378,235,42481,1,0
343,278,42680,2,8,B|236:228|151:361,1,225
91,257,43679,5,0
70,203,43879,1,8
104,157,44079,1,0
82,103,44279,2,0,B|78:19|214:26|228:115|200:172,1,225
399,284,45278,5,4
407,228,45478,1,8
398,283,45677,1,0
406,230,45877,2,0,B|495:132|357:37,1,225
311,57,46676,1,0
255,65,46876,5,0
200,62,47076,1,8
144,80,47276,1,0
99,113,47476,2,0,B|61:228|121:348,1,225
256,192,48475,12,4,50074
68,131,51671,5,4
120,107,51871,1,2
176,96,52071,1,2
229,197,52471,2,2,B|160:234|61:248,1,150
164,328,53270,1,0
221,331,53470,1,2
276,315,53669,1,2
382,271,54069,2,2,B|419:156|383:109,1,150
291,68,54868,5,0
237,88,55068,1,0
184,111,55268,1,0
70,123,55667,2,2,B|91:59|207:21,1,150
290,68,56467,5,0
327,111,56666,1,2
349,163,56866,1,2
342,265,57266,1,2
290,291,57466,1,2
234,277,57665,1,2
205,161,58065,1,4
115,194,64259,5,8
172,196,64459,2,4,B|72:301|163:410|378:394|436:319|416:278|341:180,1,525
387,147,66057,1,0
329,153,66257,2,0,B|241:80|177:180,1,150
270,242,67056,2,4,B|169:274|52:170,1,225
256,192,68055,12,0,70852
155,77,71152,5,0
241,74,71452,2,0,B|374:120|337:263,1,225
235,295,72451,1,0
163,240,72750,1,0
96,185,73050,1,0
349,319,74049,5,4
349,319,74249,1,0
349,319,74449,1,0
310,279,74648,2,0,B|236:207|145:95,1,225
119,69,75448,1,0
65,84,75647,5,0
46,136,75847,1,0
57,190,76047,2,0,B|125:278|181:347|184:53|286:44,1,375
321,91,77246,5,0
332,149,77446,1,0
338,208,77645,2,0,B|348:309|180:346|56:105,1,375
122,102,78844,5,0
179,85,79044,1,0
239,86,79244,2,0,B|409:69|436:322|252:334,1,375
234,297,80443,5,0
192,253,80642,1,0
193,192,80842,2,0,B|161:66|185:18|9:37|50:66|36:223,1,375
59,265,82041,5,0
101,307,82241,1,0
159,318,82441,2,0,B|108:113|303:247|361:248|240:36,1,375
313,54,83639,5,0
368,70,83839,1,0
406,112,84039,2,0,B|500:187|454:328|309:340|226:267,1,375
187,216,85238,6,0,B|225:107|318:160,1,150
356,150,85837,2,0,B|343:68|257:83,1,112.5
203,62,86437,1,8
155,85,86636,1,8
152,138,86836,6,0,B|198:112|255:142,3,75
204,288,88035,1,8
204,288,88135,1,8
204,288,88235,1,8
256,192,88435,12,8,89900
258,192,90433,5,4
