osu file format v14

[General]
AudioFilename: Livin' A Double Life Lyrics.mp3
AudioLeadIn: 0
PreviewTime: 3341
Countdown: 0
SampleSet: Normal
StackLeniency: 0.4
Mode: 0
LetterboxInBreaks: 0
WidescreenStoryboard: 0

[Editor]
DistanceSpacing: 1.2
BeatDivisor: 4
GridSize: 4
TimelineZoom: 1.1

[Metadata]
Title:Livin a Double Life
TitleUnicode:Livin a Double Life
Artist:Scott Simons
ArtistUnicode:Scott Simons
Creator:MkGuh
Version:Gero's Hard
Source:The Thundermans
Tags:Nickelodeon Baraatje123 Gero Jack Griffo Kira Kosarin Addison Riecke Diego Velazquez Chris Tallman Rosa Blasi opening Living
BeatmapID:709177
BeatmapSetID:298219

[Difficulty]
HPDrainRate:6.5
CircleSize:4
OverallDifficulty:6.5
ApproachRate:8
SliderMultiplier:1.45
SliderTickRate:2

[Events]
//Background and Video events
Video,0,"video.avi"
0,0,"BG.jpg",0,0
//Break Periods
//Storyboard Layer 0 (Background)
//Storyboard Layer 1 (Fail)
//Storyboard Layer 2 (Pass)
//Storyboard Layer 3 (Foreground)
//Storyboard Sound Samples

[TimingPoints]
3341,408.163265306122,4,1,2,60,1,0
4973,-100,4,1,4,60,0,0
5075,-100,4,1,2,60,0,0
11504,-100,4,1,4,60,0,0
11606,-100,4,1,2,60,0,0
16415,408.163265306122,4,1,2,80,1,1
20700,-100,4,1,2,40,0,1
20802,-100,4,1,2,80,0,1
21108,-100,4,1,2,40,0,1
21210,-100,4,1,2,80,0,1
21312,-83.3333333333333,4,1,2,80,0,1
21925,-80,4,1,2,80,0,1
22129,-80,4,1,3,80,0,1
22231,-80,4,1,2,80,0,1
22537,-76.9230769230769,4,1,2,80,0,1
22945,-90.9090909090909,4,1,2,80,0,1
27843,-90.9090909090909,4,1,2,80,0,0
31108,-90.9090909090909,4,1,2,60,0,0

[Colours]
Combo1 : 209,58,63
Combo2 : 188,187,213
Combo3 : 221,145,145
Combo4 : 94,78,233
Combo5 : 255,0,0
Combo6 : 255,111,111
Combo7 : 128,0,255
Combo8 : 255,0,128

[HitObjects]
192,44,3341,6,0,P|256:15|320:44,1,145,6|8,0:0|0:0,0:0:0:0:
256,104,3953,1,0,0:0:0:0:
320,164,4157,2,0,P|256:193|192:164,1,145,2|8,0:0|0:0,0:0:0:0:
128,104,4769,6,0,L|152:248,1,145
83,303,5381,1,8,0:0:0:0:
12,252,5585,1,0,0:0:0:0:
83,303,5789,2,0,P|151:281|219:303,1,145,2|8,0:0|0:0,0:0:0:0:
256,384,6402,1,0,0:0:0:0:
219,303,6606,6,0,L|243:234,1,72.5,2|0,0:0|0:0,0:0:0:0:
328,228,7014,2,0,L|352:159,1,72.5,8|0,0:0|0:0,0:0:0:0:
428,116,7422,2,0,B|400:72|348:72|348:72|296:72,1,145,2|8,0:0|0:0,0:0:0:0:
148,28,8034,6,0,L|220:28,1,72.5,0|6,0:0|0:0,0:0:0:0:
76,80,8443,2,0,L|4:80,2,72.5,0|8|0,0:0|0:0|0:0,0:0:0:0:
148,128,9055,2,0,B|148:168|176:192|176:192|148:216|148:256,1,145,2|8,0:0|0:0,0:0:0:0:
113,336,9667,1,8,0:0:0:0:
113,336,9769,1,8,0:0:0:0:
113,336,9871,6,0,P|148:344|183:336,1,72.5,14|0,0:0|0:0,0:0:0:0:
256,288,10279,2,0,P|291:279|326:287,1,72.5,8|0,0:0|0:0,0:0:0:0:
384,352,10687,2,0,P|355:288|384:224,1,145,2|8,0:0|0:0,0:0:0:0:
464,191,11300,6,0,P|493:127|464:63,1,145
396,12,11912,1,8,0:0:0:0:
464,63,12116,1,0,0:0:0:0:
396,12,12320,2,0,B|372:36|372:36|332:36,1,72.5,2|0,0:0|0:0,0:0:0:0:
220,114,12728,2,0,L|292:114,1,72.5,8|0,0:0|0:0,0:0:0:0:
165,178,13136,6,0,L|93:178,1,72.5,2|0,0:0|0:0,0:0:0:0:
220,114,13545,2,0,P|249:178|220:242,1,145,8|2,0:0|0:0,0:0:0:0:
165,308,14157,1,0,0:0:0:0:
220,372,14361,2,0,B|252:372|252:372|260:368|260:368|292:368,1,72.5,8|0,0:0|0:0,0:0:0:0:
165,308,14769,6,0,B|133:308|133:308|125:304|125:304|93:304,1,72.5,6|0,0:0|0:0,0:0:0:0:
220,242,15177,2,0,L|264:242,3,36.25,12|8|8|8,0:0|0:0|0:0|0:0,0:0:0:0:
286,272,15585,2,0,L|330:272,3,36.25,14|8|8|8,0:0|0:0|0:0|0:0,0:0:0:0:
353,303,15994,2,0,L|397:303,3,36.25,12|8|8|8,0:0|0:0|0:0|0:0,0:0:0:0:
424,272,16415,6,0,B|412:306|412:306|424:340,1,72.5,14|0,0:0|0:0,0:0:0:0:
359,203,16823,2,0,B|371:169|371:169|359:135,1,72.5,10|0,0:0|0:0,0:0:0:0:
427,67,17231,1,10,0:0:0:0:
359,3,17435,1,0,0:0:0:0:
291,67,17639,2,0,P|256:75|221:67,1,72.5,10|0,0:0|0:0,0:0:0:0:
153,3,18047,6,0,L|176:148,1,145,14|10,0:0|0:0,0:0:0:0:
108,256,18659,1,0,0:0:0:0:
108,256,18863,2,0,L|97:184,1,72.5,10|0,0:0|0:0,0:0:0:0:
196,268,19272,2,0,L|207:342,1,72.5,10|0,0:0|0:0,0:0:0:0:
343,373,19680,6,0,P|413:373|455:309,1,145,14|10,0:0|0:0,0:0:0:0:
400,240,20292,1,0,0:0:0:0:
347,162,20496,2,0,B|356:127|356:127|347:92,1,72.5,10|4,0:0|0:0,0:0:0:0:
259,57,20904,2,0,B|250:92|250:92|259:127,1,72.5,10|4,0:0|0:0,0:0:0:0:
347,92,21312,6,0,L|172:92,1,173.999994689942,14|10,0:0|0:0,0:0:0:0:
109,12,21925,2,0,P|144:92|107:172,1,181.25,4|4,0:0|0:0,0:0:0:0:
36,248,22537,1,10,0:0:0:0:
109,321,22741,1,12,0:0:0:0:
109,321,22843,1,8,0:0:0:0:
109,321,22945,6,0,P|147:321|186:343,1,79.7500024337769,10|0,0:0|0:0,0:0:0:0:
292,249,23353,2,0,B|256:233|256:233|220:249,1,79.7500024337769,10|0,0:0|0:0,0:0:0:0:
329,340,23761,2,0,P|364:321|404:321,1,79.7500024337769,10|0,0:0|0:0,0:0:0:0:
476,248,24170,1,10,0:0:0:0:
405,172,24374,1,0,0:0:0:0:
476,96,24578,6,0,B|419:40|419:40|328:40,1,159.500004867554,14|10,0:0|0:0,0:0:0:0:
256,88,25190,1,0,0:0:0:0:
180,144,25394,2,0,B|180:169|180:169|176:177|176:177|184:177|184:177|180:185|180:185|180:213,1,79.7500024337769,10|0,0:0|0:0,0:0:0:0:
104,88,25802,2,0,B|104:62|104:62|108:54|108:54|100:54|100:54|104:46|104:46|104:18,1,79.7500024337769,10|0,0:0|0:0,0:0:0:0:
28,144,26210,6,0,B|28:211|28:211|24:219|24:219|32:219|32:219|28:227|28:227|28:294,1,159.500004867554,14|10,0:0|0:0,0:0:0:0:
95,361,26823,1,0,0:0:0:0:
162,293,27027,2,0,P|199:280|236:293,1,79.7500024337769,10|0,0:0|0:0,0:0:0:0:
378,231,27435,2,0,P|341:244|304:231,1,79.7500024337769,10|0,0:0|0:0,0:0:0:0:
452,156,27843,6,0,B|476:232|476:232|452:308,1,159.500004867554,12|8,0:0|0:0,0:0:0:0:
378,231,28455,2,0,B|354:155|354:155|378:79,1,159.500004867554,8|8,0:0|0:0,0:0:0:0:
296,16,29068,2,0,L|216:16,1,79.7500024337769,8|8,0:0|0:0,0:0:0:0:
378,78,29476,6,0,L|458:78,2,79.7500024337769,12|0|8,0:0|0:0|0:0,0:0:0:0:
308,156,30088,2,0,B|244:156|244:156|192:156|164:200,1,159.500004867554,8|8,0:0|0:0,0:0:0:0:
90,273,30700,1,8,0:0:0:0:
163,346,30904,1,8,0:0:0:0:
90,273,31108,6,0,B|52:261|52:261|14:273,1,79.7500024337769,12|0,0:0|0:0,0:0:0:0:
164,199,31517,2,0,B|202:211|202:211|240:199,1,79.7500024337769,8|8,0:0|0:0,0:0:0:0:
90,111,31925,2,0,B|52:99|52:99|14:111,1,79.7500024337769,0|8,0:0|0:0,0:0:0:0:
163,38,32333,2,0,B|201:50|201:50|239:38,1,79.7500024337769,8|8,0:0|0:0,0:0:0:0:
312,111,32741,5,4,0:0:0:0:
256,192,32843,12,4,34374,0:0:0:0:
