osu file format v4

[General]
AudioFilename: Scott_Peeples_-_Castlevania_Wicked_Orchestra_OC_ReMix.mp3
AudioLeadIn: 0
AudioHash: 4e4c3ffc5e184295f9553a4ea06fa979
PreviewTime: -1
SampleSet: Soft

[Metadata]
Title:Castlevania Wicked Orchestra OC ReMix
Artist:Scott Peeples
Creator:WaddleD
Version:Hard

[Difficulty]
HPDrainRate:5
CircleSize:6
OverallDifficulty:7
SliderMultiplier: 1.4
SliderTickRate: 1

[Events]
2,119109,129710

[TimingPoints]
34900,363.676616577932,4,2,0

[HitObjects]
256,192,34899,1,0
256,192,37809,1,0
256,288,40718,5,0
256,224,41082,1,0
256,160,41446,1,0
256,96,41809,1,0
256,288,43628,5,0
256,224,43991,1,0
256,160,44355,1,0
256,96,44719,1,0
256,96,45446,1,2
256,96,46173,1,2
256,32,46537,5,0
288,64,46719,1,0
256,96,46901,1,0
224,128,47083,1,0
256,160,47265,1,0
288,192,47446,1,0
256,224,47628,1,0
224,256,47810,1,0
288,320,48174,1,0
320,288,48356,1,0
352,256,48537,1,0
384,224,48719,1,0
352,192,48901,1,0
320,160,49083,1,0
448,160,49447,5,2
416,128,49628,1,2
384,96,49810,1,2
512,96,50356,5,2
480,64,50538,1,2
448,32,50719,1,2
256,256,51265,5,0
256,192,51629,1,0
256,128,51992,1,0
256,64,52356,5,0
224,96,52538,1,0
256,128,52720,1,0
288,160,52901,1,0
256,192,53083,1,0
224,224,53265,1,0
256,256,53447,1,0
288,288,53629,1,0
224,352,53993,1,0
192,320,54174,1,0
160,288,54356,1,0
128,256,54538,1,0
160,224,54720,1,0
192,192,54902,1,0
64,192,55265,5,2
96,160,55447,1,2
128,128,55629,1,2
0,128,56175,5,2
32,96,56356,1,2
64,64,56538,1,2
256,64,57447,2,4,B|256:64|256:224|256:288,1,140
384,64,58175,6,0,B|384:64|416:64|448:64,5,70
192,64,59448,5,0
128,64,59811,2,0,B|128:64|64:64,4,70
128,320,61084,6,0,L|128:320|64:256|160:160|32:32,1,350
352,32,62357,5,0
384,32,62721,2,0,L|384:32|384:32|416:64|320:160|416:256,1,280
256,32,63994,6,0,L|256:32|256:224,1,140
256,192,64539,2,0,L|256:192|320:192,2,70
256,352,65266,2,0,L|256:352|256:275|256:192,1,140
256,192,65812,2,0,L|256:192|192:192,3,70
32,192,66903,6,0,L|32:192|64:224|128:160|192:224|256:160,1,280
256,192,67812,1,0
256,192,68176,1,0
256,192,68540,2,0,L|256:192|288:160|352:224|416:160|480:224,1,280
448,192,69812,6,0,L|448:192|384:96|320:192|320:192,2,210
384,192,71631,1,0
320,192,71995,1,0
256,192,72358,1,0
64,192,72722,6,0,L|64:192|128:96|192:192,2,210
128,192,74540,1,0
192,192,74904,1,0
256,192,75268,1,0
256,384,75631,6,0,L|256:384|320:320|352:288|256:224,2,210
256,320,77450,1,0
256,256,77813,1,0
256,192,78177,1,0
160,32,78541,2,0,L|160:32|352:128,2,210
96,320,81450,5,0
96,256,81996,1,0
96,192,82541,1,0
96,320,83268,1,2
96,256,83632,1,2
96,192,83996,1,2
192,320,84360,5,0
192,256,84905,1,0
192,192,85451,1,0
192,320,86178,1,2
192,256,86542,1,2
192,192,86905,1,2
320,320,87269,5,0
320,256,87814,1,0
320,192,88360,1,0
320,320,89087,1,2
320,256,89451,1,2
320,192,89815,1,2
448,320,90178,5,0
448,256,90724,1,0
448,192,91269,1,0
448,320,93088,1,0
448,256,93633,1,0
448,192,94179,1,0
64,32,95997,5,0
96,32,96179,1,0
96,64,96361,1,0
128,64,96543,1,0
128,96,96725,1,0
160,96,96906,1,0
160,128,97088,1,0
192,128,97270,1,0
224,160,97634,1,0
224,192,97816,1,0
256,192,97997,1,0
256,224,98179,1,0
256,256,98361,1,0
256,288,98543,1,0
288,224,98907,5,0
288,256,99088,1,0
288,288,99270,1,0
320,224,99816,5,0
320,256,99998,1,0
320,288,100179,1,0
256,352,100725,5,2
256,288,101089,1,2
256,224,101452,1,2
448,32,101816,5,0
416,32,101998,1,0
416,64,102180,1,0
384,64,102362,1,0
384,96,102543,1,0
352,96,102725,1,0
352,128,102907,1,0
320,128,103089,1,0
288,160,103453,1,0
288,192,103634,1,0
256,192,103816,1,0
256,224,103998,1,0
256,256,104180,1,0
256,288,104362,1,0
224,224,104725,5,0
224,256,104907,1,0
224,288,105089,1,0
192,224,105635,5,0
192,256,105816,1,0
192,288,105998,1,0
256,224,106907,5,2
256,320,107271,1,2
256,384,107635,2,0,L|256:384|320:384,5,70
256,320,108908,5,0
256,320,109271,2,0,L|256:320|192:320,4,70
256,256,110544,6,0,L|256:256|320:256,5,70
256,192,111817,5,0
256,192,112181,2,0,L|256:192|256:128,4,70
480,32,113454,6,0,L|480:32|480:128|384:128|384:224|320:224|320:288,1,350
32,32,114727,5,0
32,32,115090,2,0,L|32:32|32:128|96:128|96:224|159:224|192:224,1,350
160,320,116363,6,0,L|160:320|160:224|256:224|256:128|320:64,1,350
352,320,117636,5,0
352,320,118000,2,0,L|352:320|352:223|256:224|256:128|192:64,1,350
192,192,130910,5,0
256,192,131456,1,0
256,128,132001,1,0
192,256,132729,5,0
320,256,133092,1,0
320,128,133456,1,0
256,128,133820,5,0
256,192,134365,1,0
320,192,134911,1,0
192,128,135638,5,0
192,256,136002,1,0
320,256,136365,1,0
320,192,136729,5,0
256,192,137274,1,0
256,256,137820,1,0
320,128,138547,5,0
192,128,138911,1,0
192,256,139275,1,0
256,256,139638,5,0
256,192,140184,1,0
256,64,140729,1,0
192,128,142548,1,0
256,128,143093,1,0
320,128,143639,1,0
