osu file format v8

[General]
AudioFilename: Raised on rock.mp3
AudioLeadIn: 0
PreviewTime: 57563
Countdown: 1
SampleSet: Soft
StackLeniency: 0.7
Mode: 0
LetterboxInBreaks: 1

[Editor]
DistanceSpacing: 0.8
BeatDivisor: 4
GridSize: 8

[Metadata]
Title:Raised On Rock
Artist:Scorpions
Creator:balvag
Version:Insane
Source:
Tags:DiamondCrash

[Difficulty]
HPDrainRate:7
CircleSize:5
OverallDifficulty:7
ApproachRate:7
SliderMultiplier:2
SliderTickRate:1

[Events]
//Background and Video events
0,0,"scorpions0001.jpg"
//Break Periods
2,17443,25943
2,75043,91223
2,140323,154583
//Storyboard Layer 0 (Background)
//Storyboard Layer 1 (Fail)
//Storyboard Layer 2 (Pass)
//Storyboard Layer 3 (Foreground)
Sprite,Foreground,Centre,"pulse.jpg",320,240 L,59483,33 F,1,0,480,0.5,0 S,1,0,480,1,1.05 L,124763,33 F,1,0,480,0.5,0 S,1,0,480,1,1.05
//Storyboard Sound Samples
//Background Colour Transformations
3,100,0,0,0

[TimingPoints]
9563,480,4,2,0,100,1,0
59483,-100,4,2,0,100,0,1
74843,-100,4,2,0,100,0,0
124763,-100,4,2,0,100,0,1
140123,-100,4,2,0,100,0,0
171323,-100,4,2,0,100,0,1

[Colours]
Combo1 : 0,128,255
Combo2 : 192,192,192
Combo3 : 128,0,0
Combo4 : 128,128,64

[HitObjects]
200,32,8363,1,0
312,32,8603,1,8
200,112,8843,5,0
312,112,9083,1,8
256,192,9563,5,4
192,248,9803,6,0,L|152:208,2,50,0|0|8
136,304,10283,1,0
216,304,10523,1,0
296,304,10763,1,0
312,272,10883,1,0
328,304,11003,1,8
416,304,11243,1,0
448,232,11483,1,0
480,160,11723,6,0,B|496:8|248:0|0:8|16:176,1,600
16,240,13403,1,0
72,296,13643,6,0,L|32:335,4,50,0|0|8|0|0
152,296,14363,1,0
152,216,14603,1,0
232,216,14843,1,8
232,136,15083,1,0
296,176,15323,2,0,L|408:176,1,100
440,176,15683,5,0
480,176,15803,1,8
480,96,16043,1,0
400,96,16283,1,0
320,96,16523,2,0,L|256:96,4,50,0|0|8|0|12
320,176,17243,1,4
256,192,26843,5,4
256,352,27323,2,0,L|360:352,1,100,8|0
440,352,27803,2,0,L|440:128|440:128,1,200,0|8
440,64,28523,1,0
360,64,28763,2,0,L|145:278|145:278,1,300,0|0
64,200,29963,1,8
64,120,30203,1,8
144,120,30443,6,0,B|144:176,2,50
144,40,30923,1,0
224,40,31163,1,8
224,120,31403,1,0
304,120,31643,2,0,L|400:120|400:248,1,200,0|8
480,224,32363,1,0
480,304,32603,1,0
400,304,32843,1,0
320,304,33083,2,0,L|200:304,3,100,8|0|0|8
144,304,34043,1,8
144,224,34283,6,0,L|336:224|344:224,1,200
424,224,35003,1,8
496,192,35243,1,0
424,168,35483,1,0
344,168,35723,2,4,L|232:168,1,100,4|12
168,168,36203,6,0,L|168:48,2,100,4|0|0
104,224,36923,1,8
168,272,37163,1,0
200,248,37283,1,0
232,224,37403,1,0
312,224,37643,2,4,L|312:344,2,100,12|12|4
456,192,38603,5,0
456,112,38843,1,8
400,56,39083,2,0,L|448:8,2,50
344,112,39563,1,0
280,168,39803,2,0,L|195:83,1,100,8|0
128,96,40283,1,0
112,64,40403,1,0
88,96,40523,1,0
72,176,40763,2,0,L|72:296,1,100,8|0
136,328,41243,2,0,L|352:328,1,200,0|8
424,192,42203,5,4
344,192,42443,2,0,L|224:192,3,100,0|8|0|0
168,192,43403,1,0
136,160,43523,1,0
168,144,43643,1,8
88,144,43883,1,0
88,64,44123,1,0
168,64,44363,1,0
248,64,44603,1,8
328,64,44843,2,0,L|448:160|320:264,1,300,0|8
272,304,45803,6,0,B|311:343,2,50
192,304,46283,5,0
136,248,46523,1,8
80,192,46763,1,0
24,136,47003,1,0
80,80,47243,1,0
136,136,47483,1,8
216,136,47723,1,0
256,136,47843,1,0
296,136,47963,2,0,L|312:112|328:144|352:144|352:144|368:128,1,100
360,56,48443,2,0,B|416:88|440:136|416:184|360:216,2,200,8|0|8
280,56,49643,6,0,L|80:56|80:56,1,200
80,136,50363,1,8
80,216,50603,1,0
48,240,50723,1,0
80,264,50843,1,0
160,264,51083,2,4,L|280:264,1,100,4|12
304,200,51563,6,0,L|192:200,2,100,4|0|0
384,200,52283,1,8
448,152,52523,2,0,B|487:191,2,50
392,96,53003,2,4,L|306:10,2,100,12|12|4
368,176,53723,5,0
320,240,53963,1,0
272,176,54203,1,8
216,240,54443,2,0,L|216:136|216:24,1,200
136,40,55163,2,0,L|136:144|136:248,1,200,8|0
56,240,55883,1,0
56,160,56123,5,12
256,192,56603,5,4
456,160,57083,5,12
256,192,59483,5,0
256,112,59723,2,0,L|184:112,4,50,0|0|8|0|0
336,112,60443,1,0
408,152,60683,5,0
440,176,60803,1,0
472,200,60923,1,8
408,248,61163,1,0
336,288,61403,1,0
256,288,61643,6,0,L|256:360,2,50,0|0|8
256,208,62123,1,0
176,208,62363,1,0
96,208,62603,2,0,B|96:104,1,100,0|8
96,32,63083,2,0,B|32:32,2,50
192,56,63563,5,8
256,104,63803,1,8
256,184,64043,1,0
392,184,64283,2,0,B|392:280|256:384|128:288|128:184,1,400
120,112,65483,5,0
152,88,65603,1,0
184,112,65723,1,8
248,112,65963,1,0
280,88,66083,1,0
312,112,66203,1,0
384,152,66443,5,0
456,192,66683,1,8
384,232,66923,1,0
384,312,67163,6,0,B|312:312,1,50
336,312,67403,2,0,B|264:312,1,50
248,312,67643,2,0,B|248:368,2,50,8|0|8
168,312,68123,2,0,B|96:312,1,50
120,312,68363,2,0,B|120:240,1,50
120,224,68603,2,0,B|64:224,2,50,8|0|8
120,144,69083,1,0
200,144,69323,5,0
240,144,69443,1,0
280,144,69563,2,0,B|288:96|312:80|328:128|328:160,1,100,8|0
384,88,70043,1,0
448,40,70283,1,0
448,80,70403,1,0
448,120,70523,1,8
448,200,70763,1,0
448,280,71003,6,0,B|498:330,4,50,0|0|0|0|8
368,280,71723,2,0,B|352:24|312:368|256:320|256:176,1,300,0|8
48,320,73163,5,4
48,160,73643,1,4
48,80,73883,5,4
256,192,74363,1,8
256,192,74483,1,0
256,192,74603,1,4
256,192,74723,1,0
256,192,74843,1,4
256,192,92123,5,4
256,32,92603,2,0,L|152:32,1,100,8|0
72,32,93083,2,0,L|72:256|72:256,1,200,0|8
72,320,93803,1,0
152,320,94043,2,0,L|367:106|367:106,1,300,0|0
448,184,95243,1,8
448,264,95483,1,8
368,264,95723,2,0,B|368:320,1,50
368,312,95963,6,0,B|407:351,2,50
288,312,96443,1,8
208,312,96683,1,0
208,232,96923,2,0,L|112:232|112:104,1,200,0|8
32,128,97643,1,0
32,48,97883,1,0
112,48,98123,1,0
192,48,98363,2,0,L|312:48,3,100,8|0|0|8
368,48,99323,1,8
368,128,99563,6,0,L|176:128|168:128,1,200
88,128,100283,1,8
16,160,100523,1,0
88,184,100763,1,0
168,184,101003,2,4,L|280:184,1,100,4|12
328,240,101483,6,0,L|328:360,2,100,4|0|0
392,184,102203,1,8
352,112,102443,1,0
320,136,102563,1,0
288,160,102683,1,0
200,160,102923,2,4,L|200:40,2,100,12|12|4
56,192,103883,5,0
56,272,104123,1,8
112,328,104363,2,0,L|64:376,2,50
168,272,104843,1,0
232,216,105083,2,0,L|317:301,1,100,8|0
384,288,105563,1,0
408,320,105683,1,0
432,288,105803,1,0
440,208,106043,2,0,L|440:88,1,100,8|0
376,64,106523,1,8
296,64,106763,1,0
216,64,107003,1,8
184,88,107123,1,0
152,112,107243,1,8
88,160,107483,5,4
152,208,107723,2,0,L|272:208,3,100,0|8|0|0
320,160,108683,1,0
320,240,108923,1,8
360,240,109043,1,0
400,240,109163,1,0
400,320,109403,1,0
320,320,109643,1,0
240,320,109883,1,8
160,320,110123,2,0,L|40:224|168:120,1,300,0|8
216,88,111083,2,0,B|177:49,2,50
296,88,111563,5,0
360,136,111803,1,8
424,184,112043,1,0
488,232,112283,1,0
424,280,112523,1,0
360,232,112763,1,8
280,232,113003,1,0
240,232,113123,1,0
200,232,113243,2,0,L|184:256|168:224|144:224|144:224|128:240,1,100
136,312,113723,2,0,B|80:280|56:232|80:184|136:152,2,200,8|0|8
216,312,114923,6,0,L|416:312|416:312,1,200
472,248,115643,1,8
472,168,115883,1,0
504,144,116003,1,0
472,120,116123,1,0
392,120,116363,2,4,L|272:120,1,100,4|12
240,176,116843,6,0,L|352:176,2,100,4|0|0
160,176,117563,1,8
96,232,117803,2,0,B|57:193,2,50
152,288,118283,2,4,L|238:374,2,100,12|12|4
176,208,119003,5,0
216,144,119243,1,0
256,208,119483,1,8
304,144,119723,2,0,L|304:248|304:360,1,200
384,344,120443,2,0,L|384:240|384:136,1,200,8|0
464,144,121163,1,0
464,224,121403,5,12
256,192,121883,5,4
48,224,122363,5,12
256,192,124763,5,0
256,272,125003,2,0,L|328:272,4,50,0|0|8|0|0
176,272,125723,1,0
104,232,125963,5,0
72,208,126083,1,0
40,184,126203,1,8
104,136,126443,1,0
176,96,126683,1,0
256,96,126923,6,0,L|256:24,2,50,0|0|8
256,176,127403,1,0
336,176,127643,1,0
416,176,127883,2,0,B|416:280,1,100,0|8
416,360,128363,2,0,B|480:360,2,50
320,328,128843,5,8
256,280,129083,1,8
256,200,129323,1,0
120,200,129563,2,0,B|120:104|256:0|384:96|384:200,1,400
392,272,130763,5,0
360,296,130883,1,0
328,272,131003,1,8
264,272,131243,1,0
232,296,131363,1,0
200,272,131483,1,0
128,232,131723,5,0
56,192,131963,1,8
128,152,132203,1,0
128,72,132443,6,0,B|200:72,1,50
176,72,132683,2,0,B|248:72,1,50
264,72,132923,2,0,B|264:16,2,50,8|0|8
344,72,133403,2,0,B|416:72,1,50
392,72,133643,2,0,B|392:144,1,50
392,160,133883,2,0,B|448:160,2,50,8|0|8
392,240,134363,1,0
312,240,134603,5,0
272,240,134723,1,0
232,240,134843,2,0,B|224:288|200:304|184:256|184:224,1,100,8|0
128,296,135323,1,0
64,344,135563,1,0
64,304,135683,1,0
64,264,135803,1,8
64,184,136043,1,0
64,104,136283,6,0,B|14:54,4,50,0|0|0|0|8
144,104,137003,2,0,B|160:360|200:16|256:64|256:208,1,300,0|8
464,64,138443,5,4
464,224,138923,1,4
464,304,139163,5,4
256,192,139643,1,8
256,192,139763,1,0
256,192,139883,1,4
256,192,140003,1,0
256,192,140123,1,4
256,192,155483,5,4
256,32,155963,5,8
320,80,156203,1,0
384,32,156443,1,0
448,80,156683,2,0,B|448:200,1,100,0|8
448,256,157163,2,0,B|512:256,2,50,0|0|8
448,336,157643,2,0,B|152:320|536:72|88:104,1,500,8|8
48,160,159083,5,0
72,192,159203,1,0
104,224,159323,1,4
176,264,159563,1,0
256,264,159803,2,0,B|256:376|400:168|400:304,1,200,8|0
480,288,160523,1,0
480,208,160763,1,8
480,128,161003,2,0,B|400:24|256:0|96:16|32:144,1,500
40,208,162443,5,8
40,288,162683,1,0
80,288,162803,1,0
120,288,162923,1,8
200,288,163163,1,4
280,288,163403,2,0,B|384:288,1,100,0|8
448,240,163883,2,0,B|344:240,1,100
304,240,164243,1,0
304,200,164363,1,0
368,152,164603,1,8
432,104,164843,1,0
368,48,165083,2,0,B|288:152|192:40,3,200,0|8|0|8
120,48,166763,5,0
120,128,167003,1,4
120,208,167243,2,0,B|232:208,1,100,0|8
160,264,167723,2,0,B|272:264,1,100
200,320,168203,2,0,B|312:320,1,100,0|8
256,192,168923,12,4,171323
