osu file format v9

[General]
AudioFilename: 06 And No Matches.mp3
AudioLeadIn: 2018
PreviewTime: 35092
Countdown: 1
SampleSet: Soft
StackLeniency: 0.7
Mode: 0
LetterboxInBreaks: 1

[Editor]
Bookmarks: 75437,141851
DistanceSpacing: 0.9
BeatDivisor: 4
GridSize: 8

[Metadata]
Title:And No Matches
Artist:Scooter
Creator:ztrot
Version:Jump!
Source:
Tags:Jumping All Over The World

[Difficulty]
HPDrainRate:6
CircleSize:4
OverallDifficulty:7
ApproachRate:8
SliderMultiplier:2
SliderTickRate:2

[Events]
//Background and Video events
0,0,"BG.jpg"
//Break Periods
2,75636,87307
2,168326,173376
//Storyboard Layer 0 (Background)
//Storyboard Layer 1 (Fail)
//Storyboard Layer 2 (Pass)
//Storyboard Layer 3 (Foreground)
//Storyboard Sound Samples
//Background Colour Transformations
3,100,163,162,255

[TimingPoints]
954,413.793103448276,4,2,0,80,1,0
7471,-100,4,1,0,80,0,0
34885,-100,4,2,0,80,0,0
47506,-100,4,2,0,40,0,0
48230,-100,4,2,0,70,0,0
62092,-100,4,1,0,74,0,0
101092,-100,4,2,0,74,0,0
174644,-100,4,1,0,74,0,0
201023,-100,4,2,0,74,0,0
206816,-100,4,2,0,0,0,0

[Colours]
Combo1 : 170,170,170
Combo2 : 72,196,255
Combo3 : 84,84,171
Combo4 : 133,3,3

[HitObjects]
256,352,333,1,0
256,264,540,1,0
208,184,747,1,0
304,184,953,1,4
72,264,1367,1,2
440,264,1781,1,2
256,112,2195,5,0
208,184,2402,1,0
304,184,2609,1,6
72,120,3022,1,2
440,120,3436,1,2
304,232,3850,5,2
208,232,4057,1,0
160,320,4264,2,0,B|256:368|352:320,1,200,6|2
304,232,4885,1,0
208,232,5091,1,2
344,144,5298,1,0
168,144,5505,1,2
256,72,5712,1,0
256,232,5919,1,2
256,192,6126,12,4,7574
56,336,7988,5,8
56,248,8195,1,0
128,192,8402,2,0,B|176:288|296:296,1,200,0|8
376,296,9022,1,0
456,248,9229,2,0,B|456:136,1,100
360,40,9643,2,0,B|360:152,1,100,8|0
136,296,10264,5,0
136,296,10367,1,0
136,296,10471,1,8
64,240,10678,1,0
64,152,10885,2,0,B|160:192|272:152,1,200,4|8
160,88,11505,5,0
256,64,11712,1,0
352,88,11919,1,0
256,160,12126,1,8
208,256,12333,2,0,B|320:256,1,100,0|4
256,64,12953,1,4
120,264,13367,5,2
120,264,13471,1,4
208,240,13678,1,2
208,240,13781,1,4
304,240,13988,1,2
392,264,14195,5,2
424,232,14298,1,0
448,192,14402,2,2,B|496:149|476:41|370:63,1,200
120,264,15022,5,2
88,232,15126,1,0
64,192,15229,1,0
64,192,15436,2,2,B|16:149|36:41|142:63,1,200
208,16,16057,1,0
304,16,16264,1,8
256,88,16471,1,0
304,160,16678,2,2,B|256:192|208:160,2,100,2|0|10
168,272,17505,5,0
256,312,17712,1,0
344,272,17919,1,8
256,224,18126,1,0
304,144,18333,2,0,B|200:144,2,100
304,56,18953,5,0
208,56,19160,1,4
400,192,19574,1,4
112,192,19988,1,4
104,280,20195,5,0
184,320,20402,1,0
256,264,20609,1,0
328,320,20816,2,0,B|440:320|448:240|424:176,2,200,0|8|0
256,264,21850,1,0
256,176,22057,1,8
208,352,22471,5,0
304,352,22678,1,0
176,352,22885,1,8
336,352,23091,1,0
424,192,23505,5,0
424,144,23609,1,0
424,96,23712,1,8
336,96,23919,1,0
256,48,24126,2,0,B|256:248,2,200,4|8|4
176,96,25160,1,0
88,96,25367,1,8
88,184,25574,1,0
176,208,25781,5,2
336,208,25988,1,0
256,272,26195,1,2
256,272,26402,1,2
88,336,26816,5,8
88,288,26919,1,0
88,240,27022,1,0
88,152,27229,2,0,B|24:152|0:216,1,100
16,288,27643,5,2
152,336,27850,1,0
272,264,28057,1,2
496,288,28471,5,2
360,336,28678,1,0
240,264,28885,1,2
256,88,29298,5,2
256,136,29402,1,0
256,184,29505,2,2,B|256:296,1,100
360,136,30126,5,0
152,168,30333,1,8
360,208,30540,1,0
152,240,30747,2,0,B|256:272|288:192|368:264,1,200,4|8
346,247,31367,1,4
344,64,31781,5,0
256,80,31988,1,8
168,64,32195,1,0
256,176,32402,2,0,B|256:304|128:304,1,200,4|8
152,192,33022,1,0
40,208,33229,2,0,B|40:80|168:80,1,200,4|8
256,328,34057,1,4
256,40,35091,5,0
304,120,35298,1,0
208,120,35505,1,0
256,200,35712,1,6
432,344,36126,1,2
80,344,36540,1,2
216,352,36747,5,0
256,328,36850,1,0
296,352,36954,1,0
344,272,37160,1,0
168,272,37367,1,6
424,272,37781,1,0
88,272,38195,1,2
136,192,38402,6,0,B|96:144,2,50,0|0|2
208,136,38816,1,0
304,136,39022,1,2
376,192,39229,2,0,B|416:144,2,50,0|0|2
320,264,39643,1,0
256,200,39850,1,2
192,264,40057,1,0
256,200,40264,1,2
256,200,40471,1,0
152,112,40678,6,0,B|176:176|216:176|216:176|216:136|216:136|256:88|256:88|296:136|296:136|296:176|296:176|344:176|360:112,1,400,2|2
464,328,41919,5,0
464,240,42126,1,0
464,152,42333,1,6
256,360,42747,1,0
48,152,43160,1,6
208,232,43574,5,0
304,232,43781,1,0
256,160,43988,1,6
48,40,44402,1,2
464,40,44816,1,6
256,160,45229,5,0
208,232,45436,1,0
304,232,45643,1,6
256,64,46057,5,0
256,192,46264,1,0
184,128,46471,1,6
328,128,46678,1,0
184,256,46885,1,2
328,256,47091,1,0
256,320,47298,1,2
256,32,47712,5,6
256,32,48126,1,6
256,120,48333,5,0
168,120,48540,1,0
80,120,48747,1,0
80,208,48954,2,0,B|232:208,1,150,2|0
230,208,49367,2,0,B|352:208,1,100,8|0
328,296,49781,2,0,B|416:328|448:224,1,150,2|0
444,235,50195,2,0,B|472:168|416:136,1,100,8|0
256,64,50609,6,0,B|408:64,1,150,2|0
406,64,51022,2,0,B|464:72|488:128,1,100,8|0
320,192,51436,2,0,B|168:192,1,150,2|0
170,192,51850,2,0,B|104:176|72:256,1,100,8|0
160,280,52264,1,2
352,280,52678,5,2
256,256,52885,1,0
160,280,53091,1,2
352,192,53298,1,0
256,160,53505,1,2
160,192,53712,1,0
360,112,53919,2,0,B|336:48|296:48|296:48|296:88|296:88|256:136|256:136|216:88|216:88|216:48|216:48|168:48|152:112,1,400,2|4
328,288,55160,5,2
256,240,55367,1,0
184,288,55574,1,4
408,184,55988,1,2
104,184,56402,1,6
256,328,56816,5,2
256,240,57022,1,0
256,152,57229,1,6
408,344,57643,1,0
104,344,58057,1,6
256,240,58471,5,2
256,152,58678,1,0
256,104,58781,1,0
256,56,58885,1,6
176,216,59298,5,2
336,216,59505,1,0
256,56,59712,1,6
176,216,59919,1,0
368,104,60126,1,2
144,104,60333,1,0
256,240,60540,1,4
256,152,60747,5,0
368,104,60954,1,0
256,56,61160,1,0
144,104,61367,2,0,B|144:176,8,50,0|0|0|0|0|0|0|0|4
152,280,62609,1,8
360,280,63022,1,0
256,128,63436,5,8
256,216,63643,1,8
184,168,63850,1,0
328,168,64160,1,2
328,168,64264,1,0
256,216,64471,1,0
200,280,64678,5,0
184,320,64781,1,0
216,352,64885,1,0
256,344,64988,1,0
296,352,65091,1,0
328,320,65195,1,0
312,280,65298,1,0
256,264,65402,1,0
256,216,65505,5,4
80,208,65919,1,8
432,208,66333,1,4
320,64,66747,1,8
192,64,66954,1,8
360,144,67160,2,2,B|336:208|296:208|296:208|296:168|296:168|256:120|256:120|216:168|216:168|216:208|216:208|168:208|152:144,1,400,2|2
184,320,68402,5,0
256,264,68609,1,0
328,320,68816,1,4
112,224,69229,1,0
400,224,69643,1,4
344,152,69850,5,0
344,152,69954,1,0
344,152,70057,1,0
168,152,70264,1,0
392,320,70471,1,4
120,320,70885,1,0
256,200,71298,5,0
216,216,71402,1,0
200,256,71505,1,0
216,296,71609,1,0
256,312,71712,1,0
296,296,71816,1,0
312,256,71919,1,0
344,160,72126,6,2,B|312:112|256:120|200:112|168:160,1,200,6|2
88,120,72747,1,0
152,40,72954,1,2
88,120,73160,1,0
256,32,73367,1,2
88,120,73574,1,0
360,40,73781,1,2
256,192,74195,1,0
152,344,74609,5,0
208,272,74816,1,0
304,272,75022,1,0
360,344,75229,1,0
256,344,75436,1,4
256,40,88057,5,0
344,40,88264,1,0
408,104,88471,1,0
440,192,88678,2,0,B|344:136|344:272|240:192,1,200,4|8
176,344,89505,1,0
104,280,89712,1,0
104,192,89919,1,8
320,88,90333,5,8
192,88,90540,1,0
256,176,90747,1,0
256,8,90954,1,8
176,192,91367,5,0
176,192,91471,1,0
176,192,91574,1,0
208,272,91781,1,0
304,272,91988,2,0,B|432:272|432:152,1,200,4|8
384,80,92609,1,0
304,112,92816,1,0
208,112,93022,1,0
128,80,93229,1,8
256,344,93643,5,8
320,272,93850,1,0
192,272,94057,1,0
256,208,94264,1,8
304,40,94678,1,0
256,40,94781,1,0
208,40,94885,1,0
256,120,95091,1,0
112,192,95298,5,4
400,192,95712,1,8
256,336,96126,1,4
192,240,96333,1,0
320,240,96540,1,8
256,48,96954,5,0
320,144,97160,1,0
192,144,97367,1,8
456,48,97988,5,0
456,96,98091,1,0
440,136,98195,2,0,B|408:176|344:168,1,100,8|0
352,80,98609,1,0
160,80,99022,5,8
256,32,99229,1,0
256,216,99643,1,0
256,128,99850,1,8
336,176,100057,1,0
336,264,100264,1,4
256,312,100471,1,0
176,264,100678,1,4
176,176,100885,1,4
256,16,101298,5,0
184,72,101505,1,0
328,72,101712,1,0
256,128,101919,1,4
464,192,102333,1,2
48,192,102747,2,0,B|200:192,1,150,0|2
198,192,103160,2,0,B|264:192|272:256,1,100
224,328,103574,1,2
416,56,103988,1,2
224,328,104402,1,0
256,48,104816,5,0
256,48,105022,1,0
192,128,105229,2,0,B|144:136|96:96,1,100,2|0
328,192,105643,2,0,B|376:200|424:160,1,100,0|2
192,248,106057,2,0,B|144:256|96:216,1,100,2|0
328,320,106471,2,0,B|376:328|424:288,1,100,0|2
416,160,106885,2,0,B|336:40|256:32|168:40|96:168,1,400,2|2
208,344,108126,5,0
304,344,108333,1,0
256,272,108540,1,6
256,24,108954,1,2
256,272,109367,2,0,B|96:272,1,150,2|0
106,272,109781,2,0,B|48:272|32:216,1,100,8|0
32,128,110195,5,6
480,128,110609,1,2
32,128,111022,1,6
200,192,111436,5,2
312,192,111643,1,0
256,256,111850,1,6
256,128,112057,1,0
360,104,112264,2,0,B|408:128|416:184,1,100,2|0
152,104,112678,2,0,B|104:128|96:184,1,100,4|0
344,272,113091,2,0,B|392:296|400:352,1,100,2|0
168,272,113505,2,0,B|120:296|112:352,1,100,6|0
256,192,113816,12,4,115160
256,40,115574,5,0
256,344,115988,2,0,B|408:344,1,150
406,344,116402,2,0,B|480:344|480:288,1,100,8|0
480,200,116816,1,4
32,200,117229,1,12
400,144,117643,5,2
360,128,117747,1,0
320,104,117850,1,0
280,96,117954,1,0
256,64,118057,1,2
232,96,118160,1,0
192,104,118264,1,0
152,128,118367,1,0
112,144,118471,1,6
256,344,118885,1,0
304,272,119091,1,0
208,272,119298,1,6
320,40,119712,5,0
256,104,119919,1,0
192,40,120126,2,0,B|120:128|192:192|256:216|320:192|384:128|320:40,1,400,2|6
416,192,121367,5,0
416,280,121574,1,0
328,304,121781,2,0,B|176:304,1,150
178,304,122195,2,0,B|112:304|112:248,1,100,8|0
176,184,122609,2,0,B|336:184,1,150
326,184,123022,2,0,B|384:184|384:248,1,100,8|0
448,184,123436,5,6
64,184,123850,1,2
128,16,124264,1,6
136,64,124367,1,0
168,96,124471,1,0
208,104,124574,1,0
256,104,124678,1,2
304,104,124781,1,0
344,96,124885,1,0
376,64,124988,1,0
384,16,125091,1,6
256,208,125505,5,2
192,272,125712,1,0
256,208,125919,1,2
128,328,126126,1,0
256,208,126333,1,2
320,272,126540,1,0
256,208,126747,1,2
384,328,126954,1,0
256,208,127160,1,2
256,120,127367,1,0
256,208,127574,1,2
256,32,127781,1,0
152,128,127988,5,2
256,120,128195,1,0
360,128,128402,1,4
256,336,128816,1,0
152,128,129229,1,4
328,24,129643,5,0
328,24,129850,1,0
328,24,130057,1,4
256,208,130471,1,2
184,24,130885,5,2
136,32,130988,1,0
112,72,131091,1,0
96,112,131195,1,0
96,160,131298,1,2
112,200,131402,1,0
136,240,131505,1,0
184,240,131609,1,0
232,240,131712,5,2
256,72,131919,1,0
384,184,132126,1,4
280,240,132540,5,2
128,184,132747,1,0
256,72,132954,1,4
256,344,133367,5,0
256,344,133781,1,0
256,344,134195,1,0
256,256,134402,5,0
192,192,134609,1,0
104,192,134816,1,0
56,112,135022,2,0,B|208:112,1,150
206,112,135436,2,0,B|264:112|264:48,1,100,8|0
352,48,135850,2,0,B|456:88|448:168,1,150
448,151,136264,2,8,B|440:216|392:232,1,100
344,152,136678,2,0,B|192:152,1,150,0|0
194,152,137091,2,0,B|128:152|112:224,1,100,8|0
192,256,137505,6,0,B|232:304,1,50,2|2
264,280,137712,2,0,B|304:328,1,50
344,320,137919,2,0,B|384:360,1,50,2|0
416,312,138126,2,0,B|376:272,1,50
384,232,138333,1,0
192,152,138747,5,8
320,152,138954,1,0
176,152,139160,1,2
336,152,139367,1,0
160,152,139574,1,2
352,152,139781,1,0
256,64,139988,1,4
136,296,140402,1,4
376,296,140816,1,4
256,160,141229,5,0
208,232,141436,1,0
304,232,141643,1,4
256,56,142057,5,2
256,144,142264,1,0
336,104,142471,1,2
256,144,142678,1,0
336,192,142885,1,2
256,240,143091,2,0,B|152:240,2,100,0|2|0
256,328,143712,1,2
256,328,143919,2,0,B|352:280|352:368|464:320,1,200
448,240,144540,1,2
448,152,144747,1,0
448,64,144954,6,2,B|352:120|248:64,1,200
64,64,145574,2,0,B|160:120|264:64,1,200
256,160,146195,1,2
208,240,146402,1,0
304,240,146609,2,0,B|312:328|240:368|160:320,1,200,0|2
112,264,147229,2,0,B|24:208|40:80,1,200
120,48,147850,1,2
160,128,148057,1,0
216,56,148264,6,0,B|312:16|416:56,1,200,0|2
440,136,148885,1,0
416,224,149091,1,2
416,224,149195,1,0
416,224,149298,1,0
336,192,149505,1,2
256,240,149712,1,0
176,192,149919,2,0,B|72:208|128:96|32:72,1,200,2|2
112,24,150540,2,0,B|216:0|312:80,1,200
392,72,151160,1,2
344,144,151367,1,0
256,192,151574,12,0,154471
256,56,154885,5,2
192,120,155091,1,0
256,184,155298,1,2
320,120,155505,1,0
256,184,155712,1,2
192,248,155919,1,0
120,304,156126,1,2
192,248,156333,1,0
256,312,156540,1,2
320,248,156747,1,0
392,304,156954,5,2
256,32,157367,1,2
120,304,157781,1,2
176,232,157988,1,0
256,192,158195,1,2
336,232,158402,1,0
392,304,158609,5,2
392,128,159022,1,0
120,128,159436,1,2
120,216,159643,1,0
120,304,159850,1,2
200,256,160057,1,0
312,256,160264,1,2
392,216,160471,1,0
392,304,160678,5,2
256,88,161091,1,2
120,304,161505,1,2
200,256,161712,1,0
312,256,161919,1,2
392,304,162126,1,0
356,177,162333,6,0,B|140:177,2,200,2|2|2
356,179,163367,1,0
256,328,163781,5,0
192,264,163988,2,0,B|112:328,1,100,2|0
320,264,164402,2,0,B|400:328,1,100,2|0
192,160,164816,2,0,B|112:224,1,100,2|0
320,160,165229,2,2,B|400:224,1,100
355,57,165643,6,2,B|139:57,1,200
104,136,166264,1,0
136,216,166471,1,2
224,216,166678,2,0,B|328:184|424:240,1,200
416,328,167298,1,2
96,328,167712,1,0
256,48,168126,1,0
256,40,174126,5,0
304,112,174333,1,0
208,112,174540,1,0
256,40,174747,1,4
256,344,175160,5,0
256,40,175574,2,0,B|104:40,1,150
106,40,175988,2,0,B|32:40|32:96,1,100,8|0
32,184,176402,1,0
480,184,176816,1,8
112,240,177229,5,2
152,256,177333,1,0
192,280,177436,1,0
232,288,177540,1,0
256,320,177643,1,2
280,288,177747,1,0
320,280,177850,1,0
360,256,177953,1,0
400,240,178057,1,2
256,40,178471,1,0
208,112,178678,1,0
304,112,178885,1,2
192,344,179298,5,0
256,280,179505,1,0
320,344,179712,2,0,B|392:256|320:192|256:168|192:192|128:256|192:344,1,400,4|4
96,192,180953,5,0
96,104,181160,1,0
184,80,181367,2,0,B|336:80,1,150
334,80,181781,2,0,B|400:80|400:136,1,100,8|0
336,200,182195,2,0,B|176:200,1,150
186,200,182609,2,0,B|128:200|128:136,1,100,8|0
64,200,183022,5,4
448,200,183436,1,0
384,368,183850,1,6
376,320,183953,1,0
344,288,184057,1,0
304,280,184160,1,0
256,272,184264,1,0
208,280,184367,1,0
168,288,184471,1,0
136,320,184574,1,0
128,368,184678,1,6
256,176,185091,5,2
320,112,185298,1,0
256,176,185505,1,2
384,56,185712,1,0
256,176,185919,1,2
192,112,186126,1,0
256,176,186333,1,2
128,56,186540,1,0
256,176,186747,1,2
256,264,186953,1,0
256,176,187160,1,2
256,352,187367,1,0
360,256,187574,5,2
256,264,187781,1,0
152,256,187988,1,4
256,48,188402,1,0
360,256,188816,1,4
184,360,189229,5,0
184,360,189436,1,0
184,360,189643,1,4
256,176,190057,1,2
328,360,190471,5,2
376,352,190574,1,0
400,312,190678,1,0
416,272,190781,1,0
416,224,190885,1,2
400,184,190988,1,0
376,144,191091,1,0
328,144,191195,1,0
256,144,191298,5,2
256,312,191505,1,0
128,200,191712,1,4
256,312,191919,1,0
256,144,192126,1,2
256,312,192333,1,0
384,200,192540,1,4
256,312,192747,1,0
256,40,192953,5,0
256,40,193367,1,0
256,40,193781,1,0
256,128,193988,5,0
320,192,194195,1,0
408,192,194402,1,0
456,272,194609,2,0,B|304:272,1,150
306,272,195022,2,0,B|248:272|248:336,1,100,8|0
160,336,195436,2,0,B|56:296|64:216,1,150
64,233,195850,2,8,B|72:168|120:152,1,100
168,232,196264,2,0,B|320:232,1,150,0|0
318,232,196678,2,0,B|384:232|400:160,1,100,8|0
320,128,197091,6,0,B|280:80,1,50,2|0
248,104,197298,2,0,B|208:56,1,50
168,64,197505,2,0,B|128:24,1,50,2|0
96,72,197712,2,0,B|136:112,1,50
128,152,197919,1,2
320,232,198333,5,10
192,232,198540,1,0
336,232,198747,1,2
176,232,198953,1,0
352,232,199160,1,2
160,232,199367,1,0
256,320,199574,1,4
376,88,199988,1,4
136,88,200402,1,4
256,352,201229,5,2
440,48,201643,1,0
72,48,202057,1,2
208,288,202471,5,2
256,216,202678,1,0
304,288,202885,1,2
256,40,203298,1,0
208,288,203712,1,2
184,112,204126,5,0
256,168,204333,1,0
328,112,204540,1,2
400,280,204953,5,2
312,296,205160,1,0
112,280,205367,1,2
200,296,205574,1,0
256,112,205781,1,2
256,200,205988,1,0
256,112,206195,1,2
256,192,206609,12,0,209712
