osu file format v9

[General]
AudioFilename: 06 And No Matches.mp3
AudioLeadIn: 2018
PreviewTime: 35092
Countdown: 1
SampleSet: Soft
StackLeniency: 0.7
Mode: 0
LetterboxInBreaks: 1

[Editor]
Bookmarks: 75437,141851
DistanceSpacing: 0.9
BeatDivisor: 2
GridSize: 8

[Metadata]
Title:And No Matches
Artist:Scooter
Creator:ztrot
Version:Hop!
Source:
Tags:Jumping All Over The World

[Difficulty]
HPDrainRate:4
CircleSize:4
OverallDifficulty:4
ApproachRate:4
SliderMultiplier:1.4
SliderTickRate:2

[Events]
//Background and Video events
0,0,"BG.jpg"
//Break Periods
2,75637,87358
2,141843,153565
//Storyboard Layer 0 (Background)
//Storyboard Layer 1 (Fail)
//Storyboard Layer 2 (Pass)
//Storyboard Layer 3 (Foreground)
//Storyboard Sound Samples
//Background Colour Transformations
3,100,163,162,255

[TimingPoints]
954,413.793103448276,4,2,0,80,1,0
7471,-100,4,1,0,80,0,0
34885,-100,4,2,0,80,0,0
62092,-100,4,1,0,74,0,0
101092,-100,4,2,0,74,0,0
174644,-100,4,1,0,74,0,0
201023,-100,4,2,0,74,0,0

[Colours]
Combo1 : 170,170,170
Combo2 : 72,196,255
Combo3 : 84,84,171
Combo4 : 133,3,3

[HitObjects]
256,320,954,2,0,B|168:320|168:232,2,140,4|0|0
256,64,2609,2,0,B|344:64|344:152,2,140,4|0|0
256,192,3850,5,0
192,296,4264,2,0,B|256:344|320:296,3,140,4|0|0|0
256,192,5919,12,4,7574
256,64,8402,5,8
256,320,9229,1,0
256,192,9643,1,0
256,64,10057,1,8
40,192,10885,6,0,B|40:272|72:336|184:352|256:320,1,280,4|8
256,80,12540,1,0
320,192,12953,1,0
192,192,13367,1,8
472,192,14195,6,0,B|472:272|440:336|328:352|256:320,1,280,4|8
352,224,15436,1,0
472,192,15850,6,0,B|472:112|440:48|328:32|256:64,1,280,4|8
352,160,17091,1,0
256,264,17505,5,4
256,120,17919,1,8
152,192,18333,1,4
256,264,18747,1,8
360,188,19160,2,0,B|360:184|360:184|356:184|356:184|356:188|356:188|356:192|356:192|360:192|360:192|360:196|360:196|356:196|356:196|352:196|352:196|352:192|352:192|352:188|352:188|352:184|352:184|348:184|348:184|348:188|348:188|348:192|348:192|348:196|348:196|344:196|344:196|344:192|344:192|344:188|344:188|344:184|344:184|340:184|340:184|340:188|340:188|340:192|340:192|340:196|340:196|336:196|336:196|336:192|336:192|336:188|336:188|336:184|336:184|332:184|332:184|332:188|332:188|332:192|332:192|332:196|332:196|328:196|328:196|328:192|328:192|328:188|328:188|328:184|328:184|324:184|324:184|324:188|324:188|324:192|324:192|324:196|324:196|320:196|320:196|320:192|320:192|320:188|320:188|320:184|320:184|316:184|316:184|316:188|316:188|316:192|316:192|316:196|316:196|312:196|312:196|312:192|312:192|312:188|312:188|312:184|312:184|308:184|308:184|308:188|308:188|308:192|308:192|308:196|308:196|304:196|304:196|304:192|304:192|304:188|304:188|304:184|304:184|300:184|300:184|300:188|300:188|300:192|300:192|300:196|300:196|296:196|296:196|296:192|296:192|296:188|296:188|296:184|296:184|292:184|292:184|280:184|280:184|292:192|292:192,2,280,4|4|4
128,88,21643,5,8
160,336,22471,1,0
256,256,22885,1,0
352,336,23298,1,8
352,80,24126,5,4
256,168,24540,1,0
160,80,24953,1,8
376,216,25781,5,0
256,264,26195,1,0
136,216,26609,1,8
448,320,27643,6,0,B|448:176,1,140
320,184,28471,2,0,B|320:336,1,140
192,320,29298,2,0,B|192:168,1,140
64,176,30126,2,0,B|64:336,1,140
128,320,30747,6,0,B|352:320,1,210
144,64,32402,5,0
256,128,32816,1,0
368,64,33229,1,0
256,192,34057,12,4,35712
256,192,36126,5,0
256,192,36540,1,0
456,40,37367,5,4
456,40,37781,1,0
456,40,38195,1,0
256,192,39022,5,4
256,320,39436,1,0
256,320,39850,1,0
128,112,40678,2,2,B|120:112|120:112|104:112|104:112|104:88|104:88|128:88|128:88|128:48|128:48|168:48|168:48|192:48|192:48|192:88|192:88|224:88|224:88|256:88,1,280,2|0
256,216,41919,5,0
256,344,42333,1,4
256,344,42747,1,0
256,344,43160,1,0
168,104,43988,5,4
256,192,44402,1,0
344,104,44816,1,0
128,240,45643,5,4
384,240,46471,1,4
128,240,47298,1,4
256,24,48126,5,4
256,152,48540,1,0
256,280,48953,1,6
256,280,49367,1,2
256,280,49781,1,2
256,32,50609,5,2
256,32,51022,1,2
256,32,51436,1,2
448,192,52264,5,2
448,192,52678,1,0
320,192,53091,1,2
320,192,53505,1,0
192,216,53919,2,2,B|184:216|184:216|168:216|168:216|168:192|168:192|192:192|192:192|192:152|192:152|232:152|232:152|256:152|256:152|256:192|256:192|288:192|288:192|320:192,1,280,2|0
320,64,55160,5,0
320,192,55574,1,6
320,320,55988,1,2
208,256,56402,1,2
440,256,57229,5,6
320,320,57643,1,2
320,192,58057,1,2
88,88,58885,5,6
424,88,59712,1,6
256,192,60540,12,4,62195
256,352,63022,5,0
64,192,63850,1,4
256,32,64678,1,0
256,160,65091,1,0
256,288,65505,5,4
384,72,66333,1,0
128,72,67160,2,0,B|128:152|128:152|64:152|64:152|64:216|64:216|104:216|104:216|104:248,1,280
408,248,68816,5,4
408,248,69229,1,0
408,248,69643,1,0
256,48,70471,5,4
256,48,70885,1,0
256,48,71298,1,0
104,248,72126,5,4
232,248,72540,1,0
232,120,72954,1,4
360,120,73367,1,0
360,248,73781,2,0,B|360:320|360:320|280:320|280:320|280:376|280:376|200:376,1,280,4|0
96,312,75022,1,0
96,184,75436,1,4
256,64,88678,5,4
256,192,89091,1,0
256,320,89505,1,8
368,256,89919,1,0
368,128,90333,2,0,B|256:-24|136:136,2,280,8|8|8
256,352,92816,1,0
368,128,93643,6,0,B|256:280|136:120,2,280,8|8|8
256,72,95712,1,0
384,72,96126,1,8
256,72,96540,1,0
128,72,96954,6,0,B|8:184|128:336,2,280,8|8|8
256,216,99229,1,0
384,72,99850,1,0
384,72,100264,1,4
88,312,101505,5,0
88,184,101919,1,6
88,184,102333,1,0
88,184,102747,1,0
256,376,103574,5,6
256,376,103988,1,0
256,376,104402,1,0
424,184,105229,5,4
216,32,106057,1,4
296,272,106885,2,2,B|224:272|224:272|224:344|224:344|152:344|152:344|152:280,1,280,2|0
56,192,108126,5,0
168,136,108540,1,6
168,136,108954,1,2
168,136,109367,1,2
456,192,110195,5,6
344,136,110609,1,2
344,136,111022,1,2
192,336,111850,5,4
320,336,112264,1,2
368,216,112678,1,4
256,152,113091,1,2
144,216,113505,1,4
256,192,113712,12,4,115160
256,192,115574,5,0
256,192,115988,1,0
56,344,116816,5,4
56,344,117229,1,0
56,344,117643,1,0
256,192,118471,5,4
128,192,118885,1,0
128,192,119298,1,0
384,272,120126,2,2,B|392:272|392:272|408:272|408:272|408:296|408:296|384:296|384:296|384:336|384:336|344:336|344:336|320:336|320:336|320:296|320:296|288:296|288:296|256:296,1,280,2|0
256,168,121367,5,0
256,40,121781,1,4
256,40,122195,1,0
256,40,122609,1,0
344,280,123436,5,4
256,192,123850,1,0
168,280,124264,1,0
384,144,125091,5,4
128,144,125919,1,4
384,144,126747,1,4
256,360,127574,5,4
256,232,127988,1,4
256,104,128402,1,4
256,104,128816,1,4
256,104,129229,1,4
256,352,130057,5,4
256,352,130471,1,4
256,352,130885,1,4
64,192,131712,5,4
64,192,132126,1,4
192,192,132540,1,4
192,192,132954,1,4
320,168,133367,2,2,B|328:168|328:168|344:168|344:168|344:192|344:192|320:192|320:192|320:232|320:232|280:232|280:232|256:232|256:232|256:192|256:192|224:192|224:192|192:192,1,280,6|0
192,320,134609,5,0
192,192,135022,1,4
192,64,135436,1,2
304,128,135850,1,2
72,128,136678,5,4
192,64,137091,1,2
192,192,137505,1,2
424,296,138333,5,4
88,296,139160,1,4
256,192,139988,12,0,141643
0,32,154885,6,0,B|0:184,1,140,4|0
128,176,155712,2,0,B|128:24,1,140,2|0
256,32,156540,2,0,B|256:176,1,140
384,168,157367,2,0,B|384:24,1,140,2|0
512,32,158195,2,0,B|512:176,1,140
496,296,159022,2,0,B|352:296,1,140,2|0
456,224,159850,2,0,B|304:224,1,140
192,224,160678,2,0,B|40:224,1,140,2|0
160,296,161505,6,0,B|8:296,1,140
128,376,162333,1,2
256,360,162747,1,0
384,376,163160,1,0
384,248,163574,1,0
256,240,163988,1,2
128,248,164402,1,0
192,144,164816,1,0
320,144,165229,5,0
256,32,165643,1,2
256,32,166057,1,0
256,32,166471,1,2
256,32,166885,1,0
200,144,167298,1,2
256,256,167712,1,0
312,144,168126,1,4
104,288,168954,5,0
104,32,169781,1,0
256,232,170609,1,0
408,32,171436,5,4
368,152,171850,1,2
256,200,172264,1,4
144,152,172678,1,2
104,32,173091,1,4
144,152,173505,1,2
256,200,173919,1,4
368,152,174333,1,2
408,32,174747,5,4
408,32,175160,1,0
408,32,175574,1,0
256,72,175988,5,8
104,32,176402,1,4
104,32,176816,1,0
104,32,177229,1,0
192,128,177643,1,8
88,200,178057,5,4
296,352,178885,1,4
216,112,179712,2,0,B|288:112|288:112|288:40|288:40|360:40|360:40|360:104,1,280,4|0
456,192,180954,5,0
344,248,181367,1,4
344,248,181781,1,0
344,248,182195,1,8
56,192,183022,5,4
168,248,183436,1,0
168,248,183850,1,8
320,48,184678,5,4
256,152,185091,1,8
168,240,185505,1,4
256,328,185919,1,8
344,240,186333,1,4
256,192,186540,12,4,187988
256,192,188402,5,0
256,192,188816,1,0
456,40,189643,5,4
456,40,190057,1,0
456,40,190471,1,0
256,192,191298,5,4
128,192,191712,1,0
384,192,192126,1,0
128,112,192954,2,0,B|120:112|120:112|104:112|104:112|104:88|104:88|128:88|128:88|128:48|128:48|168:48|168:48|192:48|192:48|192:88|192:88|224:88|224:88|256:88,1,280
256,216,194195,5,0
256,344,194609,1,4
256,344,195022,1,0
256,344,195436,1,0
168,104,196264,5,4
256,192,196678,1,0
344,104,197091,1,0
128,240,197919,5,4
384,240,198747,1,4
128,240,199574,1,4
256,24,200402,5,0
256,152,200816,1,0
256,280,201229,5,4
256,280,201643,1,0
256,280,202057,1,0
256,32,202885,5,4
256,32,203298,1,0
256,32,203712,1,0
448,192,204540,5,4
448,192,204954,1,2
320,192,205367,1,4
320,192,205781,1,2
192,216,206195,2,2,B|184:216|184:216|168:216|168:216|168:192|168:192|192:192|192:192|192:152|192:152|232:152|232:152|256:152|256:152|256:192|256:192|288:192|288:192|320:192,1,280,2|0
