osu file format v9

[General]
AudioFilename: spelunk.mp3
AudioLeadIn: 3000
PreviewTime: 19205
Countdown: 1
SampleSet: Normal
StackLeniency: 0.7
Mode: 0
LetterboxInBreaks: 1

[Editor]
DistanceSpacing: 0.8
BeatDivisor: 8
GridSize: 8

[Metadata]
Title:Spelunker Theme
Artist:Scognito
Creator:[KOR]Extream_Sigma
Version:Exploring Cave Expert
Source:Syobon's Action
Tags:Syobon's Action Spelunker NES

[Difficulty]
HPDrainRate:7
CircleSize:4
OverallDifficulty:7
ApproachRate:7
SliderMultiplier:2
SliderTickRate:1

[Events]
//Background and Video events
0,0,"1292332489_49.jpg"
//Break Periods
//Storyboard Layer 0 (Background)
//Storyboard Layer 1 (Fail)
//Storyboard Layer 2 (Pass)
//Storyboard Layer 3 (Foreground)
//Storyboard Sound Samples
//Background Colour Transformations
3,100,163,162,255

[TimingPoints]
133,397.350993377483,4,1,0,100,1,0

[HitObjects]
64,224,133,2,0,B|72:280|128:304|192:280|200:224,1,150
224,264,530,2,8,B|296:192,1,100,8|0
376,120,927,2,2,B|328:96|280:120,1,100,2|0
280,224,1325,2,8,B|328:248|376:224,1,100,8|0
376,120,1722,1,0
256,120,2020,1,0
248,120,2119,1,0
142,123,2318,2,2,B|108:150|108:214|142:248|187:260|233:248|263:210,1,200,2|0
216,156,2914,1,8
448,224,3311,6,0,B|440:280|384:304|320:280|312:224,1,150
288,264,3708,2,8,B|216:192,1,100,8|0
136,120,4105,2,2,B|184:96|232:120,1,100,2|0
232,224,4503,2,8,B|184:248|136:224,1,100,8|0
136,120,4900,1,0
256,120,5198,1,0
264,120,5297,1,0
370,123,5496,2,2,B|404:150|404:214|370:248|325:260|279:248|249:210,1,200,2|0
296,156,6092,1,8
144,256,6490,6,2,B|208:296|208:296|272:256,1,150,2|0
320,256,6887,2,8,B|336:216|336:216|392:216,1,100,8|0
392,112,7285,2,0,B|288:112,1,100
256,32,7682,2,8,B|188:64|188:152|256:192,1,200,8|2
300,192,8179,1,0
344,192,8278,1,0
456,192,8477,1,8
400,96,8676,1,0
296,96,8874,2,0,B|208:48,1,100,0|8
208,144,9272,1,8
56,304,9669,6,0,B|72:352|160:352|176:304,1,150,2|0
136,272,10066,2,8,B|168:232|168:232|216:232,1,100,8|0
312,232,10464,2,0,B|364:224|416:232,1,100,2|0
368,120,10861,2,0,B|320:127|268:119,1,100,8|0
176,192,11258,5,0
176,192,11358,1,0
176,192,11457,1,0
256,288,11656,1,0
256,288,11755,1,0
352,192,11954,1,0
352,192,12053,1,0
256,80,12252,2,0,B|152:80,1,100
148,80,12550,1,0
140,80,12649,1,0
72,160,12848,6,0,B|72:264|112:344|256:360|352:288|352:160|272:112,1,500
200,160,14040,1,0
120,112,14238,1,0
200,72,14437,2,0,B|288:24|288:24|336:24,1,150,2|0
320,72,14834,2,8,B|424:72,1,100,8|0
256,192,15232,12,4,16027
256,48,16821,5,0
256,88,17020,1,0
256,128,17218,1,0
256,168,17417,1,0
368,192,17616,2,8,B|320:280,1,100,2|0
144,192,18013,2,8,B|192:280,1,100,8|0
256,336,18411,2,0,B|256:136,1,200
256,128,18907,1,0
256,120,19007,1,0
256,112,19106,1,0
256,104,19205,6,0,B|304:88|304:88|352:104,1,100
456,104,19603,1,8
456,208,19801,1,0
344,208,20000,2,0,B|244:208,1,100
136,208,20397,1,8
240,208,20596,1,0
240,96,20795,2,0,B|136:96,1,100
136,208,21192,2,0,B|240:208,1,100,8|0
352,208,21589,1,0
352,96,21788,1,8
352,96,21987,1,8
200,96,22384,6,0,B|160:56|56:56,1,150
88,96,22782,2,8,B|88:200,1,100,8|0
192,192,23179,1,2
288,192,23378,1,0
384,192,23576,1,8
384,96,23775,1,0
344,96,23874,1,0
304,96,23974,2,0,B|232:48|160:96,1,150
200,120,24371,2,8,B|112:168|136:240,1,150,8|0
184,240,24768,2,0,B|288:240,1,100,0|8
392,240,25166,1,0
392,240,25265,1,0
392,240,25364,1,0
392,136,25563,6,2,B|328:96|328:96|264:136,1,150,2|0
216,136,25960,2,8,B|200:176|200:176|144:176,1,100,8|0
144,280,26358,2,0,B|248:280,1,100
280,360,26755,2,8,B|348:328|348:240|280:200,1,200,8|2
236,200,27252,1,0
192,200,27351,1,0
80,200,27550,1,8
136,296,27749,1,0
240,296,27947,2,0,B|328:344,1,100,0|8
328,248,28345,1,8
360,120,28742,6,0,B|348:32|256:16|156:32|144:120,1,300
256,128,29536,2,2,B|256:232,1,100,2|0
256,328,29934,1,8
256,232,30132,1,0
256,128,30331,1,0
296,128,30431,1,0
336,128,30530,1,0
376,128,30629,1,0
416,128,30729,1,0
424,232,30927,2,0,B|336:288|336:288|256:232,1,200
256,232,31424,1,0
256,232,31523,1,0
160,192,31921,6,0,B|72:192|72:160,2,100,0|8|8
160,88,32517,1,0
160,88,32616,2,8,B|248:88|248:120,2,100,8|8|0
160,88,33113,1,8
160,192,33311,1,0
256,192,33510,1,0
296,176,33609,1,0
336,160,33709,2,8,B|440:160,1,100
408,56,34106,1,0
368,56,34205,2,8,B|264:56,2,100,8|8|0
408,56,34702,1,8
408,256,35099,6,0,B|360:256,1,50
312,256,35298,1,8
312,256,35397,1,8
312,256,35497,1,8
216,256,35695,1,8
128,256,35894,1,0
128,208,35993,1,0
128,160,36093,1,8
128,112,36192,1,8
128,64,36291,1,8
216,64,36490,1,8
256,192,36689,12,4,37483
