osu file format v9

[General]
AudioFilename: spelunk.mp3
AudioLeadIn: 3000
PreviewTime: 19205
Countdown: 1
SampleSet: Normal
StackLeniency: 0.7
Mode: 0
LetterboxInBreaks: 1

[Editor]
DistanceSpacing: 0.8
BeatDivisor: 4
GridSize: 8

[Metadata]
Title:Spelunker Theme
Artist:Scognito
Creator:[KOR]Extream_Sigma
Version:Exploring Cave Adept
Source:Syobon's Action
Tags:Syobon's Action Spelunker NES

[Difficulty]
HPDrainRate:6
CircleSize:4
OverallDifficulty:6
ApproachRate:6
SliderMultiplier:1.8
SliderTickRate:1

[Events]
//Background and Video events
0,0,"1292332489_49.jpg"
//Break Periods
//Storyboard Layer 0 (Background)
//Storyboard Layer 1 (Fail)
//Storyboard Layer 2 (Pass)
//Storyboard Layer 3 (Foreground)
//Storyboard Sound Samples
//Background Colour Transformations
3,100,163,162,255

[TimingPoints]
133,397.350993377483,4,1,0,100,1,0

[HitObjects]
80,192,133,2,0,B|168:192,1,90
256,192,530,1,8
256,104,729,1,0
344,104,927,2,0,B|344:192,1,90
256,192,1325,1,8
256,280,1523,1,0
168,280,1722,2,0,B|112:192|168:112,2,180,0|8|0
344,280,2914,1,12
344,104,3311,6,0,B|252:80|160:104,1,180,0|8
168,192,3907,1,0
168,280,4106,1,0
344,280,4503,1,8
344,192,4702,1,0
344,104,4901,2,0,B|160:104,2,180,0|8|0
440,104,5894,1,4
440,192,6093,2,0,B|440:240,2,45
344,192,6490,6,0,B|224:112|88:192,1,270
88,280,7285,1,8
176,280,7483,1,0
176,192,7682,1,0
352,192,8080,1,0
352,224,8179,2,0,B|352:272,1,45
432,304,8477,1,8
352,344,8676,1,0
264,304,8874,2,0,B|184:240|200:136,1,180
312,144,9669,6,0,B|368:72|472:72,1,180
464,168,10265,1,0
456,264,10464,2,8,B|368:264,1,90,8|0
272,264,10861,2,0,B|360:264,1,90
360,168,11258,1,0
360,72,11556,1,0
360,40,11656,1,0
256,40,11854,2,0,B|136:152|264:272,1,270
256,192,12848,12,0,14437
384,64,16027,6,0,B|304:104,1,90
224,144,16424,2,8,B|304:104,1,90,8|0
304,200,16821,2,0,B|304:288,2,90,0|0|8
200,200,17417,1,0
96,200,17616,1,0
64,56,17914,1,0
96,88,18013,1,0
200,88,18212,2,0,B|288:88,1,90
384,88,18609,2,0,B|384:136,4,45
472,88,19205,6,0,B|480:304|336:304,1,270
272,256,20000,2,0,B|96:256|96:96,1,270
184,80,20795,2,0,B|316:-4|440:88,1,270,10|10
440,296,21788,1,0
440,296,21987,1,0
248,296,22384,2,8,B|160:296,1,90,8|0
160,192,22782,2,0,B|248:192,1,90
256,88,23179,2,8,B|328:32|424:32,1,180,8|0
416,224,23974,2,0,B|312:224|280:128|280:128|240:224|136:224,1,360
136,128,24967,1,0
136,40,25166,1,0
304,40,25563,6,0,B|488:40,1,180
488,192,26358,2,0,B|304:192,1,180
304,344,27152,2,2,B|280:240|176:200|72:240|48:344,1,360
208,40,28742,6,0,B|24:40,1,180
24,192,29537,2,0,B|208:192,1,180
208,344,30331,2,2,B|232:240|336:200|440:240|464:344,1,360
432,72,31921,5,0
432,168,32119,1,8
336,168,32318,1,8
336,72,32517,2,0,B|288:72,1,45,0|8
208,72,32815,1,8
240,72,32914,1,0
336,72,33113,1,8
336,168,33311,1,0
432,168,33510,6,0,B|432:256,2,90,0|8|8
432,72,34106,1,0
432,72,34205,1,8
336,72,34404,1,8
336,72,34503,1,0
336,168,34702,1,8
176,168,35099,2,2,B|104:224|104:224|176:280,1,180,2|8
320,280,35894,2,2,B|390:225|390:225|318:169,1,180,2|8
256,56,36689,1,4
256,56,36887,1,0
256,56,37086,1,0
256,56,37285,1,0
256,56,37483,1,0
