osu file format v12

[General]
AudioFilename: Light Prayer.mp3
AudioLeadIn: 0
PreviewTime: 232747
Countdown: 0
SampleSet: Soft
StackLeniency: 0.9
Mode: 0
LetterboxInBreaks: 1
WidescreenStoryboard: 0

[Editor]
DistanceSpacing: 1.6
BeatDivisor: 4
GridSize: 4
TimelineZoom: 1

[Metadata]
Title:light prayer
TitleUnicode:light prayer
Artist:School Food Punishment
ArtistUnicode:School Food Punishment
Creator:Naitoshi
Version:RAWR
Source:
Tags:
BeatmapID:355523
BeatmapSetID:142845

[Difficulty]
HPDrainRate:6
CircleSize:4
OverallDifficulty:6
ApproachRate:9
SliderMultiplier:1.2
SliderTickRate:1

[Events]
//Background and Video events
0,0,"Light Pedals.jpg",0,0
//Break Periods
//Storyboard Layer 0 (Background)
//Storyboard Layer 1 (Fail)
//Storyboard Layer 2 (Pass)
//Storyboard Layer 3 (Foreground)
//Storyboard Sound Samples
//Background Colour Transformations
3,100,163,162,255

[TimingPoints]
408,319.148936170213,4,2,1,100,1,0
9344,-100,4,2,1,50,0,0
9822,-100,4,2,1,30,0,0
9942,-100,4,2,1,50,0,0
17482,-100,4,2,1,5,0,0
17562,-100,4,2,1,55,0,0
31046,-66.6666666666667,4,2,1,50,0,1
31525,-100,4,2,1,70,0,0
33120,-100,4,2,1,80,0,0
33280,-100,4,2,1,90,0,0
33439,-100,4,2,1,100,0,0
36631,-100,4,2,1,50,0,0
36790,-100,4,2,1,70,0,0
36950,-100,4,2,1,80,0,0
41259,-100,4,2,1,75,0,1
41338,-100,4,2,1,80,0,0
41737,-100,4,2,1,50,0,0
41897,-100,4,2,1,80,0,0
46604,-100,4,2,1,5,0,0
46684,-100,4,2,1,80,0,0
47881,-100,4,2,1,5,0,0
47961,-100,4,2,1,80,0,0
50833,-100,4,2,1,40,0,0
50993,-100,4,2,1,50,0,0
51152,-100,4,2,1,70,0,0
51312,-100,4,2,1,90,0,0
51471,-100,4,2,1,80,0,0
52904,-100,4,2,1,40,0,0
53067,-100,4,2,1,70,0,0
53227,-100,4,2,1,60,0,0
53546,-100,4,2,1,80,0,0
53705,-100,4,2,1,90,0,0
54025,-100,4,2,1,80,0,0
61205,-200,4,2,0,80,0,0
61684,-100,4,2,1,80,0,1
68306,-100,4,2,1,5,0,1
68386,-100,4,2,1,80,0,1
70780,-100,4,2,1,80,0,1
71099,-100,4,2,1,70,0,1
71418,-100,4,2,1,80,0,1
71578,-100,4,2,1,90,0,1
73333,-100,4,2,1,40,0,1
73493,-100,4,2,1,70,0,1
73652,-100,4,2,1,70,0,1
73971,-100,4,2,1,80,0,1
74131,-100,4,2,1,90,0,1
74450,-100,4,2,1,80,0,1
75886,-100,4,2,1,50,0,1
76046,-100,4,2,1,70,0,1
76205,-100,4,2,1,80,0,1
76525,-100,4,2,1,90,0,1
76684,-100,4,2,1,100,0,1
77003,-133.333333333333,4,2,1,100,0,1
77482,-100,4,2,1,100,0,1
78439,-50,4,2,1,100,0,1
78759,-100,4,2,1,100,0,1
80035,-80,4,2,1,100,0,1
80514,-66.6666666666667,4,2,1,100,0,1
80993,-57.1428571428571,4,2,1,100,0,1
81312,-57.1428571428571,4,2,1,50,0,1
81471,-100,4,2,1,100,0,1
82110,-100,4,2,1,50,0,0
91844,-74.0740740740741,4,2,1,50,0,0
92322,-100,4,2,1,50,0,0
107959,319.148936170213,4,2,1,100,1,0
114025,319.148936170213,4,2,1,100,1,0
134450,-100,4,2,1,100,0,1
152003,319.148936170213,4,2,1,100,1,0
169875,-100,4,2,1,30,0,0
203066,-100,4,2,1,100,0,1
203146,-100,4,2,1,100,0,0
213279,-100,4,2,1,100,0,1
233625,-100,4,2,1,100,0,0
233705,-100,4,2,1,100,0,1
254050,-100,4,2,1,100,0,0
254130,-100,4,2,1,100,0,1
254210,-100,4,2,1,100,0,0

[Colours]
Combo1 : 96,240,117
Combo2 : 193,193,193
Combo3 : 100,157,253
Combo4 : 232,68,84

[HitObjects]
140,120,9344,6,0,L|72:120,1,60,8|4,0:0|3:0,0:0:0:0:
230,194,9663,2,0,L|298:194,1,60,8|4,0:0|0:0,0:0:0:0:
140,257,9942,1,4,3:0:0:0:
140,257,9982,2,0,L|72:257,1,60,4|0,3:0|0:0,0:0:0:0:
270,341,10301,1,4,0:0:0:0:
270,341,10620,2,0,P|220:341|188:336,1,60,4|0,1:0|0:0,0:0:0:0:
307,243,10939,6,0,P|387:228|426:190,1,120,4|2,1:0|0:0,0:0:0:0:
307,243,11418,2,0,P|281:220|240:206,1,60,0|8,0:0|0:0,0:0:0:0:
175,224,11737,1,2,0:0:0:0:
97,257,11897,2,0,P|70:244|48:223,1,60,0|2,0:0|0:0,0:0:0:0:
31,141,12216,1,8,0:0:0:0:
76,70,12376,2,0,P|148:46|196:58,1,120
233,234,12854,6,0,P|204:231|175:224,1,60,8|2,0:0|0:0,0:0:0:0:
369,152,13173,2,0,P|374:187|396:224,1,60
443,109,13493,2,0,P|438:74|416:37,1,60,10|0,0:0|0:0,0:0:0:0:
344,296,13812,5,2,0:0:0:0:
205,293,13971,1,0,0:0:0:0:
232,214,14131,1,8,0:0:0:0:
275,343,14290,1,2,0:0:0:0:
321,212,14450,6,0,P|361:168|383:113,1,120,0|8,0:0|0:0,0:0:0:0:
382,29,14929,1,2,0:0:0:0:
384,113,15088,2,0,P|405:168|446:212,1,120,2|8,0:0|0:0,0:0:0:0:
481,142,15567,1,2,0:0:0:0:
321,212,15727,1,0,0:0:0:0:
321,212,16046,6,0,P|265:197|232:148,1,120,0|2,0:0|0:0,0:0:0:0:
201,37,16525,1,0,0:0:0:0:
100,95,16684,1,8,0:0:0:0:
232,148,16844,1,0,0:0:0:0:
134,211,17003,1,0,0:0:0:0:
134,211,17322,6,0,P|115:256|95:278,1,60,10|0,0:0|0:0,0:0:0:0:
108,264,17562,2,0,P|178:277|204:289,1,90,0|2,0:0|0:0,0:0:0:0:
262,334,17961,1,6,0:0:0:0:
368,225,18120,1,2,0:0:0:0:
233,208,18280,6,0,P|192:194|160:169,1,60,0|4,0:0|0:0,0:0:0:0:
155,104,18599,1,0,0:0:0:0:
48,199,18759,2,0,P|45:253|48:268,1,60,2|0,0:0|0:0,0:0:0:0:
115,306,19078,1,4,0:0:0:0:
233,208,19237,6,0,P|199:200|152:206,1,60,0|4,0:0|0:0,0:0:0:0:
197,303,19556,1,0,0:0:0:0:
313,161,19716,2,0,P|338:137|361:102,1,60,2|0,0:0|0:0,0:0:0:0:
333,34,20035,1,4,0:0:0:0:
172,130,20195,6,0,P|147:154|124:189,1,60,0|8,0:0|0:0,0:0:0:0:
313,161,20514,2,0,P|338:137|361:102,1,60,2|8,0:0|0:0,0:0:0:0:
232,196,20833,6,0,B|216:236|234:287|234:287|245:322,1,120,4|8,1:0|0:0,0:0:0:0:
375,127,21312,1,0,0:0:0:0:
303,83,21471,2,0,P|249:75|217:80,1,60,2|0,0:0|0:0,0:0:0:0:
172,130,21790,1,8,0:0:0:0:
120,47,21950,1,2,0:0:0:0:
232,197,22110,2,0,P|303:220|369:217,1,120,0|8,0:0|0:0,0:0:0:0:
377,215,22588,2,0,P|308:269|279:295,1,120,0|0,0:0|0:0,0:0:0:0:
200,256,23067,5,8,0:0:0:0:
42,252,23227,1,2,0:0:0:0:
169,345,23386,1,0,0:0:0:0:
122,200,23545,1,2,0:0:0:0:
74,344,23705,1,10,0:0:0:0:
74,344,24184,2,0,L|132:329,1,60,0|8,0:0|0:0,0:0:0:0:
99,109,24503,2,0,L|40:123,1,60,0|0,0:0|0:0,0:0:0:0:
223,73,24982,6,0,P|240:129|293:152,1,120,8|2,0:0|0:0,0:0:0:0:
426,86,25461,1,0,0:0:0:0:
293,152,25620,2,0,P|273:222|292:274,1,120,8|4,0:0|1:0,0:0:0:0:
286,265,26259,2,0,P|229:293|208:356,1,120,8|2,0:0|0:0,0:0:0:0:
290,348,26737,1,0,0:0:0:0:
157,224,26897,2,0,L|108:183,1,60,8|2,0:0|0:0,0:0:0:0:
290,348,27216,1,0,0:0:0:0:
290,348,27535,2,0,P|345:348|370:342,1,60,10|0,0:0|0:0,0:0:0:0:
367,264,27854,5,6,0:0:0:0:
217,204,28014,1,2,0:0:0:0:
367,264,28173,1,8,0:0:0:0:
217,204,28333,1,4,0:0:0:0:
367,264,28493,6,0,P|405:286|426:307,1,60,8|0,0:0|0:0,0:0:0:0:
212,224,28812,1,0,0:0:0:0:
322,149,28971,2,0,P|348:118|347:72,1,60,10|0,0:0|0:0,0:0:0:0:
183,90,29290,1,0,0:0:0:0:
95,200,29450,2,0,P|96:233|112:268,1,60,8|0,0:0|0:0,0:0:0:0:
235,220,29769,1,0,0:0:0:0:
282,83,29929,2,0,P|282:62|258:21,1,60,10|0,0:0|0:0,0:0:0:0:
131,124,30248,5,0,0:0:0:0:
336,142,30408,1,0,0:0:0:0:
158,233,30567,1,0,0:0:0:0:
336,142,30727,1,2,0:0:0:0:
158,233,30886,1,0,0:0:0:0:
336,142,31046,6,0,B|368:118|368:118|371:125|371:125|372:116|372:116|375:124|375:124|375:115|375:115|378:122|378:122|379:113|379:113|382:121|382:121|383:112|383:112|386:119|386:119|386:110|386:110|389:118|389:118|390:109|390:109|400:113|400:113|393:116|393:116|397:105|397:105|400:113|400:113|405:102|405:102|408:110|408:110|408:101|408:101|412:108|412:108|414:103|414:103|415:107|415:107|428:98|428:98|462:79,1,270.000010299683,4|0,0:0|0:0,0:0:0:0:
336,142,31684,1,8,0:0:0:0:
423,232,31844,1,0,0:0:0:0:
262,248,32003,1,0,0:0:0:0:
353,336,32163,1,0,0:0:0:0:
353,336,32642,6,0,P|288:344|239:315,1,120,8|0,0:0|0:0,0:0:0:0:
126,201,33120,1,2,0:0:0:0:
222,298,33280,1,2,0:0:0:0:
272,136,33439,1,2,0:0:0:0:
126,201,33599,2,0,P|79:200|26:150,1,120,8|0,0:0|0:0,0:0:0:0:
188,72,34078,1,8,0:0:0:0:
188,72,34556,6,0,P|222:48|256:40,1,60,8|0,0:0|0:0,0:0:0:0:
469,239,34876,2,0,P|435:263|401:271,1,60
239,303,35195,1,2,0:0:0:0:
126,201,35354,1,2,0:0:0:0:
188,72,35514,2,0,P|243:52|298:73,1,120,8|0,0:0|0:0,0:0:0:0:
199,262,36152,6,0,P|140:282|84:258,1,120
144,200,36631,1,2,0:0:0:0:
29,307,36790,1,2,0:0:0:0:
35,171,36950,1,2,0:0:0:0:
119,58,37110,6,0,P|182:58|199:64,1,60,8|0,0:0|0:0,0:0:0:0:
300,178,37429,2,0,P|300:241|294:258,1,60
243,95,37748,2,0,P|305:73|358:95,2,120,8|0|0,0:0|0:0|0:0,0:0:0:0:
204,249,38546,1,0,0:0:0:0:
348,286,38705,6,0,B|401:268|377:193|449:189,1,120,12|4,0:0|1:0,0:0:0:0:
217,224,39184,1,4,0:0:0:0:
217,224,39663,2,0,B|169:259|136:199|91:247,1,120,4|4,1:0|1:0,0:0:0:0:
284,97,40142,1,4,0:0:0:0:
284,97,40620,2,0,B|331:131|364:67|397:89,1,120,4|2,1:0|0:0,0:0:0:0:
397,89,41259,6,0,P|394:128|413:168,1,60,6|0,0:0|0:0,0:0:0:0:
399,325,41578,2,0,P|402:286|383:246,1,60,4|2,1:0|0:0,0:0:0:0:
269,238,41897,2,0,P|232:237|195:260,1,60
158,311,42216,1,10,0:0:0:0:
82,123,42376,1,0,0:0:0:0:
189,142,42535,6,0,L|257:131,1,60
425,105,42854,2,0,L|357:116,1,60,8|2,0:0|0:0,0:0:0:0:
199,217,43173,2,0,L|267:206,1,60
435,180,43492,2,0,L|367:191,1,60,10|0,0:0|0:0,0:0:0:0:
343,309,43812,6,0,P|390:343|463:332,1,120,4|8,1:0|0:0,0:0:0:0:
265,311,44290,2,0,P|218:345|145:334,1,120
125,68,44769,2,0,B|172:44|181:113|241:82,1,120,8|0,0:0|0:0,0:0:0:0:
247,88,45408,1,8,0:0:0:0:
257,94,45727,1,0,0:0:0:0:
172,351,46046,6,0,P|121:275|212:204,1,210,4|0,1:0|0:0,0:0:0:0:
193,202,46684,2,0,L|94:120,1,120,8|0,0:0|0:0,0:0:0:0:
340,351,47322,2,0,P|391:275|300:204,1,210,8|0,0:0|0:0,0:0:0:0:
319,202,47961,2,0,L|419:120,1,120,8|0,0:0|0:0,0:0:0:0:
200,307,48599,2,0,L|148:350,1,60,8|2,0:0|0:0,0:0:0:0:
59,85,48918,6,0,P|116:79|176:131,1,120,6|10,1:0|0:0,0:0:0:0:
200,307,49397,2,0,P|166:260|181:182,1,120,8|2,0:0|0:0,0:0:0:0:
321,74,49876,2,0,P|297:126|222:152,1,120,4|8,0:0|0:0,0:0:0:0:
233,64,50354,1,2,0:0:0:0:
377,178,50514,2,0,B|410:213|410:213|435:224|435:224|479:262,1,120,10|4,0:0|0:0,0:0:0:0:
300,298,50993,5,2,0:0:0:0:
173,245,51152,1,10,0:0:0:0:
46,308,51312,1,2,0:0:0:0:
38,165,51471,2,0,P|47:110|26:46,1,120,6|8,1:0|0:0,0:0:0:0:
38,165,51950,2,0,P|91:150|154:79,1,150
152,82,52429,2,0,P|188:129|241:155,1,120,10|0,0:0|0:0,0:0:0:0:
388,147,52908,5,2,0:0:0:0:
326,274,53067,1,14,0:0:0:0:
242,156,53227,1,2,0:0:0:0:
397,230,53386,1,2,0:0:0:0:
248,240,53546,1,6,0:0:0:0:
313,111,53705,1,10,0:0:0:0:
397,230,53865,1,2,0:0:0:0:
257,324,54025,6,0,P|221:332|129:334,1,120,6|8,1:0|0:0,0:0:0:0:
248,240,54503,2,0,P|212:248|120:250,1,120
50,78,54982,6,0,P|72:44|105:29,1,60,8|0,0:0|0:0,0:0:0:0:
64,215,55301,2,0,P|42:249|9:264,1,60
188,34,55620,2,0,P|226:22|261:31,1,60,12|2,0:0|0:0,0:0:0:0:
241,171,55939,2,0,P|202:182|167:173,1,60,2|6,0:0|0:0,0:0:0:0:
289,97,56259,6,0,P|340:78|379:87,1,90,10|0,0:0|0:0,0:0:0:0:
373,84,56578,2,0,L|388:16,1,60,6|2,1:0|0:0,0:0:0:0:
88,235,56897,1,8,0:0:0:0:
206,326,57056,2,0,P|266:333|325:324,1,120,4|2,1:0|0:0,0:0:0:0:
202,236,57535,2,0,P|261:244|321:235,1,120,8|2,0:0|0:0,0:0:0:0:
319,146,58014,2,0,P|260:156|201:149,1,120,0|2,0:0|0:0,0:0:0:0:
364,76,58493,2,0,P|398:123|393:182,1,120,8|0,0:0|0:0,0:0:0:0:
124,282,59131,6,0,P|103:260|93:232,1,60,6|2,1:0|0:0,0:0:0:0:
173,111,59450,1,0,0:0:0:0:
308,93,59610,2,0,P|336:126|340:155,1,60,6|2,1:0|0:0,0:0:0:0:
257,238,59929,1,0,0:0:0:0:
173,111,60088,2,0,P|140:57|115:2,1,120,4|0,0:0|0:0,0:0:0:0:
257,238,60567,2,0,P|292:244|321:245,2,60,0|8|0,0:0|0:0|0:0,0:0:0:0:
148,344,61205,6,2,P|121:327|98:291,1,75,2|0,1:0|0:0,0:0:0:0:
98,291,61684,2,0,P|58:293|24:285,1,60,4|0,0:0|0:0,0:0:0:0:
210,115,62003,2,0,P|250:113|284:121,1,60,8|2,0:0|0:0,0:0:0:0:
409,291,62322,2,0,P|369:293|335:285,1,60
98,291,62642,1,10,0:0:0:0:
65,155,62801,1,0,0:0:0:0:
178,72,62961,6,0,L|257:63,1,60,2|0,0:0|0:0,0:0:0:0:
424,45,63280,2,0,L|345:54,1,60,8|2,0:0|0:0,0:0:0:0:
189,151,63599,2,0,L|268:142,1,60,0|0,0:0|0:0,0:0:0:0:
435,124,63918,2,0,L|356:133,1,60,10|0,0:0|0:0,0:0:0:0:
257,300,64237,6,0,P|282:355|335:372,1,120,4|10,0:0|0:0,0:0:0:0:
294,238,64716,2,0,P|233:232|192:269,1,120,10|10,0:0|0:0,0:0:0:0:
329,301,65195,2,0,P|364:251|352:197,1,120,8|0,0:0|0:0,0:0:0:0:
283,242,65833,1,8,0:0:0:0:
271,246,66152,1,0,0:0:0:0:
61,54,66471,6,0,B|108:100|157:56|157:56|205:20|270:69,1,210,4|0,1:0|0:0,0:0:0:0:
343,69,67110,2,0,B|331:70|331:70|316:60|316:60|310:73|310:73|296:57|296:57|285:71|285:71|251:56,1,120,10|0,0:0|0:0,0:0:0:0:
128,285,67748,2,0,L|184:326,1,60,8|4,0:0|0:0,0:0:0:0:
128,225,68067,2,0,L|128:285,1,60
177,191,68386,2,0,L|128:225,1,60,12|0,0:0|0:0,0:0:0:0:
214,126,68705,2,0,P|160:120|105:174,1,120,10|8,0:0|0:0,0:0:0:0:
307,72,69344,6,0,P|249:79|214:126,1,120,6|8,1:0|0:0,0:0:0:0:
284,250,69822,2,0,P|307:196|285:143,1,120,8|0,0:0|0:0,0:0:0:0:
143,143,70301,2,0,P|178:189|236:197,1,120,8|0,0:0|0:0,0:0:0:0:
237,73,70780,2,0,P|220:98|214:127,1,60,2|14,0:0|0:0,0:0:0:0:
164,195,71099,5,2,0:0:0:0:
237,235,71259,1,2,0:0:0:0:
108,256,71418,1,6,0:0:0:0:
277,164,71578,2,0,P|307:143|327:122,1,60,10|2,0:0|0:0,0:0:0:0:
392,42,71897,6,0,P|372:95|397:158,1,120,6|8,1:0|0:0,0:0:0:0:
459,208,72376,2,0,P|479:155|454:92,1,120,0|8,1:0|0:0,0:0:0:0:
287,276,72854,2,0,B|265:305|229:291|229:291|191:276|159:314,1,120,8|0,0:0|0:0,0:0:0:0:
116,356,73333,5,2,0:0:0:0:
14,251,73493,1,14,0:0:0:0:
153,214,73652,1,2,0:0:0:0:
34,333,73812,1,2,0:0:0:0:
73,191,73971,1,6,0:0:0:0:
176,297,74131,1,2,0:0:0:0:
34,333,74290,1,2,0:0:0:0:
153,214,74450,6,0,P|192:170|225:113,1,120,6|8,1:0|0:0,0:0:0:0:
227,255,74929,2,0,P|266:211|299:154,1,120
318,34,75408,6,0,P|285:62|272:86,1,60,4|0,1:0|0:0,0:0:0:0:
404,193,75727,2,0,P|386:168|362:151,1,60,0|2,0:0|0:0,0:0:0:0:
227,255,76046,2,2,P|260:227|273:203,1,60,14|2,0:0|0:0,0:0:0:0:
142,96,76365,2,2,P|159:120|183:137,1,60,2|6,0:0|0:0,0:0:0:0:
404,193,76684,2,2,P|386:168|362:151,1,60,10|2,0:0|0:0,0:0:0:0:
227,255,77003,6,0,P|286:268|332:264,1,90.0000034332277,6|8,1:0|0:0,0:0:0:0:
226,330,77482,2,0,P|283:341|351:335,1,120
227,255,77961,2,0,P|173:277|153:342,1,120,8|0,0:0|0:0,0:0:0:0:
226,181,78439,2,0,P|168:195|80:342,1,240
226,330,78918,2,0,P|259:332|296:330,1,60,8|0,0:0|0:0,0:0:0:0:
85,234,79237,2,0,P|50:232|15:234,1,60
227,255,79556,6,0,P|285:259|348:250,1,120,4|0,1:0|0:0,0:0:0:0:
353,176,80035,2,0,P|279:191|194:175,1,150
192,98,80514,2,0,P|285:122|379:80,1,180.000006866455,4|0,1:0|0:0,0:0:0:0:
372,27,80993,2,0,B|313:15|327:77|225:78|237:15|168:29,1,210.000002002716,0|4,0:0|0:0,0:0:0:0:
87,43,81471,1,8,0:0:0:0:
79,126,81631,2,0,P|83:184|53:236,1,120,10|0,0:0|0:0,0:0:0:0:
53,236,82110,5,4,1:0:0:0:
219,259,82429,2,0,P|299:244|338:206,1,120,4|2,1:0|0:0,0:0:0:0:
219,259,82908,2,0,P|193:236|152:222,1,60,0|8,0:0|0:0,0:0:0:0:
86,230,83227,1,0,0:0:0:0:
47,155,83386,2,0,P|50:101|90:58,1,90
69,72,83705,1,8,0:0:0:0:
127,133,83865,2,0,P|183:147|249:146,1,120,0|8,0:0|0:0,0:0:0:0:
127,132,84344,2,0,P|148:186|188:239,1,120,0|4,0:0|0:0,0:0:0:0:
307,207,84902,5,8,0:0:0:0:
307,207,84982,1,8,0:0:0:0:
307,206,85142,2,0,P|341:208|384:186,1,60,10|0,0:0|0:0,0:0:0:0:
375,283,85461,2,0,P|370:328|357:355,1,60,8|0,0:0|0:0,0:0:0:0:
286,125,85780,2,0,P|291:80|304:53,1,60,2|2,0:0|0:0,0:0:0:0:
170,298,86259,2,0,P|128:305|40:301,1,120,8|8,0:0|0:0,0:0:0:0:
46,219,86737,1,8,0:0:0:0:
130,214,86897,6,0,P|155:183|162:100,1,120
111,39,87376,1,2,0:0:0:0:
163,105,87535,2,0,P|209:125|283:109,1,120,8|0,0:0|0:0,0:0:0:0:
319,40,88014,1,0,0:0:0:0:
276,112,88173,2,0,P|283:164|338:221,1,120,2|4,0:0|0:0,0:0:0:0:
167,318,88732,1,8,0:0:0:0:
167,318,88812,1,8,0:0:0:0:
167,318,88971,2,0,P|123:317|42:304,2,120,10|0|0,0:0|0:0|0:0,0:0:0:0:
251,322,89769,6,0,P|300:311|349:290,2,90
204,250,90408,2,0,P|155:239|106:218,2,90
271,199,91046,2,0,P|320:188|369:167,2,90
216,134,91684,1,0,0:0:0:0:
216,134,91844,2,0,B|184:140|184:140|186:154|186:154|165:148|165:148|167:165|167:165|150:155|150:155|157:174|157:174|136:162|136:162|140:183|140:183|126:172|126:172|126:189|126:189|112:188|112:188|106:198|106:198|91:212,1,243.000000926971
271,199,92642,6,0,P|322:172|375:195,1,120,0|0,0:0|0:0,0:0:0:0:
431,285,93120,2,0,P|383:254|376:196,1,120,0|0,0:0|0:0,0:0:0:0:
439,103,93600,2,0,P|423:159|376:195,1,120,0|0,0:0|0:0,0:0:0:0:
271,199,94078,2,0,P|322:172|375:195,1,120,0|0,0:0|0:0,0:0:0:0:
319,319,94556,2,0,P|268:346|215:323,1,120,0|0,0:0|0:0,0:0:0:0:
113,97,95195,5,0,0:0:0:0:
103,89,95514,1,0,0:0:0:0:
93,81,95833,1,0,0:0:0:0:
155,187,95993,1,0,0:0:0:0:
107,300,96152,6,0,P|73:303|38:297,1,60
155,187,96471,2,0,P|184:183|214:187,1,60
292,300,96790,2,0,P|258:303|223:297,1,60
350,184,97110,2,0,P|403:184|477:221,1,120
170,300,97748,2,0,P|141:307|87:291,1,60
352,131,98227,1,0,0:0:0:0:
434,102,98386,2,0,P|367:48|286:77,1,180
136,198,99184,1,0,0:0:0:0:
136,198,99344,2,0,L|63:198,1,60
308,203,99663,2,0,L|381:203,1,60
