osu file format v13

[General]
AudioFilename: in bloom.mp3
AudioLeadIn: 1500
PreviewTime: 35456
Countdown: 0
SampleSet: Soft
StackLeniency: 0.7
Mode: 0
LetterboxInBreaks: 1
WidescreenStoryboard: 0

[Editor]
DistanceSpacing: 1
BeatDivisor: 4
GridSize: 4
TimelineZoom: 1

[Metadata]
Title:in bloom
TitleUnicode:in bloom
Artist:School Food Punishment
ArtistUnicode:School Food Punishment
Creator:Rare
Version:Normal
Source:Prog-Roid
Tags:Live Footage
BeatmapID:512006
BeatmapSetID:218213

[Difficulty]
HPDrainRate:4
CircleSize:3
OverallDifficulty:4
ApproachRate:4
SliderMultiplier:1
SliderTickRate:1

[Events]
//Background and Video events
0,0,"b.jpg",0,0
//Break Periods
2,60111,70227
2,118293,140045
//Storyboard Layer 0 (Background)
//Storyboard Layer 1 (Fail)
//Storyboard Layer 2 (Pass)
//Storyboard Layer 3 (Foreground)
//Storyboard Sound Samples
//Background Colour Transformations
3,100,0,0,0

[TimingPoints]
275,363.636363636364,4,2,1,60,1,0
275,-100,4,2,1,60,0,0
11002,-100,4,1,1,40,0,0
11911,-100,4,2,1,60,0,0
22275,-100,4,1,1,40,0,0
22820,-100,4,1,1,50,0,0
23547,-100,4,2,1,60,0,0
32275,-100,4,2,1,60,0,0
35911,-100,4,1,1,50,0,0
36638,-100,4,2,1,60,0,1
47547,-100,4,1,1,50,0,1
48275,-100,4,2,1,60,0,1
59911,-100,4,2,1,60,0,0
71547,-100,4,1,1,40,0,0
81729,-100,4,2,1,60,0,0
82275,-100,4,1,1,40,0,0
83184,-100,4,2,1,60,0,0
91911,-100,4,2,1,60,0,0
93547,-100,4,1,1,50,0,0
94820,-100,4,2,1,60,0,1
105729,-100,4,1,1,40,0,0
106456,-100,4,2,1,60,0,1
117184,-100,4,1,1,40,0,1
118093,-100,4,2,1,60,0,0
150093,-100,4,1,1,40,0,0
155911,-100,4,2,1,60,0,1
165184,-100,4,1,1,40,0,1
166093,-100,4,2,1,60,0,0
176820,-100,4,1,1,40,0,0
177729,-100,4,2,1,60,0,0
194456,-100,4,2,1,5,0,0

[Colours]
Combo1 : 255,128,64
Combo2 : 128,255,128
Combo3 : 0,128,255
Combo4 : 255,128,128

[HitObjects]
120,300,275,6,0,P|172:328|224:320,1,100,4|2,0:0|0:0,0:0:0:0:
344,252,1184,2,0,L|336:200,1,50,0|2,0:0|0:0,0:0:0:0:
276,120,1729,6,0,L|256:220,1,100,0|2,0:0|0:0,0:0:0:0:
140,312,2638,2,0,L|108:256,1,50,0|2,0:0|0:0,0:0:0:0:
60,188,3184,6,0,P|52:128|68:88,1,100,0|2,0:0|0:0,0:0:0:0:
204,32,4093,2,0,L|232:76,1,50,0|2,0:0|0:0,0:0:0:0:
308,136,4638,2,0,P|364:140|408:104,1,100,0|2,0:0|0:0,0:0:0:0:
460,252,5547,2,0,L|448:312,1,50,0|2,0:0|0:0,0:0:0:0:
368,360,6093,6,0,P|304:364|267:340,1,100,0|2,0:0|0:0,0:0:0:0:
212,268,6820,2,0,P|167:247|118:255,1,100,0|2,0:0|0:0,0:0:0:0:
45,328,7547,6,0,P|25:284|29:229,1,100,0|2,0:0|0:0,0:0:0:0:
64,140,8275,2,0,L|164:156,1,100,0|2,0:0|0:0,0:0:0:0:
260,180,9002,6,0,P|312:180|355:150,1,100,0|2,0:0|0:0,0:0:0:0:
408,72,9729,2,0,P|432:104|432:171,1,100,0|2,0:0|0:0,0:0:0:0:
392,252,10456,6,0,L|376:312,1,50,0|8,0:0|0:0,0:0:0:0:
284,328,11002,1,0,0:0:0:0:
184,336,11365,2,0,L|125:328,1,50,0|4,0:0|0:0,0:0:0:0:
33,307,11911,6,0,P|5:247|8:204,1,100,4|0,0:0|1:0,0:0:0:0:
36,120,12638,2,0,P|96:92|135:99,1,100,0|0,0:0|1:0,0:0:0:0:
224,124,13365,2,0,L|325:122,1,100,0|0,0:0|1:0,0:0:0:0:
416,80,14093,2,0,P|440:132|434:181,1,100,0|0,0:0|1:0,0:0:0:0:
388,260,14820,5,0,0:0:0:0:
312,324,15184,1,0,1:0:0:0:
220,360,15547,2,0,P|160:368|116:358,1,100,0|0,0:0|1:0,0:0:0:0:
36,308,16275,2,0,L|42:203,1,100,0|0,0:0|1:0,0:0:0:0:
8,116,17002,2,0,P|60:108|110:133,1,100,0|0,0:0|1:0,0:0:0:0:
172,200,17729,6,0,L|277:191,1,100,0|0,0:0|1:0,0:0:0:0:
372,188,18456,1,0,0:0:0:0:
312,108,18820,1,0,1:0:0:0:
252,188,19184,2,0,L|256:297,1,100,0|0,0:0|1:0,0:0:0:0:
180,352,19911,2,0,P|132:356|83:320,1,100,0|0,0:0|1:0,0:0:0:0:
34,254,20638,6,0,L|27:146,1,100,0|0,0:0|1:0,0:0:0:0:
16,56,21365,2,0,P|92:80|116:74,1,100,0|0,0:0|0:0,0:0:0:0:
152,48,21911,5,4,0:0:0:0:
300,80,22456,1,0,0:0:0:0:
296,179,22820,2,0,P|356:183|393:159,1,100
487,113,23547,6,0,L|504:213,2,100,4|0|8,0:0|0:0|0:0,0:0:0:0:
420,36,24638,1,0,0:0:0:0:
368,120,25002,1,0,0:0:0:0:
288,172,25365,2,0,P|328:208|391:212,1,100,0|8,0:0|0:0,0:0:0:0:
448,148,26093,1,0,0:0:0:0:
492,240,26456,6,0,L|506:347,2,100,0|0|8,0:0|0:0|0:0,0:0:0:0:
468,144,27547,1,0,0:0:0:0:
388,204,27911,2,0,P|328:196|295:165,1,100
229,96,28638,2,0,L|211:197,1,100,8|0,0:0|0:0,0:0:0:0:
107,230,29365,5,4,0:0:0:0:
60,320,29729,1,0,0:0:0:0:
60,320,30093,2,0,L|162:339,1,100,8|0,0:0|0:0,0:0:0:0:
252,376,30820,2,0,P|268:324|252:274,1,100
160,228,31547,1,8,0:0:0:0:
160,324,31911,1,8,0:0:0:0:
248,372,32275,6,0,P|312:376|350:359,1,100,4|8,0:0|0:0,0:0:0:0:
420,296,33002,2,0,L|409:193,1,100,0|8,0:0|0:0,0:0:0:0:
412,96,33729,1,0,0:0:0:0:
316,64,34093,1,8,0:0:0:0:
216,76,34456,2,0,P|176:48|155:9,2,75,8|8|8,0:0|0:0|0:0,0:0:0:0:
288,136,35911,6,0,L|288:240,1,100
232,320,36638,6,0,P|180:328|136:304,1,100,4|8,0:0|0:0,0:0:0:0:
40,304,37365,2,0,P|48:252|88:216,1,100,0|8,0:0|0:0,0:0:0:0:
180,220,38093,2,0,P|192:164|176:120,1,100,0|8,0:0|0:0,0:0:0:0:
88,84,38820,1,0,0:0:0:0:
32,168,39184,1,8,0:0:0:0:
100,244,39547,6,0,L|116:348,1,100,0|8,0:0|0:0,0:0:0:0:
212,368,40275,2,0,P|296:372|324:360,1,100,0|8,0:0|0:0,0:0:0:0:
400,324,41002,2,0,L|408:208,2,100,0|8|0,0:0|0:0|0:0,0:0:0:0:
308,368,42093,1,8,0:0:0:0:
320,268,42456,6,0,L|216:276,1,100,0|8,0:0|0:0,0:0:0:0:
136,328,43184,2,0,P|124:268|132:220,1,100,0|8,0:0|0:0,0:0:0:0:
124,132,43911,1,0,0:0:0:0:
212,180,44275,1,8,0:0:0:0:
232,76,44638,2,0,P|280:96|312:132,1,100,0|8,0:0|0:0,0:0:0:0:
288,228,45365,6,0,L|284:328,1,100,0|8,0:0|0:0,0:0:0:0:
188,368,46093,2,0,P|136:364|96:336,1,100,0|8,0:0|0:0,0:0:0:0:
64,300,46638,1,0,0:0:0:0:
40,256,46820,2,0,L|48:148,1,100,0|8,0:0|0:0,0:0:0:0:
40,56,47547,6,0,P|84:64|128:112,1,100,0|0,0:0|0:0,0:0:0:0:
152,196,48275,6,0,L|260:188,1,100,4|8,0:0|0:0,0:0:0:0:
352,172,49002,1,0,0:0:0:0:
296,88,49365,1,8,0:0:0:0:
260,180,49729,2,0,P|280:236|324:260,1,100,0|8,0:0|0:0,0:0:0:0:
412,240,50456,2,0,P|437:186|423:138,1,100,0|8,0:0|0:0,0:0:0:0:
388,56,51184,5,0,0:0:0:0:
308,120,51547,2,0,P|276:64|280:16,2,100,8|0|8,0:0|0:0|0:0,0:0:0:0:
404,128,52638,1,0,0:0:0:0:
484,180,53002,2,0,P|516:236|512:288,2,100,8|0|8,0:0|0:0|0:0,0:0:0:0:
384,224,54093,6,0,P|320:224|284:196,1,100,4|8,0:0|0:0,0:0:0:0:
228,128,54820,2,0,L|236:12,2,100,0|8|0,0:0|0:0|0:0,0:0:0:0:
212,228,55911,1,8,0:0:0:0:
220,120,56275,2,0,P|172:96|120:100,1,100,0|8,0:0|0:0,0:0:0:0:
48,160,57002,6,0,L|52:264,1,100,0|8,0:0|0:0,0:0:0:0:
92,352,57729,2,0,P|148:360|196:340,1,100,0|8,0:0|0:0,0:0:0:0:
256,272,58456,1,0,0:0:0:0:
308,356,58820,1,8,0:0:0:0:
360,272,59184,2,0,P|344:208|308:184,1,100,8|8,0:0|0:0,0:0:0:0:
220,180,59911,1,4,0:0:0:0:
248,264,71547,5,0,0:0:0:0:
288,352,71911,1,0,0:0:0:0:
192,340,72275,2,0,P|136:344|92:312,1,100
68,212,73002,5,0,0:0:0:0:
160,248,73365,1,0,0:0:0:0:
192,156,73729,2,0,P|236:188|248:244,1,100
208,332,74456,5,0,0:0:0:0:
300,364,74820,1,0,0:0:0:0:
400,368,75184,2,0,P|392:312|345:271,1,100
268,252,75911,5,0,0:0:0:0:
208,332,76275,1,0,0:0:0:0:
116,364,76638,2,0,P|72:372|16:340,1,100
12,240,77365,5,0,0:0:0:0:
104,268,77729,1,0,0:0:0:0:
196,240,78093,2,0,P|168:192|112:176,1,100
36,208,78820,5,0,0:0:0:0:
64,304,79184,1,0,0:0:0:0:
152,340,79547,2,0,P|232:344|260:324,1,100
292,248,80275,5,0,0:0:0:0:
328,340,80638,1,0,0:0:0:0:
404,280,81002,2,0,P|408:216|376:172,1,100
296,152,81729,6,0,L|188:160,1,100,4|4,0:0|0:0,0:0:0:0:
120,228,82456,2,0,P|96:172|104:120,1,100
120,36,83184,6,0,L|228:28,2,100,4|0|8,0:0|0:0|0:0,0:0:0:0:
44,104,84275,1,0,0:0:0:0:
20,196,84638,2,0,P|64:200|116:160,1,100
192,92,85365,2,0,P|212:136|208:192,1,100,8|0,0:0|0:0,0:0:0:0:
136,276,86093,5,0,0:0:0:0:
72,348,86456,1,0,0:0:0:0:
168,364,86820,2,0,P|228:368|268:344,1,100,8|0,0:0|0:0,0:0:0:0:
340,264,87547,2,0,L|332:156,1,100
388,68,88275,2,0,P|420:108|420:168,1,100,8|0,0:0|0:0,0:0:0:0:
376,260,89002,6,0,P|324:276|272:260,1,100,4|0,0:0|0:0,0:0:0:0:
204,188,89729,1,8,0:0:0:0:
180,92,90093,1,0,0:0:0:0:
108,160,90456,2,0,P|112:228|140:260,1,100
240,276,91184,2,0,L|348:268,1,100,8|4,0:0|0:0,0:0:0:0:
452,240,91911,6,0,P|464:184|440:136,1,100,8|8,0:0|0:0,0:0:0:0:
360,100,92638,1,8,0:0:0:0:
288,168,93002,1,0,0:0:0:0:
288,168,93184,2,0,P|220:180|164:116,1,150,4|0,0:0|0:0,0:0:0:0:
72,68,94093,6,0,L|72:168,1,100
0,236,94820,6,0,P|56:276|100:272,1,100,4|8,0:0|0:0,0:0:0:0:
148,200,95547,1,0,0:0:0:0:
180,296,95911,1,8,0:0:0:0:
269,326,96275,2,0,P|275:277|256:232,1,100,0|8,0:0|0:0,0:0:0:0:
148,200,97002,1,0,0:0:0:0:
84,124,97365,1,8,0:0:0:0:
176,84,97729,6,0,P|228:100|260:148,1,100,0|8,0:0|0:0,0:0:0:0:
264,244,98456,2,0,L|376:228,1,100,0|8,0:0|0:0,0:0:0:0:
460,212,99184,1,0,0:0:0:0:
416,124,99547,1,8,0:0:0:0:
320,100,99911,2,0,P|316:160|336:196,1,100,0|8,0:0|0:0,0:0:0:0:
412,256,100638,6,0,L|416:144,1,100,4|8,0:0|0:0,0:0:0:0:
504,108,101365,2,0,P|472:68|416:60,1,100,0|8,0:0|0:0,0:0:0:0:
340,112,102093,2,0,L|232:108,1,100,0|8,0:0|0:0,0:0:0:0:
180,188,102820,2,0,P|124:196|84:176,1,100,0|8,0:0|0:0,0:0:0:0:
0,132,103547,6,0,L|8:240,1,100,0|8,0:0|0:0,0:0:0:0:
20,332,104275,2,0,P|76:344|116:332,1,100,0|8,0:0|0:0,0:0:0:0:
216,344,105002,2,0,P|216:296|188:252,1,100,0|8,0:0|0:0,0:0:0:0:
88,240,105729,2,0,L|80:140,1,100,0|0,0:0|0:0,0:0:0:0:
60,44,106456,6,0,P|116:44|156:76,1,100,4|8,0:0|0:0,0:0:0:0:
180,164,107184,1,0,0:0:0:0:
256,104,107547,1,8,0:0:0:0:
332,40,107911,2,0,P|352:88|336:152,2,100,0|8|0,0:0|0:0|0:0,0:0:0:0:
244,8,109002,5,8,0:0:0:0:
236,104,109365,2,0,P|180:84|156:44,2,100,0|8|0,0:0|0:0|0:0,0:0:0:0:
316,48,110456,2,0,P|332:96|320:152,1,100,8|0,0:0|0:0,0:0:0:0:
228,204,111184,1,8,0:0:0:0:
300,272,111547,2,0,P|256:304|200:300,1,100,0|8,0:0|0:0,0:0:0:0:
136,236,112275,5,4,0:0:0:0:
88,316,112638,1,8,0:0:0:0:
36,236,113002,2,0,P|48:176|92:144,1,100,0|8,0:0|0:0,0:0:0:0:
112,56,113729,2,0,P|152:80|176:136,1,100,0|8,0:0|0:0,0:0:0:0:
172,236,114456,2,0,L|276:196,1,100,0|8,0:0|0:0,0:0:0:0:
360,168,115184,5,0,0:0:0:0:
392,72,115547,1,8,0:0:0:0:
460,148,115911,2,0,P|484:196|476:252,1,100,0|8,0:0|0:0,0:0:0:0:
448,340,116638,2,0,L|344:300,1,100,0|8,0:0|0:0,0:0:0:0:
264,264,117365,6,0,P|248:204|264:156,1,100,0|0,0:0|0:0,0:0:0:0:
304,80,118093,1,4,0:0:0:0:
256,192,141365,12,2,142820,0:0:0:0:
200,324,144275,6,0,P|156:332|92:296,1,100,0|2,0:0|0:0,0:0:0:0:
168,232,145002,2,0,L|164:120,2,100,0|2|0,0:0|0:0|0:0,0:0:0:0:
200,324,146093,1,2,0:0:0:0:
288,364,146456,2,0,P|348:356|384:320,1,100,0|2,0:0|0:0,0:0:0:0:
476,336,147184,6,0,L|448:232,1,100,0|2,0:0|0:0,0:0:0:0:
496,152,147911,2,0,P|444:136|388:160,1,100,0|2,0:0|0:0,0:0:0:0:
348,232,148638,2,0,L|228:224,1,100,0|2,0:0|0:0,0:0:0:0:
148,212,149365,2,0,P|132:148|144:108,1,100,0|2,0:0|0:0,0:0:0:0:
232,156,150093,6,0,L|332:144,3,100,0|0|0|0,0:0|0:0|0:0|0:0,0:0:0:0:
280,232,151547,2,0,L|380:220,3,100,0|0|0|0,0:0|0:0|0:0|0:0,0:0:0:0:
472,176,153002,2,0,P|462:120|429:84,1,100
336,64,153729,6,0,L|304:160,1,100,0|0,0:0|2:0,0:0:0:0:
212,196,154456,1,2,2:0:0:0:
212,196,155911,6,0,P|164:212|108:192,1,100,4|8,0:0|0:0,0:0:0:0:
40,132,156638,2,0,L|52:24,2,100,0|8|0,0:0|0:0|0:0,0:0:0:0:
20,236,157729,1,8,0:0:0:0:
36,336,158093,2,0,P|95:304|111:264,1,100,0|8,0:0|0:0,0:0:0:0:
112,176,158820,6,0,L|104:68,2,100,0|8|0,0:0|0:0|0:0,0:0:0:0:
104,276,159911,1,8,0:0:0:0:
168,340,160275,2,0,P|224:348|272:320,1,100,0|8,0:0|0:0,0:0:0:0:
360,320,161002,2,0,P|348:276|304:236,1,100,0|8,0:0|0:0,0:0:0:0:
208,244,161729,6,0,L|212:136,1,100,4|8,0:0|0:0,0:0:0:0:
208,44,162456,1,0,0:0:0:0:
296,88,162820,1,8,0:0:0:0:
360,164,163184,2,0,P|308:188|256:176,1,100,0|8,0:0|0:0,0:0:0:0:
180,128,163911,2,0,L|164:228,1,100,0|8,0:0|0:0,0:0:0:0:
184,320,164638,5,4,0:0:0:0:
252,252,165002,1,8,0:0:0:0:
280,344,165365,2,0,P|328:344|376:308,1,100
452,256,166093,6,0,L|436:152,1,100,4|8,0:0|0:0,0:0:0:0:
328,52,167002,2,0,L|272:44,1,50,0|8,0:0|0:0,0:0:0:0:
204,112,167547,6,0,P|132:112|104:92,1,100,0|8,0:0|0:0,0:0:0:0:
0,200,168456,2,0,L|4:272,1,50,0|8,0:0|0:0,0:0:0:0:
56,332,169002,6,0,P|113:344|169:320,1,100,0|8,0:0|0:0,0:0:0:0:
288,272,169911,2,0,L|276:212,1,50,0|8,0:0|0:0,0:0:0:0:
324,136,170456,6,0,P|360:188|360:236,1,100,0|8,0:0|0:0,0:0:0:0:
328,368,171365,2,0,L|264:360,1,50,0|8,0:0|0:0,0:0:0:0:
176,368,171911,6,0,P|112:360|80:332,1,100,4|8,0:0|0:0,0:0:0:0:
48,192,172820,2,0,L|60:136,1,50,0|8,0:0|0:0,0:0:0:0:
48,44,173365,6,0,P|116:40|152:64,1,100,0|8,0:0|0:0,0:0:0:0:
228,180,174275,2,0,L|288:184,1,50,0|8,0:0|0:0,0:0:0:0:
376,204,174820,6,0,P|396:148|384:100,1,100,0|8,0:0|0:0,0:0:0:0:
252,48,175729,2,0,L|256:120,1,50,0|8,0:0|0:0,0:0:0:0:
248,200,176275,6,0,P|192:216|136:208,1,100,0|8,0:0|0:0,0:0:0:0:
64,160,177002,2,0,L|72:272,1,100
120,348,177729,6,0,P|180:356|224:332,1,100,4|8,0:0|0:0,0:0:0:0:
348,272,178638,2,0,L|368:336,1,50,0|8,0:0|0:0,0:0:0:0:
456,348,179184,6,0,P|476:308|468:240,1,100,0|8,0:0|0:0,0:0:0:0:
400,124,180093,2,0,L|408:184,1,50,0|8,0:0|0:0,0:0:0:0:
372,264,180638,6,0,P|308:272|268:252,1,100,0|8,0:0|0:0,0:0:0:0:
168,152,181547,2,0,L|168:212,1,50,0|8,0:0|0:0,0:0:0:0:
100,268,182093,6,0,P|136:292|196:292,1,100,0|8,0:0|0:0,0:0:0:0:
316,208,183002,2,0,L|336:268,1,50,0|8,0:0|0:0,0:0:0:0:
372,348,183547,6,0,P|420:292|416:252,1,100,4|8,0:0|0:0,0:0:0:0:
412,168,184275,2,0,L|408:56,2,100,0|8|0,0:0|0:0|0:0,0:0:0:0:
336,232,185365,1,8,0:0:0:0:
300,140,185729,2,0,P|260:168|244:216,1,100,0|8,0:0|0:0,0:0:0:0:
248,328,186456,6,0,L|144:304,1,100,8|8,0:0|0:0,0:0:0:0:
68,248,187184,2,0,L|64:184,2,50,8|8|0,0:0|0:0|0:0,0:0:0:0:
40,292,187729,1,4,0:0:0:0:
256,192,187911,12,0,194456,0:0:0:0:
