osu file format v13

[General]
AudioFilename: in bloom.mp3
AudioLeadIn: 1500
PreviewTime: 35456
Countdown: 0
SampleSet: Soft
StackLeniency: 0.7
Mode: 0
LetterboxInBreaks: 1
WidescreenStoryboard: 0

[Editor]
DistanceSpacing: 1.2
BeatDivisor: 4
GridSize: 4
TimelineZoom: 2.4

[Metadata]
Title:in bloom
TitleUnicode:in bloom
Artist:School Food Punishment
ArtistUnicode:School Food Punishment
Creator:Rare
Version:Hard
Source:Prog-Roid
Tags:Live Footage
BeatmapID:511585
BeatmapSetID:218213

[Difficulty]
HPDrainRate:5
CircleSize:4
OverallDifficulty:5
ApproachRate:7.5
SliderMultiplier:1.4
SliderTickRate:1

[Events]
//Background and Video events
0,0,"b.jpg",0,0
//Break Periods
2,60111,70722
2,118293,140540
//Storyboard Layer 0 (Background)
//Storyboard Layer 1 (Fail)
//Storyboard Layer 2 (Pass)
//Storyboard Layer 3 (Foreground)
//Storyboard Sound Samples
//Background Colour Transformations
3,100,0,0,0

[TimingPoints]
275,363.636363636364,4,2,1,60,1,0
275,-100,4,2,1,60,0,0
11002,-100,4,1,1,40,0,0
11911,-100,4,2,1,60,0,0
22275,-100,4,1,1,40,0,0
22820,-100,4,1,1,50,0,0
23365,-100,4,2,1,5,0,0
23547,-133.333333333333,4,2,1,60,0,0
31911,-133.333333333333,4,2,1,45,0,0
32275,-100,4,2,1,60,0,0
35911,-100,4,1,1,50,0,0
36638,-100,4,2,1,60,0,1
47456,-100,4,1,1,50,0,1
48275,-100,4,2,1,60,0,1
59911,-100,4,2,1,60,0,0
71547,-100,4,1,1,40,0,0
81729,-100,4,2,1,60,0,0
82275,-100,4,1,1,40,0,0
83002,-100,4,2,1,5,0,0
83184,-133.333333333333,4,2,1,60,0,0
91547,-133.333333333333,4,2,1,45,0,0
91911,-100,4,2,1,60,0,0
93547,-100,4,1,1,35,0,0
94002,-100,4,1,1,40,0,0
94365,-100,4,1,1,45,0,0
94820,-100,4,2,1,60,0,1
105729,-100,4,1,1,40,0,0
106456,-100,4,2,1,60,0,1
117184,-100,4,1,1,40,0,1
118093,-100,4,2,1,60,0,0
150093,-100,4,1,1,40,0,0
155911,-100,4,2,1,60,0,1
165184,-100,4,1,1,40,0,1
166093,-100,4,2,1,60,0,0
176820,-100,4,1,1,40,0,0
177729,-100,4,2,1,60,0,0
183184,-100,4,2,1,50,0,0
183547,-100,4,2,1,60,0,0
194456,-100,4,2,1,5,0,0

[Colours]
Combo1 : 255,128,64
Combo2 : 128,255,128
Combo3 : 0,128,255
Combo4 : 255,128,128

[HitObjects]
88,300,275,6,0,P|128:304|172:292,1,70,4|0,0:0|0:0,0:0:0:0:
216,236,638,2,0,L|204:160,1,70,2|0,0:0|0:0,0:0:0:0:
261,46,1002,2,0,L|272:116,1,70,2|0,0:0|0:0,0:0:0:0:
292,196,1365,1,2,0:0:0:0:
352,136,1547,1,0,0:0:0:0:
376,216,1729,6,0,L|372:288,1,70,2|0,0:0|0:0,0:0:0:0:
324,356,2093,2,0,P|292:360|252:352,1,70,2|0,0:0|0:0,0:0:0:0:
200,288,2456,1,2,0:0:0:0:
284,280,2638,1,0,0:0:0:0:
324,356,2820,2,0,P|368:356|400:344,1,70,2|0,0:0|0:0,0:0:0:0:
456,292,3184,6,0,L|452:220,1,70,2|0,0:0|0:0,0:0:0:0:
508,160,3547,2,0,L|504:88,1,70,2|0,0:0|0:0,0:0:0:0:
464,16,3911,2,0,P|432:8|392:12,1,70,2|0,0:0|0:0,0:0:0:0:
328,60,4275,1,2,0:0:0:0:
248,84,4456,1,0,0:0:0:0:
304,141,4638,6,0,P|339:144|372:132,1,70,2|0,0:0|0:0,0:0:0:0:
268,4,5002,2,0,P|233:1|200:13,1,70,2|0,0:0|0:0,0:0:0:0:
164,88,5365,1,2,0:0:0:0:
204,160,5547,1,0,0:0:0:0:
212,244,5729,2,0,L|204:320,1,70,2|0,0:0|0:0,0:0:0:0:
132,356,6093,5,2,0:0:0:0:
132,272,6275,1,0,0:0:0:0:
280,200,6456,2,0,P|292:236|288:268,1,70,2|0,0:0|0:0,0:0:0:0:
280,352,6820,2,0,L|356:332,1,70,2|0,0:0|0:0,0:0:0:0:
428,364,7184,2,0,P|432:324|424:296,1,70,2|0,0:0|0:0,0:0:0:0:
384,220,7547,5,2,0:0:0:0:
384,220,7729,1,0,0:0:0:0:
308,312,7911,2,0,L|236:308,1,70,2|0,0:0|0:0,0:0:0:0:
204,228,8275,2,0,L|273:231,1,70,2|0,0:0|0:0,0:0:0:0:
356,236,8638,1,2,0:0:0:0:
264,144,8820,1,0,0:0:0:0:
356,236,9002,6,0,L|425:232,1,70,2|0,0:0|0:0,0:0:0:0:
345,83,9365,2,0,P|352:117|347:152,1,70,2|0,0:0|0:0,0:0:0:0:
272,244,9729,2,0,L|202:247,1,70,2|0,0:0|0:0,0:0:0:0:
48,320,10093,2,0,L|117:316,1,70,2|0,0:0|0:0,0:0:0:0:
180,380,10456,5,0,0:0:0:0:
204,300,10638,2,2,L|216:228,1,70,8|0,0:0|0:0,0:0:0:0:
236,148,11002,1,0,0:0:0:0:
236,148,11093,1,0,0:0:0:0:
236,148,11184,1,0,0:0:0:0:
336,248,11365,1,0,0:0:0:0:
204,300,11547,1,4,0:0:0:0:
212,320,11911,6,0,L|136:316,1,70,4|0,0:0|0:0,0:0:0:0:
64,352,12275,2,0,P|56:320|64:280,1,70,0|0,1:0|0:0,0:0:0:0:
128,232,12638,2,0,P|134:197|126:164,1,70
84,88,13002,1,0,1:0:0:0:
144,148,13184,1,0,0:0:0:0:
52,272,13365,6,0,P|44:228|52:200,1,70
128,172,13729,2,0,L|200:176,1,70,0|0,1:0|0:0,0:0:0:0:
284,184,14093,1,0,0:0:0:0:
244,108,14275,1,0,0:0:0:0:
272,272,14456,2,0,P|311:268|339:253,1,70,0|0,1:0|0:0,0:0:0:0:
416,284,14820,6,0,P|420:240|412:208,1,70,0|0,0:0|0:0,0:0:0:0:
356,84,15184,2,0,L|348:153,1,70,0|0,1:0|0:0,0:0:0:0:
332,236,15547,1,0,0:0:0:0:
272,176,15729,1,0,0:0:0:0:
252,256,15911,2,0,L|256:336,1,70,0|0,1:0|0:0,0:0:0:0:
180,364,16275,6,0,L|176:294,1,70
168,212,16638,1,0,1:0:0:0:
100,260,16820,2,0,P|48:264|4:176,1,140
12,115,17365,1,0,1:0:0:0:
72,56,17547,1,0,0:0:0:0:
100,136,17729,6,0,P|124:124|152:84,1,70
235,189,18093,2,0,L|228:120,1,70,0|0,1:0|0:0,0:0:0:0:
216,36,18456,1,0,0:0:0:0:
296,68,18638,1,0,0:0:0:0:
375,96,18820,2,0,P|379:61|372:28,1,70,0|0,1:0|0:0,0:0:0:0:
316,156,19184,6,0,L|320:232,1,70
404,236,19547,2,0,L|400:312,1,70,0|0,1:0|0:0,0:0:0:0:
340,364,19911,1,0,0:0:0:0:
284,300,20093,1,0,0:0:0:0:
348,248,20275,1,0,1:0:0:0:
404,312,20457,1,0,0:0:0:0:
252,376,20638,6,0,L|176:368,1,70
164,288,21002,2,0,L|88:280,1,70,0|0,1:0|0:0,0:0:0:0:
12,272,21365,1,0,0:0:0:0:
24,188,21547,1,0,1:0:0:0:
36,104,21729,1,0,1:0:0:0:
92,240,21911,6,0,P|152:240|196:172,1,140,4|0,0:0|0:0,0:0:0:0:
280,188,22456,2,0,L|268:112,1,70
177,18,22820,2,0,L|188:88,1,70
272,108,23184,2,0,L|340:80,1,70
412,44,23547,6,0,P|436:76|432:140,1,105.000004005432,4|0,0:0|0:0,0:0:0:0:
380,204,24093,1,0,0:0:0:0:
296,196,24275,1,8,0:0:0:0:
216,48,24638,2,0,L|192:104,1,52.5000020027161
168,176,25002,1,0,0:0:0:0:
112,112,25184,2,0,L|44:100,1,52.5000020027161,8|0,0:0|0:0,0:0:0:0:
4,40,25547,1,0,0:0:0:0:
0,192,25729,2,0,P|32:192|60:184,1,52.5000020027161,8|0,0:0|0:0,0:0:0:0:
80,176,26275,5,0,0:0:0:0:
148,228,26456,2,0,L|140:280,1,52.5000020027161
204,380,26820,2,0,L|212:328,1,52.5000020027161
232,248,27184,2,0,P|280:232|336:252,1,105.000004005432,8|0,0:0|0:0,0:0:0:0:
388,308,27729,2,0,L|420:248,1,52.5000020027161
448,184,28093,1,8,0:0:0:0:
364,184,28275,6,0,P|321:171|307:160,1,52.5000020027161
308,84,28638,2,0,L|240:116,1,52.5000020027161,8|0,0:0|0:0,0:0:0:0:
180,132,29002,2,0,L|104:120,1,52.5000020027161,0|0,0:0|0:0,0:0:0:0:
60,76,29365,6,0,P|48:112|68:188,1,105.000004005432,4|0,0:0|0:0,0:0:0:0:
100,252,29911,2,0,L|152:220,1,52.5000020027161,0|8,0:0|0:0,0:0:0:0:
232,80,30456,1,0,0:0:0:0:
272,156,30638,2,0,L|312:112,1,52.5000020027161
392,132,31002,2,0,P|392:108|384:72,1,52.5000020027161,8|0,0:0|0:0,0:0:0:0:
340,12,31365,1,0,0:0:0:0:
260,40,31547,6,0,L|200:32,1,52.5000020027161,8|0,0:0|0:0,0:0:0:0:
148,96,31911,2,0,L|88:88,1,52.5000020027161,12|0,0:0|0:0,0:0:0:0:
56,164,32275,6,0,P|29:141|11:111,1,70,4|0,0:0|0:0,0:0:0:0:
36,32,32638,1,8,0:0:0:0:
36,32,32820,1,0,0:0:0:0:
164,103,33002,2,0,L|96:92,1,70
36,32,33365,1,8,0:0:0:0:
208,28,33547,2,0,P|248:68|236:152,1,140
216,228,34093,2,0,L|128:148,1,105,8|0,0:0|0:0,0:0:0:0:
124,140,34456,6,0,L|148:32,2,105,8|8|8,0:0|0:0|0:0,0:0:0:0:
16,212,35911,6,0,L|20:256,3,35
52,276,36275,2,0,L|56:320,3,35,0|0|0|0,0:0|0:0|0:0|0:0,0:0:0:0:
84,344,36638,6,0,P|152:356|208:308,1,140,4|8,0:0|0:0,0:0:0:0:
208,232,37184,1,0,0:0:0:0:
292,228,37365,2,0,P|284:188|268:164,1,70
199,70,37729,2,0,L|188:140,1,70,8|0,0:0|0:0,0:0:0:0:
120,188,38093,2,0,P|192:224|256:184,1,140,0|8,0:0|0:0,0:0:0:0:
276,124,38638,1,0,0:0:0:0:
344,176,38820,2,0,P|356:140|356:108,1,70
410,14,39184,2,0,L|436:80,1,70,8|0,0:0|0:0,0:0:0:0:
492,144,39547,6,0,L|476:216,1,70
508,292,39911,2,0,P|480:300|436:288,1,70,8|0,0:0|0:0,0:0:0:0:
364,328,40275,2,0,P|356:284|360:256,1,70
443,139,40638,2,0,L|428:208,1,70,8|0,0:0|0:0,0:0:0:0:
348,240,41002,5,0,0:0:0:0:
324,320,41184,2,0,P|360:324|392:312,1,70,0|8,0:0|0:0,0:0:0:0:
436,240,41547,1,0,0:0:0:0:
396,164,41729,2,0,L|411:95,1,70,0|0,0:0|0:0,0:0:0:0:
492,72,42093,2,0,P|476:36|448:16,1,70,8|0,0:0|0:0,0:0:0:0:
298,16,42456,6,0,L|368:24,1,70
324,96,42820,2,0,L|254:88,1,70,8|0,0:0|0:0,0:0:0:0:
224,168,43184,2,0,P|168:128|176:56,1,140,0|8,0:0|0:0,0:0:0:0:
244,16,43729,2,0,L|256:88,1,70
312,148,44093,2,0,L|384:136,1,70,0|8,0:0|0:0,0:0:0:0:
380,220,44456,2,0,L|452:208,1,70
404,304,44820,2,0,P|372:308|332:292,1,70,0|8,0:0|0:0,0:0:0:0:
284,232,45184,5,0,0:0:0:0:
240,304,45365,2,0,P|217:286|197:248,1,70
116,260,45729,2,0,L|132:184,1,70,8|0,0:0|0:0,0:0:0:0:
204,152,46093,2,0,P|156:112|80:120,1,140,0|8,0:0|0:0,0:0:0:0:
20,176,46638,1,0,0:0:0:0:
85,264,46820,2,0,L|100:196,1,70
184,196,47184,2,0,P|180:164|160:128,1,70,8|0,0:0|0:0,0:0:0:0:
128,108,47456,6,0,L|148:68,1,35
216,32,47729,2,0,L|268:24,5,35
260,108,48275,6,0,L|416:76,1,140,4|8,0:0|0:0,0:0:0:0:
480,92,48820,1,0,0:0:0:0:
431,160,49002,2,0,P|463:174|498:176,1,70
348,172,49365,2,0,L|268:188,1,70,8|0,0:0|0:0,0:0:0:0:
164,303,49729,2,0,P|230:317|280:272,1,140,0|8,0:0|0:0,0:0:0:0:
272,184,50275,1,0,0:0:0:0:
184,168,50456,2,0,L|208:236,1,70
224,316,50820,2,0,P|252:304|284:272,1,70,8|0,0:0|0:0,0:0:0:0:
364,288,51184,6,0,L|344:216,1,70
386,82,51547,2,0,L|392:152,1,70,8|0,0:0|0:0,0:0:0:0:
440,220,51911,2,0,P|472:221|511:206,1,70
312,140,52275,2,0,P|279:138|240:153,1,70,8|0,0:0|0:0,0:0:0:0:
200,220,52638,5,0,0:0:0:0:
164,144,52820,1,0,0:0:0:0:
224,304,53002,2,0,P|191:305|152:290,1,70,8|0,0:0|0:0,0:0:0:0:
80,328,53365,2,0,L|75:255,1,70
140,204,53729,2,0,P|88:176|32:184,1,105,8|0,0:0|0:0,0:0:0:0:
8,200,54093,6,0,L|16:124,1,70,4|0,0:0|0:0,0:0:0:0:
0,40,54456,2,0,L|76:52,1,70,8|0,0:0|0:0,0:0:0:0:
136,100,54820,2,0,P|200:120|264:80,1,140,0|8,0:0|0:0,0:0:0:0:
192,28,55365,1,0,0:0:0:0:
340,120,55547,2,0,P|344:80|336:40,1,70
272,0,55911,1,8,0:0:0:0:
136,100,56093,2,0,P|200:120|264:80,1,140
260,85,56638,2,0,L|256:168,1,70,8|0,0:0|0:0,0:0:0:0:
284,236,57002,6,0,P|256:244|212:232,1,70,0|0,0:0|0:0,0:0:0:0:
74,199,57365,2,0,L|144:196,1,70,8|0,0:0|0:0,0:0:0:0:
208,82,57729,2,0,L|216:152,1,70
364,264,58093,2,0,P|368:224|356:188,1,70,8|0,0:0|0:0,0:0:0:0:
304,132,58456,1,0,0:0:0:0:
260,220,58638,1,0,0:0:0:0:
296,312,58820,2,0,P|352:348|392:340,1,105,8|0,0:0|0:0,0:0:0:0:
424,324,59184,6,0,L|504:312,2,70,8|8|8,0:0|0:0|0:0,0:0:0:0:
260,220,59911,1,4,0:0:0:0:
256,72,71547,5,0,0:0:0:0:
332,32,71729,2,0,P|340:60|336:108,1,70
272,152,72093,2,0,L|232:148,6,35
356,168,72820,1,0,0:0:0:0:
420,112,73002,6,0,P|436:136|440:180,1,70
456,260,73365,1,0,0:0:0:0:
372,252,73547,2,0,L|384:304,6,35
292,224,74275,5,0,0:0:0:0:
300,308,74456,2,0,P|252:300|236:288,1,70
208,208,74820,1,0,0:0:0:0:
152,272,75002,2,0,L|156:320,6,35
124,192,75729,5,0,0:0:0:0:
68,256,75911,1,0,0:0:0:0:
44,176,76093,1,0,0:0:0:0:
152,272,76275,1,0,0:0:0:0:
204,208,76456,2,0,L|200:160,6,35
236,284,77184,1,0,0:0:0:0:
280,356,77365,6,0,P|308:324|316:296,1,70
312,212,77729,1,0,0:0:0:0:
396,328,77911,2,0,L|400:280,6,35
320,292,78638,1,0,0:0:0:0:
368,148,78820,2,0,P|330:128|298:128,1,70
232,172,79184,1,0,0:0:0:0:
236,256,79365,2,0,L|236:308,6,35
160,216,80093,5,0,0:0:0:0:
156,132,80275,2,0,L|152:56,1,70
92,4,80638,1,0,0:0:0:0:
12,120,80820,1,0,0:0:0:0:
12,120,80911,1,0,0:0:0:0:
12,120,81002,1,0,0:0:0:0:
156,132,81184,1,0,0:0:0:0:
92,4,81365,2,0,P|84:36|88:72,1,70
156,132,81729,6,0,L|228:124,1,70,4|0,0:0|0:0,0:0:0:0:
400,200,82093,2,0,P|366:209|332:201,1,70,4|0,0:0|0:0,0:0:0:0:
304,192,82365,1,0,0:0:0:0:
288,168,82456,2,0,L|292:248,1,70
208,224,82820,2,0,L|211:293,1,70,0|0,0:0|0:0,0:0:0:0:
276,352,83184,6,0,P|328:364|388:332,1,105.000004005432,4|0,0:0|0:0,0:0:0:0:
420,276,83729,1,0,0:0:0:0:
472,208,83911,2,0,L|468:164,1,26.2500010013581,8|8,0:0|0:0,0:0:0:0:
464,148,84638,6,0,P|424:128|368:144,1,105.000004005432
320,212,85184,1,0,0:0:0:0:
280,140,85365,2,8,L|280:100,1,26.2500010013581
280,76,85911,5,0,0:0:0:0:
204,112,86093,2,0,P|160:116|108:84,1,105.000004005432
72,12,86638,1,0,0:0:0:0:
16,76,86820,2,8,L|20:116,1,26.2500010013581
24,140,87547,6,0,L|20:248,1,105.000004005432
12,328,88093,1,0,0:0:0:0:
105,311,88275,2,8,L|88:292,1,26.2500010013581
100,164,88638,2,0,L|104:100,1,52.5000020027161
112,28,89002,6,0,P|151:16|218:48,1,105.000004005432,4|0,0:0|0:0,0:0:0:0:
152,100,89547,1,0,0:0:0:0:
283,14,89729,2,8,L|288:40,1,26.2500010013581
288,120,90093,6,0,L|264:166,1,52.5000020027161
364,76,90456,2,0,L|416:108,1,52.5000020027161
448,176,90820,2,0,P|480:144|488:120,1,52.5000020027161
360,164,91184,2,8,L|364:192,1,26.2500010013581
468,256,91547,2,0,P|448:260|408:252,1,52.5000020027161,12|0,0:0|0:0,0:0:0:0:
340,220,91911,6,0,L|336:292,1,70,4|0,0:0|0:0,0:0:0:0:
252,381,92275,2,0,L|256:312,1,70,8|0,0:0|0:0,0:0:0:0:
256,228,92638,1,8,0:0:0:0:
115,269,92820,2,0,P|149:276|184:272,1,70,0|0,0:0|0:0,0:0:0:0:
256,228,93184,2,0,L|248:112,1,105,4|0,0:0|0:0,0:0:0:0:
248,80,93547,6,0,L|256:40,5,35
320,12,94093,6,0,L|327:46,3,35,0|0|0|0,0:0|0:0|0:0|0:0,0:0:0:0:
392,76,94456,2,0,L|400:40,3,35,0|0|0|0,0:0|0:0|0:0|0:0,0:0:0:0:
460,104,94820,6,0,L|432:180,1,70,4|0,0:0|0:0,0:0:0:0:
396,240,95184,1,8,0:0:0:0:
356,164,95365,1,0,0:0:0:0:
356,164,95456,1,0,0:0:0:0:
356,164,95547,1,0,0:0:0:0:
312,236,95729,1,0,0:0:0:0:
480,240,95911,2,0,P|472:204|452:176,1,70,8|0,0:0|0:0,0:0:0:0:
280,204,96275,6,0,P|305:241|393:246,1,140,0|8,0:0|0:0,0:0:0:0:
444,180,96820,1,0,0:0:0:0:
500,116,97002,2,0,L|492:40,1,70
404,2,97365,2,0,L|412:72,1,70,8|0,0:0|0:0,0:0:0:0:
364,140,97729,6,0,L|292:132,1,70
243,2,98093,2,0,L|236:72,1,70,8|0,0:0|0:0,0:0:0:0:
180,136,98456,2,0,P|156:108|148:72,1,70
240,196,98820,2,0,P|248:231|238:267,1,70,8|0,0:0|0:0,0:0:0:0:
172,312,99184,5,0,0:0:0:0:
92,340,99365,2,0,P|88:292|96:268,2,70,0|8|0,0:0|0:0|0:0,0:0:0:0:
160,228,99911,2,0,L|156:156,1,70
108,88,100275,2,0,P|152:72|212:96,1,105,8|0,0:0|0:0,0:0:0:0:
240,112,100638,6,0,L|256:44,1,70,4|0,0:0|0:0,0:0:0:0:
328,0,101002,2,0,P|336:28|333:69,1,70,8|0,0:0|0:0,0:0:0:0:
320,152,101365,2,0,L|464:136,1,140,0|8,0:0|0:0,0:0:0:0:
500,212,101911,2,0,L|428:219,1,70
372,280,102275,2,0,P|352:253|344:213,1,70,0|8,0:0|0:0,0:0:0:0:
260,212,102638,2,0,L|284:144,1,70
368,140,103002,2,0,P|372:112|364:64,1,70,0|8,0:0|0:0,0:0:0:0:
308,12,103365,1,0,0:0:0:0:
232,108,103547,6,0,P|164:124|104:80,1,140,0|8,0:0|0:0,0:0:0:0:
84,8,104093,1,0,0:0:0:0:
24,68,104275,2,0,L|24:148,1,70
84,196,104638,2,0,P|52:220|16:224,1,70,8|0,0:0|0:0,0:0:0:0:
132,264,105002,2,0,L|200:284,1,70
268,332,105365,2,0,P|280:292|264:224,1,105,8|0,0:0|0:0,0:0:0:0:
264,188,105729,6,0,L|280:156,3,35
352,156,106093,2,0,L|349:120,3,35
340,48,106456,6,0,L|268:60,1,70,4|0,0:0|0:0,0:0:0:0:
188,76,106820,1,8,0:0:0:0:
120,28,107002,1,0,0:0:0:0:
120,28,107093,1,0,0:0:0:0:
120,28,107184,1,0,0:0:0:0:
116,112,107365,1,0,0:0:0:0:
36,144,107547,2,0,L|84:196,1,70,8|0,0:0|0:0,0:0:0:0:
96,280,107911,6,0,P|140:260|164:168,1,140,0|8,0:0|0:0,0:0:0:0:
116,112,108456,1,0,0:0:0:0:
92,192,108638,2,0,P|136:192|164:176,1,70
240,200,109002,2,0,P|239:164|221:119,1,70,8|0,0:0|0:0,0:0:0:0:
194,0,109365,6,0,L|184:60,1,70
195,184,109729,2,0,L|264:200,1,70,8|0,0:0|0:0,0:0:0:0:
264,48,110093,2,0,L|254:108,1,70,0|0,0:0|0:0,0:0:0:0:
192,264,110456,2,0,L|123:248,1,70,8|0,0:0|0:0,0:0:0:0:
76,180,110820,5,0,0:0:0:0:
40,256,111002,1,0,0:0:0:0:
160,172,111184,2,0,P|148:136|128:112,1,70,8|0,0:0|0:0,0:0:0:0:
120,248,111547,2,0,P|200:248|240:200,1,140,0|8,0:0|0:0,0:0:0:0:
256,124,112093,1,0,0:0:0:0:
316,184,112275,6,0,L|312:264,1,70,4|0,0:0|0:0,0:0:0:0:
344,332,112638,2,0,P|312:336|268:324,1,70,8|0,0:0|0:0,0:0:0:0:
216,264,113002,2,0,P|148:248|92:284,1,140,0|8,0:0|0:0,0:0:0:0:
96,368,113547,1,0,0:0:0:0:
20,332,113729,2,0,L|8:256,1,70
0,180,114093,1,8,0:0:0:0:
84,200,114275,2,0,P|88:152|12:96,1,140
0,180,114820,1,8,0:0:0:0:
16,96,115002,1,0,0:0:0:0:
168,140,115184,6,0,L|164:224,1,70
85,228,115547,2,0,P|98:260|124:284,1,70,8|0,0:0|0:0,0:0:0:0:
275,297,115911,2,0,L|208:280,1,70
256,212,116275,2,0,L|323:229,1,70,8|0,0:0|0:0,0:0:0:0:
384,288,116638,2,0,P|408:248|412:208,1,70
412,140,117002,1,8,0:0:0:0:
360,72,117184,6,0,L|364:36,10,35,0|0|0|0|0|0|0|0|0|0|4,0:0|0:0|0:0|0:0|0:0|0:0|0:0|0:0|0:0|0:0|0:0,0:0:0:0:
256,192,141365,12,2,142820,0:0:0:0:
64,72,144275,6,0,L|72:148,1,70,0|0,1:0|0:0,0:0:0:0:
144,100,144638,2,0,L|152:176,1,70,0|0,1:0|0:0,0:0:0:0:
184,248,145002,2,0,P|144:256|112:252,1,70,0|0,1:0|0:0,0:0:0:0:
232,176,145365,2,0,P|272:168|304:172,1,70,0|0,1:0|0:0,0:0:0:0:
433,224,145729,6,0,L|364:228,1,70,0|0,1:0|0:0,0:0:0:0:
332,304,146093,2,0,P|304:284|284:252,1,70,0|0,1:0|0:0,0:0:0:0:
204,268,146456,2,0,L|208:196,1,70,0|0,1:0|0:0,0:0:0:0:
232,116,146820,2,0,L|292:160,1,70,0|0,1:0|0:0,1:0:0:0:
296,240,147184,6,0,P|336:232|368:208,1,70,0|0,1:0|0:0,0:0:0:0:
444,232,147547,2,0,L|432:164,1,70,0|0,1:0|0:0,0:0:0:0:
459,80,147911,2,0,P|424:76|392:88,1,70,0|0,1:0|0:0,0:0:0:0:
312,68,148275,2,0,L|324:144,1,70,0|0,1:0|0:0,0:0:0:0:
328,160,148547,1,0,0:0:0:0:
332,184,148638,6,0,L|256:184,1,70,0|0,1:0|0:0,0:0:0:0:
188,148,149002,2,0,P|184:184|188:220,1,70,0|0,1:0|0:0,0:0:0:0:
164,300,149365,2,0,L|108:256,1,70,0|0,1:0|0:0,0:0:0:0:
24,272,149729,2,0,P|28:216|68:180,1,105,0|0,1:0|0:0,0:0:0:0:
104,192,150093,6,0,L|128:220,7,35
172,160,150820,6,0,L|196:188,7,35
240,128,151547,6,0,L|264:156,7,35
308,96,152275,6,0,L|332:124,7,35,0|0|0|0|0|0|0|0,0:0|0:0|0:0|0:0|0:0|0:0|0:0|0:0,0:0:0:0:
376,64,153002,6,0,L|400:92,8,35
376,64,154456,5,0,0:0:0:0:
320,224,154820,1,0,0:0:0:0:
248,172,155002,5,0,0:0:0:0:
248,172,155093,1,0,0:0:0:0:
248,172,155184,2,0,L|238:205,3,35
164,240,155547,2,0,L|154:273,3,35
88,328,155911,6,0,L|72:248,1,70,4|0,0:0|0:0,0:0:0:0:
32,188,156275,1,8,0:0:0:0:
116,172,156456,1,0,0:0:0:0:
68,104,156638,2,0,P|96:92|136:92,1,70
220,100,157002,2,0,L|196:28,1,70,8|0,0:0|0:0,0:0:0:0:
300,136,157365,6,0,P|248:188|176:172,1,140,0|8,0:0|0:0,0:0:0:0:
140,112,157911,1,0,0:0:0:0:
34,191,158093,2,0,L|104:188,1,70
140,112,158456,1,8,0:0:0:0:
192,180,158638,1,0,0:0:0:0:
141,321,158820,6,0,L|152:252,1,70
240,112,159184,2,0,P|268:156|272:180,1,70,8|0,0:0|0:0,0:0:0:0:
252,256,159547,2,0,L|324:240,1,70
340,324,159911,2,0,L|412:308,1,70,8|0,0:0|0:0,0:0:0:0:
492,288,160275,5,0,0:0:0:0:
436,224,160456,1,0,0:0:0:0:
500,168,160638,2,0,L|496:96,1,70,8|0,0:0|0:0,0:0:0:0:
484,16,161002,2,0,P|440:12|408:16,1,70
356,76,161365,2,0,L|248:72,1,105,8|0,0:0|0:0,0:0:0:0:
208,72,161729,6,0,L|216:144,1,70,4|0,0:0|0:0,0:0:0:0:
208,224,162093,2,0,P|172:216|144:192,1,70,8|0,0:0|0:0,0:0:0:0:
92,132,162456,2,0,L|108:288,1,140,0|8,0:0|0:0,0:0:0:0:
88,356,163002,2,0,P|132:352|160:332,1,70
200,268,163365,1,0,0:0:0:0:
240,344,163547,1,8,0:0:0:0:
284,272,163729,2,0,L|268:184,1,70
252,120,164093,1,0,0:0:0:0:
352,200,164275,2,0,P|392:192|416:168,1,70,8|0,0:0|0:0,0:0:0:0:
480,124,164638,6,0,L|464:56,1,70,4|0,0:0|0:0,0:0:0:0:
372,24,165002,2,0,L|388:92,1,70,8|0,0:0|0:0,0:0:0:0:
400,132,165275,2,0,L|396:168,3,35
328,204,165638,2,0,L|324:240,4,35
268,288,166093,6,0,P|228:288|200:272,1,70,4|0,0:0|0:0,0:0:0:0:
136,220,166456,1,8,0:0:0:0:
52,216,166638,2,0,P|100:140|152:140,1,140
208,188,167184,1,8,0:0:0:0:
264,124,167365,2,0,L|260:272,1,140
260,348,167911,1,8,0:0:0:0:
336,312,168093,2,0,P|392:296|464:332,1,140
462,330,168638,2,0,L|480:248,1,70,8|0,0:0|0:0,0:0:0:0:
508,184,169002,6,0,P|512:152|504:112,1,70
436,64,169365,1,8,0:0:0:0:
424,148,169547,2,8,P|352:160|300:120,1,140,0|0,0:0|0:0,0:0:0:0:
268,44,170093,1,8,0:0:0:0:
216,108,170275,1,0,0:0:0:0:
184,32,170456,6,0,L|100:36,1,70
28,44,170820,1,8,0:0:0:0:
80,112,171002,1,0,0:0:0:0:
148,160,171184,2,0,P|160:112|152:80,1,70
24,176,171547,2,0,P|19:225|32:255,1,70,8|0,0:0|0:0,0:0:0:0:
76,312,171911,6,0,L|184:308,1,105,4|0,0:0|0:0,0:0:0:0:
212,292,172275,2,0,P|224:320|224:364,1,70,8|0,0:0|0:0,0:0:0:0:
140,232,172638,2,0,P|138:201|154:160,1,70,0|0,0:0|0:0,0:0:0:0:
224,64,173002,2,0,P|246:84|264:124,1,70,8|0,0:0|0:0,0:0:0:0:
256,220,173365,2,0,P|292:220|328:204,1,70
368,136,173729,2,0,L|364:60,1,70,8|0,0:0|0:0,0:0:0:0:
244,40,174093,2,0,L|240:116,1,70,0|0,0:0|0:0,0:0:0:0:
124,144,174456,2,0,L|120:68,1,70,8|0,0:0|0:0,0:0:0:0:
184,16,174820,6,0,P|220:4|308:52,1,140,0|8,0:0|0:0,0:0:0:0:
324,128,175365,1,0,0:0:0:0:
348,208,175547,2,0,P|416:224|472:180,1,140,0|8,0:0|0:0,0:0:0:0:
472,100,176093,1,0,0:0:0:0:
488,184,176275,2,0,L|484:256,1,70
500,336,176638,2,0,P|472:340|424:312,1,70,8|0,0:0|0:0,0:0:0:0:
400,296,176911,2,0,L|392:332,4,35
320,304,177365,2,0,L|312:340,3,35
240,360,177729,6,0,P|204:364|168:352,1,70,4|0,0:0|0:0,0:0:0:0:
116,292,178093,1,8,0:0:0:0:
56,348,178275,2,0,L|68:208,1,140
148,184,178820,2,0,P|136:156|104:132,1,70,8|0,0:0|0:0,0:0:0:0:
84,52,179184,2,0,L|160:64,1,70
232,28,179547,1,8,0:0:0:0:
232,112,179729,2,0,P|292:128|356:80,1,140
436,104,180275,2,0,L|424:34,1,70,8|0,0:0|0:0,0:0:0:0:
504,152,180638,6,0,L|492:224,1,70
408,216,181002,2,0,L|420:288,1,70,8|0,0:0|0:0,0:0:0:0:
476,348,181365,1,0,0:0:0:0:
404,304,181547,1,0,0:0:0:0:
332,260,181729,2,0,L|272:304,1,70,8|0,0:0|0:0,0:0:0:0:
200,336,182093,2,0,P|160:336|128:324,1,70
52,340,182456,2,0,L|68:272,1,70,8|0,0:0|0:0,0:0:0:0:
16,200,182820,2,0,L|32:132,1,70
112,108,183184,2,0,P|96:80|64:56,1,70,12|0,0:0|0:0,0:0:0:0:
104,192,183547,6,0,P|140:200|180:192,1,70,4|0,0:0|0:0,0:0:0:0:
248,160,183911,2,0,L|244:88,1,70,8|0,0:0|0:0,0:0:0:0:
320,42,184275,2,0,L|324:112,1,70
324,196,184638,1,8,0:0:0:0:
396,152,184820,1,0,0:0:0:0:
476,172,185002,6,0,P|476:136|464:104,1,70
388,68,185365,1,8,0:0:0:0:
396,152,185547,1,0,0:0:0:0:
324,196,185729,2,0,P|352:224|388:232,1,70
476,172,186093,2,0,L|468:96,1,70,8|0,0:0|0:0,0:0:0:0:
460,20,186456,6,0,L|392:32,1,70,8|0,0:0|0:0,0:0:0:0:
328,88,186820,2,0,L|260:76,1,70,8|0,0:0|0:0,0:0:0:0:
192,128,187184,2,0,L|208:196,2,70,8|8|0,0:0|0:0|0:0,0:0:0:0:
172,44,187729,1,4,0:0:0:0:
256,192,187820,12,0,194456,0:0:0:0:
