osu file format v14

[General]
AudioFilename: How to go.mp3
AudioLeadIn: 2000
PreviewTime: 51248
Countdown: 0
SampleSet: Soft
StackLeniency: 0.7
Mode: 0
LetterboxInBreaks: 0
WidescreenStoryboard: 0

[Editor]
Bookmarks: 748,43560
DistanceSpacing: 1
BeatDivisor: 4
GridSize: 4
TimelineZoom: 1

[Metadata]
Title:How to go ~TV size~
TitleUnicode:How to go ~TV size~
Artist:School Food Punishment
ArtistUnicode:スクール フード パニッシュメント
Creator:Atsuro
Version:Normal
Source:Un-Go
Tags:Opening
BeatmapID:460006
BeatmapSetID:191872

[Difficulty]
HPDrainRate:4
CircleSize:3.5
OverallDifficulty:3.5
ApproachRate:5
SliderMultiplier:1.5
SliderTickRate:1

[Events]
//Background and Video events
Video,810,"vid.avi"
0,0,"bg.jpg",0,0
//Break Periods
//Storyboard Layer 0 (Background)
//Storyboard Layer 1 (Fail)
//Storyboard Layer 2 (Pass)
//Storyboard Layer 3 (Foreground)
//Storyboard Sound Samples

[TimingPoints]
248,375,4,2,0,80,1,0
248,-133.333333333333,4,2,0,60,0,0
3248,-100,4,2,0,70,0,0
15248,-99.9999999999999,4,2,0,60,0,0
39248,-100,4,2,0,70,0,0
50873,-90.9090909090909,4,2,0,70,0,0
51248,-90.9090909090909,4,2,0,80,0,1
74498,-90.9090909090909,4,2,0,80,0,0
75248,-90.9090909090909,4,2,0,80,0,1
87248,-90.9090909090909,4,2,0,80,0,0

[Colours]
Combo1 : 74,74,74
Combo2 : 196,136,210
Combo3 : 200,185,200
Combo4 : 255,151,205

[HitObjects]
256,172,248,5,0,1:0:0:0:
176,274,810,2,0,P|256:300|340:268,1,168.750006437302,2|2,0:0|0:0,0:0:0:0:
256,172,1935,1,0,0:0:0:0:
356,93,2498,2,0,B|304:74|257:37|257:37|211:74|143:93,1,225.000008583069
88,180,3623,6,0,P|84:236|156:316,1,150,0|0,1:0|0:0,0:0:0:0:
196,260,4185,1,0,0:0:0:0:
252,312,4373,2,0,P|300:257|301:183,1,150,0|0,1:0|0:0,0:0:0:0:
200,76,5123,6,0,P|276:32|356:44,1,150,0|0,1:0|0:0,0:0:0:0:
436,148,5873,2,0,L|404:216,1,75,0|0,1:0|0:0,0:0:0:0:
456,272,6248,6,0,P|400:316|324:328,1,150,0|0,0:0|1:0,0:0:0:0:
256,356,6810,1,0,0:0:0:0:
120,296,7185,1,0,0:0:0:0:
120,296,7373,2,0,P|72:236|64:156,1,150,0|0,1:0|0:0,0:0:0:0:
168,56,8123,5,0,1:0:0:0:
256,180,8498,1,0,0:0:0:0:
344,56,8873,1,0,1:0:0:0:
428,180,9248,6,0,P|424:236|380:296,1,100,2|2,0:0|0:0,0:0:0:0:
308,248,9748,2,0,P|256:240|184:260,1,100,2|2,0:0|0:0,0:0:0:0:
112,276,10248,6,0,P|89:231|87:182,1,100,2|2,0:0|0:0,0:0:0:0:
186,163,10748,2,0,P|250:151|324:158,1,100,2|2,0:0|0:0,0:0:0:0:
339,72,11248,6,0,P|291:58|241:52,1,100,2|2,0:0|0:0,0:0:0:0:
144,75,11748,1,2,0:0:0:0:
70,142,11998,1,2,0:0:0:0:
61,241,12248,6,0,P|107:293|186:322,1,150,4|0,0:0|1:0,0:0:0:0:
256,308,12810,2,0,L|256:144,1,150
332,152,13373,2,0,L|332:240,1,75,0|0,1:0|0:0,0:0:0:0:
332,304,13748,1,0,0:0:0:0:
410,177,14123,6,0,P|406:117|314:71,1,150,0|0,1:0|0:0,0:0:0:0:
268,100,14685,1,0,0:0:0:0:
203,69,14873,2,0,P|140:105|130:177,1,150,0|4,1:0|0:0,0:0:0:0:
268,236,15623,5,0,1:0:0:0:
172,344,15998,2,0,P|132:292|120:260,1,75,0|0,0:0|0:0,0:0:0:0:
76,229,16373,1,0,1:0:0:0:
66,78,16748,6,0,P|137:53|210:63,1,150,0|0,0:0|1:0,0:0:0:0:
264,117,17311,1,0,0:0:0:0:
264,267,17685,1,0,0:0:0:0:
306,328,17873,2,0,P|380:338|450:314,1,150,0|0,1:0|0:0,0:0:0:0:
455,163,18623,6,0,L|381:107,1,75,0|0,1:0|0:0,0:0:0:0:
330,78,18998,1,0,0:0:0:0:
180,78,19373,6,0,L|120:123,1,75,0|0,1:0|0:0,0:0:0:0:
57,163,19748,1,0,0:0:0:0:
109,289,20123,2,0,P|170:317|203:324,1,75,0|0,1:0|0:0,0:0:0:0:
271,202,20685,1,0,0:0:0:0:
271,202,20873,2,0,P|349:207|420:159,1,150,0|0,1:0|0:0,0:0:0:0:
288,82,21623,6,0,P|220:93|155:179,1,150,0|0,1:0|0:0,0:0:0:0:
120,209,22185,1,0,0:0:0:0:
165,268,22373,2,0,P|196:297|225:313,1,75,0|0,1:0|0:0,0:0:0:0:
292,344,22748,5,0,0:0:0:0:
436,302,23123,2,0,P|472:251|493:154,1,150,0|0,1:0|0:0,0:0:0:0:
415,172,23685,2,0,P|419:127|406:89,1,75,0|0,0:0|1:0,3:0:0:0:
276,44,24248,6,0,P|244:74|228:111,1,75
163,59,24623,2,0,P|137:91|102:215,1,150,0|2,1:0|0:0,0:0:0:0:
47,243,25185,2,0,P|71:296|165:364,1,150,0|2,1:0|0:0,0:0:0:0:
288,337,25935,5,0,0:0:0:0:
288,337,26123,2,0,P|329:286|348:192,1,150,0|0,1:0|0:0,0:0:0:0:
380,136,26685,1,0,0:0:0:0:
340,72,26873,2,0,B|298:39|298:39|178:41,1,150,0|0,1:0|0:0,0:0:0:0:
125,170,27623,5,0,1:0:0:0:
64,307,27998,2,0,P|123:319|217:288,1,150,0|0,0:0|1:0,0:0:0:0:
254,235,28560,1,0,0:0:0:0:
255,84,28935,5,0,0:0:0:0:
322,52,29122,2,0,P|392:26|464:42,1,150,0|0,1:0|0:0,0:0:0:0:
496,110,29685,1,0,0:0:0:0:
494,186,29873,2,0,P|458:230|357:253,1,150,0|0,1:0|0:0,0:0:0:0:
244,336,30623,6,0,P|167:308|109:250,1,150,0|0,1:0|0:0,0:0:0:0:
50,228,31185,1,0,0:0:0:0:
114,188,31373,1,0,1:0:0:0:
255,102,31748,6,0,B|292:173|217:175|261:257,1,150,2|0,0:0|1:0,0:0:0:0:
389,313,32498,2,0,P|430:273|433:156,1,150,0|0,0:0|1:0,0:0:0:0:
331,84,33248,5,0,0:0:0:0:
181,85,33623,1,0,1:0:0:0:
256,216,33998,2,0,L|256:292,2,75,2|0|0,0:0|0:0|1:0,0:0:0:0:
193,174,34560,2,0,P|256:142|326:186,1,150
339,251,35123,1,0,1:0:0:0:
376,108,35498,6,0,P|328:76|288:68,1,75
256,20,35873,1,0,1:0:0:0:
136,108,36248,6,0,P|184:76|224:68,2,75,0|0|0,0:0|0:0|1:0,0:0:0:0:
256,212,36998,2,0,L|304:288,1,75,2|0,0:0|0:0,0:0:0:0:
372,284,37373,1,0,1:0:0:0:
382,205,37560,2,0,P|362:149|294:93,1,150
218,94,38123,2,0,P|158:138|130:206,1,150,0|0,1:0|0:0,0:0:0:0:
256,288,38873,6,0,L|256:200,1,75,0|0,1:0|0:0,0:0:0:0:
300,152,39248,2,0,B|344:104|344:104|400:108,1,112.5,6|2,0:0|0:0,0:0:0:0:
312,27,39810,2,0,L|192:27,1,112.5,2|2,0:0|0:0,0:0:0:0:
120,107,40373,2,0,B|168:104|168:104|212:152,1,112.5,2|2,0:0|0:0,0:0:0:0:
143,241,40935,1,2,0:0:0:0:
238,310,41310,2,2,P|288:306|374:164,1,225,2|0,0:0|1:0,0:0:0:0:
453,233,42248,6,0,P|431:283|392:335,1,112.5,6|2,0:0|0:0,0:0:0:0:
312,255,42810,2,0,L|184:254,1,112.5,2|2,0:0|0:0,0:0:0:0:
115,329,43373,2,0,P|81:284|58:233,1,112.5,2|2,0:0|0:0,0:0:0:0:
65,158,43935,6,0,L|97:66,1,75,0|0,0:0|1:0,0:0:0:0:
162,109,44310,2,0,L|239:55,1,75,0|0,0:0|0:0,0:0:0:0:
261,130,44685,1,0,0:0:0:0:
261,130,44873,2,0,B|304:203|218:201|265:278,1,150,0|6,1:0|0:0,0:0:0:0:
360,326,45529,5,2,0:0:0:0:
255,366,45810,1,2,0:0:0:0:
152,326,46091,1,2,0:0:0:0:
72,248,46373,2,0,L|72:132,2,112.5,0|0|0,1:0|1:0|1:0,0:0:0:0:
148,244,47123,5,0,0:0:0:0:
148,96,47498,1,0,1:0:0:0:
224,96,47685,2,2,P|300:100|380:148,1,150,2|2,0:0|0:0,0:0:0:0:
400,200,48248,6,0,P|392:272|350:311,1,112.5,0|0,1:0|1:0,0:0:0:0:
256,316,48810,2,0,P|264:244|305:204,1,112.5,0|0,1:0|1:0,0:0:0:0:
365,134,49373,2,0,P|299:100|225:97,1,150,4|0,1:0|1:0,0:0:0:0:
156,128,49935,6,0,P|160:184|168:208,2,75,2|0|2,0:0|1:0|0:0,0:0:0:0:
128,57,50498,1,0,1:0:0:0:
45,162,50873,2,0,B|12:207|12:207|11:282|80:313,1,165.000005035401,0|4,0:0|0:0,0:0:0:0:
208,362,51623,6,0,P|269:344|315:244,1,165.000005035401,0|0,1:0|0:0,0:0:0:0:
356,187,52185,1,0,0:0:0:0:
396,259,52373,2,0,P|426:308|456:320,1,82.5000025177003,0|0,1:0|0:0,0:0:0:0:
476,240,52748,1,0,0:0:0:0:
402,92,53123,6,0,P|308:86|252:164,1,165.000005035401,0|0,1:0|0:0,0:0:0:0:
257,214,53685,1,0,0:0:0:0:
244,296,53873,2,0,P|177:347|84:318,1,165.000005035401,0|0,1:0|0:0,0:0:0:0:
155,177,54623,6,0,L|199:93,1,82.5000025177003,0|0,1:0|0:0,0:0:0:0:
274,122,54998,2,0,P|272:72|151:36,1,165.000005035401,0|0,0:0|1:0,0:0:0:0:
113,72,55560,2,0,L|70:156,1,82.5000025177003
81,308,56123,2,0,P|130:333|239:311,1,165.000005035401,0|0,1:0|0:0,0:0:0:0:
374,226,56873,1,0,1:0:0:0:
416,66,57248,6,0,P|327:89|281:30,1,165.000005035401,6|0,0:0|1:0,0:0:0:0:
215,88,57810,2,0,P|238:177|179:223,1,165.000005035401,2|2,0:0|0:0,0:0:0:0:
246,282,58373,2,0,P|290:270|313:300,1,82.5000025177003,0|2,1:0|0:0,0:0:0:0:
156,348,58935,5,0,0:0:0:0:
111,289,59123,2,0,P|82:222|129:136,1,165.000005035401,0|0,1:0|0:0,0:0:0:0:
137,63,59685,1,0,0:0:0:0:
216,86,59873,2,0,P|281:98|396:48,1,165.000005035401,0|0,1:0|0:0,0:0:0:0:
482,190,60623,5,0,1:0:0:0:
373,316,60998,2,0,P|296:287|216:298,1,165.000005035401,0|0,0:0|1:0,0:0:0:0:
92,192,61748,2,0,L|176:192,2,82.5000025177003,4|0|0,0:0|0:0|1:0,0:0:0:0:
56,116,62310,2,0,L|228:116,1,165.000005035401
256,192,62873,1,0,1:0:0:0:
404,116,63248,6,0,P|423:183|400:276,1,165.000005035401,4|0,0:0|1:0,0:0:0:0:
256,192,63998,2,0,L|256:80,1,82.5000025177003
324,63,64373,2,0,P|255:23|187:63,1,165.000005035401,0|0,1:0|0:0,0:0:0:0:
187,238,65123,2,0,P|255:277|323:238,1,165.000005035401,0|0,1:0|0:0,0:0:0:0:
184,150,65873,6,0,L|79:150,1,82.5000025177003,0|0,1:0|0:0,0:0:0:0:
37,202,66248,1,0,0:0:0:0:
133,335,66623,1,0,1:0:0:0:
297,321,66998,2,0,P|375:299|432:240,1,165.000005035401,0|0,0:0|1:0,0:0:0:0:
364,192,67560,1,0,0:0:0:0:
432,143,67748,6,0,P|375:84|297:63,1,165.000005035401,0|0,0:0|1:0,0:0:0:0:
196,192,68498,2,0,L|288:192,2,82.5000025177003,0|0|0,0:0|0:0|1:0,0:0:0:0:
54,114,69248,6,0,P|33:190|60:284,1,165.000005035401,4|0,0:0|1:0,0:0:0:0:
217,288,69998,1,0,0:0:0:0:
256,128,70373,2,0,L|256:32,2,82.5000025177003,0|0|0,1:0|0:0|0:0,0:0:0:0:
296,288,71123,5,0,1:0:0:0:
460,316,71498,2,0,P|444:256|352:168,1,165.000005035401,0|0,0:0|1:0,0:0:0:0:
298,206,72060,2,0,L|186:206,1,82.5000025177003,0|4,0:0|0:0,0:0:0:0:
121,70,72623,6,0,P|63:128|37:205,1,165.000005035401,0|0,1:0|0:0,0:0:0:0:
76,276,73185,1,0,0:0:0:0:
120,205,73373,1,0,1:0:0:0:
256,348,73748,6,0,P|352:296|380:248,1,165.000005035401,4|0,0:0|1:0,0:0:0:0:
428,184,74310,2,0,P|379:118|304:86,1,165.000005035401,0|0,0:0|0:0,0:0:0:0:
220,92,74873,1,0,1:0:0:0:
92,196,75248,6,0,P|104:240|232:312,1,165.000005035401,4|0,0:0|1:0,0:0:0:0:
256,252,75810,1,0,0:0:0:0:
317,310,75998,2,0,P|387:270|420:196,1,165.000005035401,0|0,0:0|1:0,0:0:0:0:
256,176,76748,6,0,L|256:76,1,82.5000025177003
327,52,77123,2,0,P|258:12|181:59,1,165.000005035401,0|0,1:0|0:0,0:0:0:0:
104,191,77873,1,0,1:0:0:0:
189,332,78248,6,0,L|272:332,1,82.5000025177003,4|2,0:0|0:0,0:0:0:0:
296,252,78623,2,0,L|196:252,1,82.5000025177003,4|2,0:0|0:0,0:0:0:0:
188,172,78998,2,0,L|272:172,1,82.5000025177003,4|2,0:0|0:0,0:0:0:0:
308,100,79373,1,0,1:0:0:0:
144,92,79748,6,0,P|88:144|108:256,1,165.000005035401,0|0,0:0|1:0,0:0:0:0:
176,368,80498,2,0,P|232:316|212:204,1,165.000005035401,0|0,0:0|1:0,0:0:0:0:
138,95,81248,6,0,P|178:67|290:83,1,165.000005035401,4|0,0:0|1:0,0:0:0:0:
310,244,81998,2,0,P|346:276|402:296,2,82.5000025177003,0|0|0,0:0|0:0|1:0,0:0:0:0:
310,161,82560,1,0,0:0:0:0:
288,81,82748,2,0,P|211:59|139:95,1,165.000005035401,0|0,0:0|1:0,0:0:0:0:
49,235,83498,6,0,P|126:257|198:221,1,165.000005035401,0|0,0:0|1:0,0:0:0:0:
225,142,84060,1,0,0:0:0:0:
285,198,84248,1,4,0:0:0:0:
432,264,84623,2,0,P|484:240|500:204,1,82.5000025177003,0|4,1:0|0:0,0:0:0:0:
460,144,84998,2,0,P|440:68|348:24,1,165.000005035401,0|4,1:0|0:0,0:0:0:0:
256,192,85748,12,4,87248,0:0:0:0:
140,124,87810,6,0,P|260:99|380:125,1,247.500007553101,4|4,0:0|0:0,0:0:0:0:
340,196,88560,2,0,P|259:179|179:195,1,165.000005035401,0|4,0:0|0:0,0:0:0:0:
